#TITLE:Not The Same;
#SUBTITLE:;
#ARTIST:Bodyjar;
#TITLETRANSLIT:;
#SUBTITLETRANSLIT:;
#ARTISTTRANSLIT:;
#GENRE:;
#CREDIT:;
#MENUCOLOR:;
#METERTYPE:DDR;
#BANNER:Not The Same-bn.png;
#BACKGROUND:Not The Same-bg.png;
#LYRICSPATH:;
#CDTITLE:ddrencorecdtitle.png;
#MUSIC:Not The Same.mp3;
#OFFSET:-0.012;
#SAMPLESTART:43.240;
#SAMPLELENGTH:10.800;
#SELECTABLE:YES;
#LISTSORT:;
#BPMS:0.000=222.275;
#STOPS:160.000=0.035
,310.500=0.034
;
#BGCHANGES:;
#ATTACKS:;

//---------------dance-single - ----------------
#NOTES:
     dance-single:
     :
     Beginner:
     2:
     0.169,0.368,0.075,0.094,0.000:
0000
0000
0000
0000
,
0000
0000
0000
0000
,
0000
0000
0000
0000
,
0000
0000
0000
0000
,
0000
0000
0000
0000
,
0000
0000
0000
0000
,
0000
0000
0000
0000
,
0000
0000
0000
0000
,
1000
0000
0000
0000
,
0010
0000
0010
0000
,
0010
0000
0000
0000
,
0100
0000
0100
0000
,
0100
0000
0000
0000
,
0001
0000
0001
0000
,
0001
0000
0000
0000
,
1000
0000
1000
0000
,
0001
0000
0000
0000
,
0100
0000
0000
0000
,
0001
0000
0000
0000
,
0100
0000
0000
0000
,
0010
0000
0000
0000
,
1000
0000
0000
0000
,
0001
0000
1000
0000
,
0002
0000
0000
0003
,
1000
0000
0000
0000
,
0100
0000
0000
0000
,
1000
0000
0000
0000
,
0100
0000
0000
0000
,
0010
0000
0000
0000
,
0001
0000
0000
0000
,
1000
0000
0001
0000
,
2000
0000
0000
3000
,
0001
0000
0000
0000
,
0000
0000
0000
0000
,
0100
0000
0001
0000
,
0100
0000
0010
0000
,
1000
0000
0000
0000
,
0000
0000
0000
0000
,
0100
0000
1000
0000
,
0100
0000
0010
0000
,
0001
0000
0000
0000
,
1000
0000
0000
0000
,
0001
0000
0000
0000
,
1000
0000
0010
0000
,
0100
0000
0000
0000
,
0100
0000
0000
0000
,
1001
0000
0000
0000
,
0000
0000
0000
0000
,
1001
0000
0000
0000
,
0000
0000
0000
0000
,
0001
0000
0000
0000
,
0001
0000
0000
0000
,
1000
0000
0100
0000
,
0010
0000
0001
0000
,
1000
0000
0000
0000
,
1000
0000
0000
0000
,
0002
0000
0003
0000
,
2000
0000
3000
0000
,
0002
0000
0003
0000
,
2000
0000
3000
0000
,
0001
0000
0000
0000
,
0000
0000
0000
0000
,
0100
0000
0001
0000
,
0010
0000
0100
0000
,
1000
0000
0000
0000
,
0000
0000
0000
0000
,
0010
0000
1000
0000
,
0100
0000
0010
0000
,
0001
0000
0000
0000
,
1000
0000
0000
0000
,
0001
0000
0000
0000
,
1000
0000
0010
0000
,
0100
0000
0000
0000
,
0100
0000
0000
0000
,
1001
0000
0000
0000
,
0000
0000
0000
0000
,
1001
0000
0000
0000
,
0000
0000
0000
0000
,
0001
0000
0000
0000
,
0100
0000
0100
0000
,
0100
0000
0000
0000
,
0010
0000
0010
0000
,
0010
0000
0000
0000
,
1000
0000
1000
0000
,
1000
0000
0000
0000
,
0001
0000
0001
0000
,
1000
0000
0000
0000
,
1000
0000
0100
0000
,
1000
0000
0000
0000
,
0100
0000
0010
0000
,
0100
0000
0000
0000
,
0010
0000
0001
0000
,
0010
0000
0000
0000
,
0001
0000
1000
0000
,
2002
0000
0000
0000
,
0000
0000
3003
0000
,
1001
0000
0110
0000
,
2002
0000
0000
3003
;

//---------------dance-single - ----------------
#NOTES:
     dance-single:
     :
     Easy:
     5:
     0.328,0.414,0.113,0.113,0.000:
0000
0000
0000
0000
,
0000
0000
0000
0000
,
0000
0000
0000
0000
,
0000
0000
0000
0000
,
0000
0000
0000
0000
,
0000
0000
0000
0000
,
0000
0000
0000
0000
,
0000
0000
0000
0000
,
0001
0000
0010
0000
,
0001
0100
0100
0001
,
1000
0000
0100
0000
,
1000
0010
0010
1000
,
0001
0000
0100
0000
,
0001
0010
0010
0001
,
1000
0000
0010
0000
,
1000
0100
0100
1000
,
0001
0000
0100
0000
,
0010
1000
0010
0000
,
1000
0000
0010
0000
,
0100
0001
0100
0000
,
0001
0000
1000
0000
,
0001
1000
0001
0000
,
1001
0000
0110
0000
,
2002
0000
0000
3003
,
1000
0000
0010
0000
,
0100
0010
0100
0000
,
0001
0000
1000
0000
,
0100
0010
0100
0000
,
1000
0000
0001
0000
,
1000
0001
1000
0000
,
1001
0000
0110
0000
,
2002
0000
0000
3003
,
0001
0100
0000
0001
,
0000
0100
0000
0010
,
1000
0001
1000
1000
,
0001
0100
0001
0000
,
1000
0100
0000
1000
,
0000
0100
0000
0010
,
0001
1000
0001
0001
,
1000
0010
0000
1000
,
0001
0100
0001
0000
,
1000
0000
0100
0000
,
0010
0000
0001
0100
,
0010
1000
0001
0001
,
1000
0000
0010
0000
,
0100
0000
0001
0000
,
1100
0000
0000
0000
,
1000
0000
0000
0000
,
0101
0000
0000
0000
,
0001
0000
0000
0000
,
0001
0000
0100
0000
,
0001
0000
0100
0000
,
0010
0000
0010
0000
,
0100
0000
0100
0001
,
1000
0000
0100
0000
,
1000
0000
0100
0000
,
0020
0000
0000
0000
,
0230
0000
0000
0000
,
2300
0000
0000
0000
,
3002
0000
0000
0000
,
1003
0000
0100
0000
,
0010
0000
0001
0000
,
1000
0010
1000
0010
,
0100
0001
0000
1000
,
0001
0000
0010
0000
,
0100
0000
1000
0000
,
0001
0100
0001
0100
,
0010
1000
0000
0001
,
1000
0100
1000
0000
,
0001
0000
0100
0000
,
0010
0000
1000
0100
,
0010
0001
1000
1000
,
0001
0000
0100
0000
,
0010
0000
1000
0000
,
1001
0000
0000
0000
,
0010
0000
0000
0000
,
1001
0000
0000
0000
,
0100
0000
0000
0000
,
1000
0000
0100
0000
,
1000
0010
0010
1000
,
0001
0000
0100
0000
,
0001
0010
0010
0001
,
1000
0000
0010
0000
,
1000
0100
0100
1000
,
0001
0000
0010
0000
,
0001
0100
0100
0001
,
1000
0100
1000
0000
,
0001
0100
0100
0010
,
1000
0100
1000
0000
,
0001
0010
0100
1000
,
0001
0100
0001
0000
,
1000
0100
0100
0010
,
0001
0100
0001
0000
,
1000
0100
0010
0001
,
2002
0000
0000
0000
,
0000
0000
3003
0000
,
0010
0000
0000
0010
0000
0000
0010
0000
,
2002
0000
0000
3003
;

//---------------dance-single - ----------------
#NOTES:
     dance-single:
     :
     Medium:
     6:
     0.428,0.459,0.122,0.113,0.000: // measure 1
0000
0000
0000
0000
,  // measure 2
0000
0000
0000
0000
,  // measure 3
0000
0000
0000
0000
,  // measure 4
0000
0000
0000
0000
,  // measure 5
0000
0000
0000
0000
,  // measure 6
0000
0000
0000
0000
,  // measure 7
0000
0000
0000
0000
,  // measure 8
0000
0000
0000
0000
,  // measure 9
1000
0100
1000
0010
,  // measure 10
1000
0010
0000
0100
0000
0001
0000
0000
,  // measure 11
0001
0100
0001
0010
,  // measure 12
0001
0010
0000
0100
0000
1000
0000
0000
,  // measure 13
1000
0010
0100
0001
,  // measure 14
1000
0010
0000
1000
0000
0001
0000
0000
,  // measure 15
0001
0100
0010
1000
,  // measure 16
0001
0100
0000
0001
0000
1000
0000
0000
,  // measure 17
1000
0100
0001
0000
,  // measure 18
0100
0100
1000
0000
,  // measure 19
0001
0100
1000
0000
,  // measure 20
0100
0100
0001
0000
,  // measure 21
1000
0010
0100
0001
,  // measure 22
0100
0010
1000
0001
,  // measure 23
1001
0000
0110
0000
,  // measure 24
2002
0000
0000
3003
,  // measure 25
0001
0010
1000
1000
,  // measure 26
0010
0010
0001
0000
,  // measure 27
1000
0010
0001
0001
,  // measure 28
0010
0010
1000
0000
,  // measure 29
0001
0100
0010
1000
,  // measure 30
0010
0100
0001
1000
,  // measure 31
1001
0000
0110
0000
,  // measure 32
2002
0000
0000
3003
,  // measure 33
1000
0100
0000
0010
,  // measure 34
0000
0001
0000
0100
,  // measure 35
0010
0010
1000
0001
,  // measure 36
0100
0100
0001
1000
,  // measure 37
0001
0010
0000
0100
,  // measure 38
0000
1000
0000
0010
,  // measure 39
0100
0100
0001
1000
,  // measure 40
0010
0000
0010
0000
1000
0100
0000
0100
,  // measure 41
0000
1000
0001
0000
,  // measure 42
0100
0000
0010
0000
,  // measure 43
1001
0000
0001
0100
,  // measure 44
0010
1000
0100
0010
,  // measure 45
0001
0100
0001
0000
,  // measure 46
1000
0010
1000
0000
,  // measure 47
1000
0000
0100
1000
0000
0100
0000
0010
,  // measure 48
0000
0001
0000
0100
0000
0000
0000
0000
,  // measure 49
0001
0000
0100
0001
0000
0010
0000
0100
,  // measure 50
0000
1000
0000
0001
0000
0000
0000
0000
,  // measure 51
0010
0000
1001
0000
,  // measure 52
0100
0000
1001
0000
,  // measure 53
0001
0100
1000
0000
,  // measure 54
0001
0000
0100
0000
1000
0000
0100
0001
,  // measure 55
0100
0000
0110
0000
,  // measure 56
1000
0000
0110
0000
,  // measure 57
2000
0000
0000
0000
,  // measure 58
3020
0000
0000
0000
,  // measure 59
0230
0000
0000
0000
,  // measure 60
0302
0000
0000
0000
,  // measure 61
1003
0100
1000
0100
,  // measure 62
0010
0000
0001
0000
,  // measure 63
0100
0100
0001
1000
,  // measure 64
0010
0010
1000
0001
,  // measure 65
0001
0100
0001
0100
,  // measure 66
0010
0000
1000
0000
,  // measure 67
0100
0100
1000
0001
,  // measure 68
0010
0000
0010
0000
0001
0100
0000
0100
,  // measure 69
0000
0001
0100
0001
,  // measure 70
0010
0100
1000
0010
,  // measure 71
1000
0100
0010
0100
,  // measure 72
1000
0001
0100
0010
,  // measure 73
1000
0100
1000
0000
,  // measure 74
0001
0100
0001
0000
,  // measure 75
1000
0000
0001
1000
0000
0010
0000
0100
,  // measure 76
0000
0001
0000
1000
0000
0000
0000
0000
,  // measure 77
0001
0000
1000
0001
0000
0100
0000
0010
,  // measure 78
0000
1000
0000
0001
0000
0000
0000
0000
,  // measure 79
0001
0100
0001
0010
,  // measure 80
0001
0010
0000
0100
0000
1000
0000
0000
,  // measure 81
1000
0100
1000
0010
,  // measure 82
1000
0010
0000
0100
0000
0001
0000
0000
,  // measure 83
0001
0100
0010
1000
,  // measure 84
0001
0100
0000
0001
0000
1000
0000
0000
,  // measure 85
1000
0010
0100
0001
,  // measure 86
1000
0010
0000
1000
0000
0001
0000
0000
,  // measure 87
0001
0010
0100
1000
,  // measure 88
0100
0010
0000
0001
0000
1000
0000
0001
,  // measure 89
1000
0100
0010
0001
,  // measure 90
0010
0100
0000
1000
0000
0001
0000
1000
,  // measure 91
0001
1000
0010
0100
,  // measure 92
0010
1000
0000
0001
0000
1000
0000
0010
,  // measure 93
1000
0001
0010
0100
,  // measure 94
0010
0001
0000
1000
0000
0001
0000
0000
,  // measure 95
2002
0000
0000
0000
,  // measure 96
0000
0000
3003
0000
,  // measure 97
1000
0000
0000
0001
0000
0000
0100
0000
,  // measure 98
2002
0000
0000
3003
;

//---------------dance-single - ----------------
#NOTES:
     dance-single:
     :
     Hard:
     9:
     0.586,0.735,0.291,0.244,0.000:
0000
0000
0000
0000
,
0000
0000
0000
0000
,
0000
0000
0000
0000
,
0000
0000
0000
0000
,
0000
0000
0000
0000
,
0000
0000
0000
0000
,
0000
0000
0000
0000
,
0000
0000
0000
0000
,
0001
0000
0100
0000
0001
0100
1000
0000
,
0100
0010
0000
1000
0000
0001
0000
0001
,
1000
0000
0100
0000
1000
0100
0001
0000
,
0100
0010
0000
0001
0000
0001
0000
1000
,
0001
0000
0010
0000
0001
0010
1000
0000
,
0010
0001
0000
1000
0000
0001
0000
0001
,
1000
0000
0010
0000
1000
0010
0001
0000
,
0010
1000
0000
0001
0000
1000
0000
0000
,
0001
0101
0001
1001
,
0001
0000
0011
0000
1000
0010
0100
0001
,
1000
1100
1000
1001
,
1000
0000
1010
0000
0001
0100
0010
1000
,
0001
0000
0100
1000
0000
0100
0000
0010
,
0000
1000
0000
0100
0000
0001
0000
0000
,
2100
0000
0002
3000
,
0200
0003
0010
0000
,
0301
0000
0010
0001
0000
0100
0010
0001
,
0000
0010
0000
1000
0000
0000
0001
0000
,
1000
0000
0100
1000
0000
0010
0100
1000
,
0000
0100
0000
0001
0000
0000
0001
0000
,
1000
0000
0100
0001
0000
0100
0000
0010
,
0000
0001
0000
0100
0000
1000
0000
0000
,
0102
0000
2000
0003
,
0200
3000
0010
0000
,
1300
0000
0100
0000
1000
0100
1000
0000
,
0100
0000
0001
0000
0100
0001
0100
0000
,
0001
0100
1000
0100
0010
0001
0100
0000
,
0010
0001
0010
1000
0100
0010
0001
0000
,
0001
0000
0100
0000
0001
0100
0001
0000
,
0100
0000
1000
0000
0100
1000
0100
0000
,
1000
0100
0001
0100
0010
1000
0100
0000
,
0010
1000
0010
0001
0100
0010
0000
0010
,
0200
0001
0000
1300
,
0200
0010
1000
0301
,
0020
1000
0000
0031
,
0020
0100
1000
0031
,
1000
0000
1010
0000
0100
0010
0100
0001
,
0000
0000
0011
0000
0100
0010
0100
1000
,
0001
0000
0100
1000
0000
0100
0000
0010
,
0000
1000
0000
0001
0000
0000
0000
0001
,
1000
0000
0100
0001
0000
0100
0000
0010
,
0000
0001
0000
0100
0000
0000
0000
0000
,
0010
0000
0000
0000
1001
0000
0000
0001
,
0100
0000
0110
0000
,
1000
0100
1000
0100
0010
0001
1000
0000
,
0001
0100
0001
0100
0010
0000
1000
0001
,
0100
0000
0000
0000
1001
0000
0000
1000
,
0010
0000
0110
0000
,
0202
0000
0000
0303
,
2002
0000
0000
3003
,
2200
0000
0000
3300
,
0022
0000
0000
0033
,
1000
0100
0010
0001
,
0100
0000
0010
0000
,
1100
0000
0100
1000
0010
0100
0001
0000
,
0001
0000
0010
0001
0100
0010
1000
0000
,
0001
0010
0100
1000
,
0010
0000
0100
0000
,
0101
0000
0100
0001
0010
0100
1000
0001
,
1000
0001
1000
0100
0010
0100
0000
0100
,
0020
0001
0000
1030
,
0020
0100
1000
0031
,
0200
1000
0000
0301
,
0200
0010
1000
0301
,
1000
0000
0101
0000
0010
0100
0010
1000
,
0000
0000
1100
0000
0010
0100
0010
0001
,
1000
0000
0100
0001
0000
0100
0000
0010
,
0000
0001
0000
1000
0000
0000
0000
1000
,
0001
0000
0100
1000
0000
0100
0000
0010
,
0000
1000
0000
0100
0000
0000
0000
0000
,
1000
0000
0100
0000
1000
0100
0001
0000
,
0100
0010
0000
0001
0000
1000
0000
1000
,
0001
0000
0100
0000
0001
0100
1000
0000
,
0100
0010
0000
1000
0000
0001
0000
0001
,
1000
0000
0010
0000
1000
0100
0001
0000
,
0100
1000
0000
0010
0000
1000
0000
1000
,
0001
0000
0100
0000
0001
0010
1000
0000
,
0010
0001
0000
1000
0000
0001
0000
0000
,
0001
0000
1100
0000
0010
0100
1000
0100
,
0010
0001
0000
1000
0000
0001
0000
0000
,
1000
0000
0101
0000
0010
0100
0001
0100
,
0010
1000
0000
0001
0000
1000
0000
0000
,
0001
0000
0110
0000
0001
0100
0010
1000
,
0001
0100
0000
0001
0000
0001
0000
0000
,
1000
0000
0110
0000
1000
0100
0010
0001
,
1000
0010
0000
1000
0000
0001
0000
0000
,
2002
0000
0000
0000
,
0000
0000
3003
0000
,
0101
0000
0000
1100
0000
0000
1001
0000
,
0220
0000
0000
0330
;

//---------------dance-double - ----------------
#NOTES:
     dance-double:
     :
     Easy:
     3:
     0.235,0.414,0.113,0.113,0.000:
00000000
00000000
00000000
00000000
,
00000000
00000000
00000000
00000000
,
00000000
00000000
00000000
00000000
,
00000000
00000000
00000000
00000000
,
00000000
00000000
00000000
00000000
,
00000000
00000000
00000000
00000000
,
00000000
00000000
00000000
00000000
,
00000000
00000000
00000000
00000000
,
00010000
00000000
00001000
00000000
,
01000000
00000000
01000000
00001000
,
00010000
00000000
00010000
00000000
,
00000010
00000000
00000010
00010000
,
00001000
00000000
00010000
00000000
,
00000100
00000000
00000100
00010000
,
00001000
00000000
00001000
00000000
,
01000000
00000000
01000000
00001000
,
00010000
00000000
00000000
00000000
,
00001000
00000000
00000000
00000000
,
00000010
00000000
00000000
00000000
,
00000001
00000000
00000000
00000000
,
00000100
00000000
00000000
00000000
,
00000010
00000000
00000000
00000000
,
00001001
00000000
00000110
00000000
,
00002002
00000000
00003003
00000000
,
00000010
00000000
00000000
00000000
,
00010000
00000000
00000000
00000000
,
00001000
00000000
00000000
00000000
,
00010000
00000000
00000000
00000000
,
00100000
00000000
00000000
00000000
,
10000000
00000000
00000000
00000000
,
10010000
00000000
01100000
00000000
,
20020000
00000000
30030000
00000000
,
10000000
01000000
00000000
10000000
,
00000000
01000000
00000000
00100000
,
00010000
00000000
01000000
00000000
,
00001000
00000000
00001000
00000000
,
00010000
00000100
00000000
00001000
,
00000000
00000100
00000000
00000010
,
00000001
00000000
00001000
00000000
,
00000001
00000000
00000100
00000000
,
00000001
00000000
00000000
00000000
,
00001000
00000000
00000000
00000000
,
00000100
00000000
00000000
00000000
,
00010000
00000000
00000000
00000000
,
00001000
00010000
00000100
00000000
,
00010000
00001000
01000000
00000000
,
10010000
00000000
00000000
00000000
,
00000000
00000000
00000000
00000000
,
00001001
00000000
00000000
00000000
,
00000000
00000000
00000000
00000000
,
01000000
00000000
00100000
00000000
,
01000000
00000000
00100000
00000000
,
10000000
00000000
00000000
00000000
,
00010000
00000000
00000000
00000000
,
00000010
00000000
00000100
00000000
,
00000010
00000000
00000100
00000000
,
00002000
00000000
00000000
00000000
,
00003002
00000000
00000000
00000000
,
00000203
00000000
00000000
00000000
,
00000320
00000000
00000000
00000000
,
00001030
00000001
00001000
00000001
,
00000100
00000000
00000010
00000000
,
00010000
00000000
00000000
00000000
,
01000000
00000000
00000000
00000000
,
10000000
00010000
10000000
00010000
,
00100000
00000000
00001000
00000000
,
00010000
00000000
00000000
00000000
,
00000010
00000000
00000001
00000000
,
00001000
00000000
00000000
00000000
,
00000010
00000000
00000000
00000000
,
00010000
00000000
00000000
00000000
,
00000100
00000000
00000000
00000000
,
00001000
00000000
00000000
00000000
,
00000010
00000000
00000000
00000000
,
00001001
00000000
00000000
00000000
,
00000000
00000000
00000000
00000000
,
10010000
00000000
00000000
00000000
,
00000000
00000000
00000000
00000000
,
00001000
00000000
00010000
00000000
,
00000100
00000000
00000100
00010000
,
00001000
00000000
00001000
00000000
,
00100000
00000000
00100000
00001000
,
00010000
00000000
00001000
00000000
,
01000000
00000000
01000000
00001000
,
00010000
00000000
00010000
00000000
,
00000100
00000000
00000100
00000000
,
00000010
00000001
00000010
00000000
,
00000100
00000000
00001000
00000000
,
00000010
00001000
00000010
00000000
,
00010000
00000000
00001000
00000000
,
01000000
00010000
01000000
00000000
,
00100000
00000000
10000000
00000000
,
01000000
10000000
01000000
00000000
,
00100000
00000000
00001000
00000000
,
00022000
00000000
00000000
00000000
,
00000000
00000000
00033000
00000000
,
00010000
00000000
00000000
00001000
00000000
00000000
00010000
00000000
,
00022000
00000000
00000000
00033000
;

//---------------dance-double - ----------------
#NOTES:
     dance-double:
     :
     Medium:
     5:
     0.375,0.459,0.132,0.207,0.000:
00000000
00000000
00000000
00000000
,
00000000
00000000
00000000
00000000
,
00000000
00000000
00000000
00000000
,
00000000
00000000
00000000
00000000
,
00000000
00000000
00000000
00000000
,
00000000
00000000
00000000
00000000
,
00000000
00000000
00000000
00000000
,
00000000
00000000
00000000
00000000
,
00000100
00000000
00001000
00000000
,
00000001
00000010
00000000
00000010
00000000
00000010
00000000
00000000
,
00000100
00000000
00010000
00000000
,
00001000
01000000
00000000
01000000
00000000
01000000
00000000
00000000
,
00010000
00000000
10000000
00000000
,
01000000
00100000
00000000
00100000
00000000
00100000
00000000
00000000
,
00010000
00000000
01000000
00000000
,
00001000
00010000
00000000
00010000
00000000
00010000
00000000
00000000
,
00000100
00001000
00000010
00000000
,
00000100
00000001
00001000
00000000
,
00000010
00000100
00000010
00000000
,
00010000
00001000
00010000
00000000
,
00001000
01000000
00001000
00001000
,
00010000
00000100
00010000
00010000
,
00002000
00000000
02003000
00000000
,
03020000
00000000
00000000
00030000
,
00100000
00010000
01000000
00000000
,
00001000
00010000
00000100
00000000
,
00010000
00001000
00010000
00000000
,
00000010
00000100
00000010
00000000
,
00010000
00000010
00010000
00010000
,
00001000
00100000
00001000
00001000
,
00020000
00000000
00030200
00000000
,
00002300
00000000
00000000
00003000
,
00000001
00000100
00000000
00000010
,
00000000
00010000
00000000
00001000
,
00010000
01000000
10000000
00000000
,
10000000
01000000
01000000
00000000
,
10000000
00100000
00000000
01000000
,
00000000
00010000
00000000
00100000
,
00001000
00000010
00000001
00000000
,
00000001
00000000
00000010
00000000
00000100
00000000
00000000
00001001
,
00000000
00000010
00000001
00000010
,
00000100
00000000
00001000
00000000
,
00001001
00000000
00000001
00000100
,
00000010
00010000
00001000
01000000
,
00100000
10000000
00100000
00000000
,
01000000
00010000
01000000
00000000
,
00100000
00000000
00000000
10000000
00000000
01000000
00000000
00100000
,
00000000
00001000
00000000
00010000
00000000
00000000
00000000
00000000
,
00001000
00000000
00000000
00010000
00000000
00000100
00000000
00000010
,
00000000
00000001
00000000
00001000
00000000
00000000
00000000
00000000
,
00001001
00000000
00000010
00000000
,
00000100
00000000
00000001
00000000
,
00001000
00000100
00000010
00000000
,
00000100
00010000
00001000
01000000
,
01000000
00000000
00100000
00000000
,
10000000
00000000
00010000
00000000
,
20020000
00000000
30030000
00000000
,
00022000
00000000
00033000
00000000
,
00002002
00000000
00003003
00000000
,
00000220
00000000
00000330
00000000
,
00000000
00000001
00000100
00000010
,
00001000
00000000
00000100
00000000
,
00022000
00000000
00000000
00000000
,
00000000
00000000
00033000
00000000
,
00000000
10000000
00100000
01000000
,
00010000
00000000
00100000
00000000
,
00022000
00000000
00000000
00000000
,
00000000
00000000
00033000
00000000
00000000
00011000
00000000
00011000
,
00000000
01000000
00010000
01000000
,
00100000
00000000
10000000
00000000
,
10010000
00000000
10000000
01000000
,
00100000
00001000
00010000
00000100
,
00000010
00000001
00000010
00000000
,
00000100
00001000
00000100
00000000
,
00000010
00000000
00000000
00000001
00000000
00000100
00000000
00000010
,
00000000
00010000
00000000
00001000
00000000
00000000
00000000
00000000
,
00010000
00000000
00000000
00001000
00000000
01000000
00000000
00100000
,
00000000
10000000
00000000
00010000
00000000
00000000
00000000
00000000
,
10000000
00000000
01000000
00000000
,
00100000
00010000
00000000
00010000
00000000
00010000
00000000
00000000
,
01000000
00000000
00001000
00000000
,
00010000
00001000
00000000
00001000
00000000
00001000
00000000
00000000
,
00010000
00000000
00000010
00000000
,
00001000
00000100
00000000
00000100
00000000
00000100
00000000
00000000
,
00000010
00000000
00000001
00000000
,
00000100
00000001
00000000
00000001
00000000
00000001
00000000
00000000
,
00000100
00000010
00001000
00000000
,
00000001
00000100
00000000
00000010
00000000
00001000
00000000
00000000
,
00000100
00001000
00000100
00000000
,
00010000
00001000
00000000
01000000
00000000
00010000
00000000
00000000
,
00100000
00010000
01000000
00000000
,
00100000
10000000
00000000
00010000
00000000
01000000
00000000
00000000
,
00001000
00010000
00001000
00000000
,
01000000
00010000
00000000
00100000
00000000
01000000
00000000
00000000
,
20020000
00000000
00000000
00000000
,
00000000
00000000
30030000
00000000
,
10000000
00000000
00000000
00010000
00000000
00000000
01000000
00000000
,
20020000
00000000
00000000
30030000
;

//---------------dance-double - ----------------
#NOTES:
     dance-double:
     :
     Hard:
     9:
     0.603,0.781,0.414,0.150,0.000:
00000000
00000000
00000000
00000000
,
00000000
00000000
00000000
00000000
,
00000000
00000000
00000000
00000000
,
00000000
00000000
00000000
00000000
,
00000000
00000000
00000000
00000000
,
00000000
00000000
00000000
00000000
,
00000000
00000000
00000000
00000000
,
00000000
00000000
00000000
00000000
,
01000000
00000000
01100000
00000000
01000000
00010000
01000000
00000000
,
00001000
00010000
00000000
00000010
00000000
00001000
00000000
00001000
,
00000010
00000000
00000110
00000000
00000010
00001000
00000010
00000000
,
00010000
00001000
00000000
00100000
00000000
00010000
00000000
00010000
,
00100000
00000000
01100000
00000000
00100000
00010000
00100000
00000000
,
00001000
00010000
00000000
00000100
00000000
00001000
00000000
00001000
,
00000100
00000000
00000110
00000000
00000100
00001000
00000100
00000000
,
00010000
00001000
00000000
01000000
00000000
00010000
00000000
00010000
,
10000000
00000000
10000000
01000000
00000000
00100000
00000000
00001000
,
00000000
00010000
00000000
00001100
00000000
00000000
00000001
00001000
,
00000001
00000000
00000001
00000100
00000000
00000010
00000000
00010000
,
00000000
00001000
00000000
01010000
00000000
00000000
10000000
00010000
,
10000000
00000000
00010000
01000000
00000000
00001000
00000000
00100000
,
00000000
00001000
00000000
00010000
00000000
00000100
00000000
00000000
,
00011000
00100000
00011000
00000010
,
00022000
00000000
00000000
00033000
,
00000100
00000000
00001000
00000010
00000100
00000001
00000000
00001000
,
00000000
00000010
00000000
00011000
00000000
00000000
00001000
00000000
,
01000000
00000000
00010000
00100000
01000000
10000000
00000000
00010000
,
00000000
01000000
00000000
00011000
00000000
00000000
00010000
00000000
,
00000010
00000000
00001000
00000100
00000000
00010000
00000000
00000010
,
00000000
00010000
00000000
00001000
00000000
01000000
00000000
00000000
,
00011000
00000010
00011000
00100000
,
00022000
00000000
00000000
00033000
,
01000000
00010000
01000000
00010000
10000000
01000000
10000000
01000000
,
00100000
00001000
00100000
00001000
00010000
00001000
00010000
00001000
,
00100000
00000000
00001000
00000000
00010000
00001000
00010000
00000000
,
00010000
00000000
00000010
00000000
00001000
00000001
00001000
00000000
,
00000010
00001000
00000010
00001000
00000001
00000100
00000001
00000100
,
00000010
00010000
00000010
00010000
00001000
00010000
00001000
00010000
,
00000100
00000000
00010000
00000000
00001000
00010000
00001000
00000000
,
00001000
00000000
01000000
00000000
00010000
10000000
00000000
10010000
,
00000000
01000000
00001000
00010000
,
00000100
00000010
00000001
00000100
,
00001000
00000000
00010000
00000000
00100000
10000000
00000000
01000000
,
00000000
00010000
00000000
00001000
00000000
00000010
00000000
00000001
,
00001000
00000000
00000010
00000000
00000100
00000001
00000100
00000000
,
00000010
00000000
00001000
00000000
00000100
00000010
00000100
00000000
,
00001000
00000000
00000001
00000100
00000000
00000010
00000000
00010000
,
00000000
00001000
00000000
01010000
00000000
00000000
00000000
10000000
,
00010000
00000000
10000000
00100000
00000000
01000000
00000000
00001000
,
00000000
00010000
00000000
00001100
00000000
00000000
00000000
00000000
,
00000001
00000000
00000000
00000000
00001100
00000000
00000000
00000001
,
00001000
00000000
00000101
00000000
,
00001000
00000100
00010000
00000100
00001000
00000000
00000100
00000000
,
00010000
00001000
01000000
00001000
00010000
00000000
00001000
01000000
,
00010000
00000000
00000000
00000000
11000000
00000000
00000000
00010000
,
10000000
00000000
01010000
00000000
,
20020000
00000000
00000000
30030000
,
00022000
00000000
00000000
00033000
,
00002002
00000000
00000000
00003003
,
00000220
00000000
00000000
00000330
,
00000000
00000001
00000100
00001000
,
00010000
00000000
00100000
00000000
,
10010000
00000000
01000000
00000000
00100000
10000000
01000000
00000000
,
00100000
00001000
00010000
00001000
00100000
00000000
00010000
01000000
,
00010000
10000000
01000000
00010000
,
00001000
00000000
00000010
00000000
,
00001001
00000000
00000100
00000000
00000010
00000001
00000100
00000001
,
00000010
00000100
00001000
00000010
00001000
00000001
00000000
00001001
,
00000000
00000100
00010000
00001000
,
01000000
00100000
10000000
01000000
,
00010000
00000000
00001000
00000000
00000010
00000001
00000000
00000100
,
00000000
00001000
00000000
00010000
00000000
00100000
00000000
10000000
,
00010000
00000000
01000000
00000000
00100000
10000000
00100000
00000000
,
01000000
00000000
00010000
00000000
00100000
01000000
00100000
00000000
,
00010000
00000000
10000000
01000000
00000000
00100000
00000000
00001000
,
00000000
00010000
00000000
00001001
00000000
00000000
00000000
00000010
,
00001000
00000000
00000001
00000010
00000000
00000100
00000000
00010000
,
00000000
00001000
00000000
10010000
00000000
00000000
00000000
00000000
,
00100000
00000000
10100000
00000000
00100000
01000000
00100000
00000000
,
01000000
00001000
00000000
00010000
00000000
00010000
00000000
00000010
,
00000100
00000000
00000101
00000000
00000100
00000010
00000100
00000000
,
00000010
00010000
00000000
00001000
00000000
00001000
00000000
00100000
,
01000000
00000000
11000000
00000000
01000000
00100000
01000000
00000000
,
00100000
00001000
00000000
00010000
00000000
00010000
00000000
00000100
,
00000010
00000000
00000011
00000000
00000010
00000100
00000010
00000000
,
00000100
00010000
00000000
00001000
00000000
00011000
00000000
00000000
,
00010000
00000000
00001100
00000000
00010000
00001000
00010000
00000010
,
00001000
00000010
00000000
00000100
00000000
00000001
00000000
00000001
,
00001000
00000000
00000101
00000000
00001000
00000001
00001000
00000010
,
00000100
00000010
00000000
00001000
00000000
00000100
00000000
00010000
,
00001000
00000000
01010000
00000000
00001000
00010000
00001000
00100000
,
00010000
00100000
00000000
01000000
00000000
10000000
00000000
10000000
,
00010000
00000000
11000000
00000000
00010000
10000000
00010000
01000000
,
00100000
01000000
00000000
00010000
00000000
00100000
00000000
00000000
,
00022000
00000000
00000000
00000000
,
00000000
00000000
00000000
00000000
00033000
00010000
00001000
00010000
,
00011000
00000000
00000000
00010100
00000000
00000000
00000110
00000000
,
00002002
00000000
00000000
00003003
;
