#TITLE:No Pulse;
#SUBTITLE:;
#ARTIST:Glis;
#TITLETRANSLIT:;
#SUBTITLETRANSLIT:;
#ARTISTTRANSLIT:;
#GENRE:;
#CREDIT:;
#MENUCOLOR:;
#METERTYPE:DDR;
#BANNER:No Pulse-bn.png;
#BACKGROUND:No Pulse-bg.png;
#LYRICSPATH:No Pulse.lrc;
#CDTITLE:ddrencorecdtitle.png;
#MUSIC:No Pulse.mp3;
#OFFSET:-0.033;
#SAMPLESTART:59.106;
#SAMPLELENGTH:14.776;
#SELECTABLE:YES;
#LISTSORT:;
#BPMS:0.000=129.980,128.000=122.500,129.000=129.980,192.000=121.500,193.000=129.980;
#STOPS:;
#BGCHANGES:;
#ATTACKS:;

//---------------dance-single - ----------------
#NOTES:
     dance-single:
     :
     Beginner:
     1:
     0.148,0.213,0.028,0.093,0.000:
0000
0000
0000
0000
,
0000
0000
0000
0000
,
0000
0000
0000
0000
,
0000
0000
0000
0000
,
2002
0000
0000
0000
,
3003
0000
0000
0000
,
0200
0000
0300
0000
,
0020
0000
0030
0000
,
1000
0000
1000
0000
,
0001
0000
0001
0000
,
0010
0000
0010
0000
,
0100
0000
0001
0000
,
1000
0000
1000
0000
,
0010
0000
0010
0000
,
0100
0000
0100
0000
,
0010
0000
0001
0000
,
1000
0000
0010
0000
,
1000
0000
0100
0000
,
0010
0000
0010
0000
,
0100
0000
0100
0000
,
1000
0000
0001
0000
,
1000
0000
0010
0000
,
0100
0000
0100
0000
,
0010
0000
0010
0000
,
2000
0000
3000
0000
,
0001
0000
0100
0000
,
0001
0001
0001
0000
,
1000
1000
1000
0000
,
0002
0000
0003
0000
,
1000
0000
0010
0000
,
1000
1000
1000
0000
,
2002
0000
3003
0000
,
0001
0001
0000
0000
,
1000
0000
0001
0000
,
0100
0100
0100
0000
,
0010
0010
0010
0000
,
1000
1000
0000
0000
,
0001
0000
1000
0000
,
0010
0010
0010
0000
,
0100
0100
0100
0000
,
0001
0000
0001
0000
,
1000
0000
1000
0000
,
0100
0000
0100
0000
,
0010
0000
1000
0000
,
0001
0000
0001
0000
,
0100
0000
0100
0000
,
0010
0000
0010
0000
,
0100
0000
1000
0000
,
0001
0000
0000
0000
,
1000
0000
0001
0000
,
1000
0000
0000
0000
,
0010
0000
0000
0000
,
0100
0000
0000
0000
,
0001
0000
1000
0000
,
0001
0000
0000
0000
,
0100
0000
0000
0000
,
2002
0000
0000
0000
,
3003
0000
0000
0000
;

//---------------dance-single - ----------------
#NOTES:
     dance-single:
     :
     Easy:
     4:
     0.269,0.266,0.112,0.252,0.000:
0000
0000
0000
0000
,
0000
0000
0000
0000
,
0000
0000
0000
0000
,
0000
0000
0000
0000
,
0001
1000
1000
1000
,
0010
0100
0100
0001
,
1000
0001
0001
0001
,
0100
0010
0010
1000
,
0002
0000
0013
0100
,
2000
0000
3001
1000
,
0002
0000
0103
0010
,
2000
0000
3002
0000
,
2003
0000
3010
0100
,
0002
0000
1003
0001
,
2000
0000
3100
0010
,
0002
0000
2003
0000
,
3001
0100
0010
1010
,
0000
0010
0100
0101
,
0000
0001
0010
0100
,
1000
0010
0100
1001
,
1000
0100
0010
0011
,
0000
0010
0100
1100
,
0000
1000
0010
0100
,
0001
0010
0100
1001
,
1000
0100
0010
0001
,
1000
0010
0100
0001
,
2000
0000
0000
0000
,
3002
0000
0000
0000
,
1003
0010
0100
0001
,
1000
0100
0010
0001
,
2000
0000
0000
0000
,
3002
0000
0000
0000
0100
0100
0103
0000
,
1001
1001
0000
0000
,
0010
0001
1000
0000
,
0010
0100
0010
0100
,
0001
1000
0100
0010
,
1001
1001
0000
0000
,
0100
1000
0001
0000
,
0100
0010
0100
0010
,
1000
0100
0010
0001
,
2000
0000
3010
0100
,
0002
0000
1003
0001
,
2000
0000
3100
0010
,
0002
0000
2003
0000
,
3002
0000
0013
0100
,
2000
0000
3001
1000
,
0002
0000
0103
0010
,
2000
0000
3002
0000
,
1003
0100
0100
0000
,
0100
0000
1000
0010
,
0100
0001
0001
0000
,
0001
0000
1000
0110
,
0001
0010
0010
0000
,
0010
0000
0100
1000
,
0010
1000
1000
0000
,
0200
0000
0000
0000
0010
0010
0310
0000
,
2002
0000
0000
0000
,
3003
0000
0000
0000
;

//---------------dance-single - ----------------
#NOTES:
     dance-single:
     :
     Medium:
     6:
     0.372,0.345,0.103,0.140,0.000:
0000
0000
0000
0000
,
0000
0000
0000
0000
,
0000
0000
0000
0000
,
0000
0000
0000
0000
,
0001
0100
0001
0100
,
0010
0000
1000
0000
0100
0000
0010
0100
,
1000
0010
1000
0010
,
0100
0000
0001
0000
0010
0100
1000
0010
,
0100
0000
0001
0000
0010
0000
0010
0001
,
0100
0000
0010
0000
1000
0000
1000
0010
,
0100
0000
0001
0000
0100
0000
0100
0001
,
0010
0000
0100
0000
0010
0001
1000
0010
,
0100
0000
0001
0000
0010
0000
0010
0001
,
0100
0000
0010
0000
1000
0000
1000
0010
,
0100
0000
0010
0000
0100
0000
0100
0001
,
2000
0000
0000
0000
3001
0100
0010
1000
,
0001
0010
0100
1001
,
0010
0001
0100
1001
,
0010
0000
1000
0100
0010
0000
0010
0000
,
0001
0000
0100
0010
1000
0001
0010
0100
,
1000
0010
0100
1001
,
0100
0001
0010
1001
,
0100
0000
0001
0010
0100
0000
0100
0000
,
1000
0000
0010
0100
0001
1000
0100
0010
,
0001
1000
0010
2001
,
3010
1000
0100
0010
,
0002
0010
0010
1003
,
2000
0000
0010
0000
0010
0000
3001
0100
,
0010
1000
0100
1002
,
0103
0001
0010
0100
,
2000
0010
0010
3001
,
0002
0000
0000
0000
0013
0001
0100
0000
,
1001
1001
0010
1000
,
0001
0100
0010
0100
0001
0000
1000
0000
,
0001
0010
0001
0000
1000
0100
1000
0000
,
0010
0000
0100
0001
0010
0000
0100
0000
,
1001
1001
0100
0001
,
1000
0100
0010
0100
1000
0000
0001
0000
,
1000
0010
1000
0000
0001
0100
0001
0000
,
0010
0000
0100
1000
0010
0000
0100
0001
,
1000
0000
0100
0000
0010
0000
0010
0001
,
1000
0000
0010
0000
1000
0000
1000
0001
,
0100
0000
0010
0000
0100
0000
0100
0010
,
1000
0000
0001
0000
0010
0001
0100
0010
,
1000
0000
0001
0000
0010
0000
0010
0100
,
1000
0000
0010
0000
0100
0000
0100
0010
,
1000
0000
0001
0000
1000
0000
1000
0010
,
0100
0000
0001
0000
0010
0001
0100
0010
,
1000
0000
0001
0000
0010
0000
0010
0200
,
0000
0000
1300
0000
0010
0000
0010
0200
,
0000
0000
0301
0000
1000
0000
1000
0020
,
0000
0000
0130
0000
0001
0010
0100
1000
,
0001
0000
0010
0000
0001
0000
0001
0200
,
0000
0000
0310
0000
1000
0000
1000
0200
,
0000
0000
0310
0000
0001
0000
1000
0020
,
0000
0000
0030
0000
1000
0001
0100
0000
,
2002
0000
0000
0000
,
3003
0000
0000
0000
;

//---------------dance-single - ----------------
#NOTES:
     dance-single:
     :
     Hard:
     9:
     0.561,0.558,0.065,0.158,0.340:
0000
0000
0000
0000
,
0000
0000
0000
0000
,
0000
0000
0000
0000
,
0000
0000
0000
0000
0000
0000
0000
0000
0000
0000
0010
0000
0000
0000
0010
1000
,
0010
1000
0001
0100
,
0010
0000
1000
0000
0001
0000
0100
0001
,
0010
0100
1000
0001
,
0100
0000
0000
0000
0010
0000
0000
0000
0100
0000
0001
0000
1000
0000
0001
0100
,
0001
0000
1000
0010
0000
0001
0000
0010
1000
0000
0100
0000
0010
0000
0001
0010
,
0001
0000
1000
0100
0000
0001
0000
0100
1000
0000
0010
0000
0100
0000
0001
1000
,
0001
0000
1000
0010
0000
0100
0000
0001
1000
0000
0100
0000
0010
0000
0001
1000
,
0001
0000
1000
0001
0000
0010
0000
0100
0010
0000
0100
0000
0100
0000
0010
0001
,
1000
0000
0001
0010
0000
1000
0000
0010
0001
0000
0100
0000
0010
0000
1000
0010
,
1000
0000
0001
0100
0000
1000
0000
0100
0001
0000
0010
0000
0100
0000
1000
0001
,
1000
0000
0001
0100
0000
0010
0000
1000
0001
0000
0010
0000
0100
0000
1000
0001
,
1000
0000
0001
1000
0000
0010
0000
0100
0010
0000
0100
0000
0100
0000
0001
1000
,
0010
0100
0002
1000
0010
0003
1100
0000
,
0010
0001
0100
0010
1000
0000
0100
1000
,
0001
0100
0010
0010
1000
0001
0001
0000
,
0010
0000
0001
0000
1000
0000
0010
0000
0100
0000
0010
0000
0010
0000
1000
0001
,
0100
0010
2000
0001
0100
3000
0011
0000
,
0100
0010
0001
1000
0010
0000
0100
0001
,
1000
0010
0100
0100
0001
1000
1000
0100
,
0000
0000
1000
0000
0010
0000
0100
0000
0001
0000
0010
0000
0010
0000
0001
1000
,
0010
0100
0001
1000
0100
0000
0021
0000
,
0130
0000
0010
0000
0001
1000
0010
0100
,
0001
0010
1000
0010
0001
0010
1000
0010
,
0100
0000
0001
0000
0100
0000
1000
0000
0100
0000
0001
0000
0100
0000
0010
0001
,
1000
0010
1000
0001
0100
0000
1020
0000
,
0130
0000
0010
0000
1000
0001
0010
0100
,
1000
0010
0001
0010
1000
0010
0001
0010
,
0200
0000
0000
0000
0000
0000
0000
0000
0310
0000
1000
0000
0001
0000
0100
0010
,
2000
0000
0100
0000
0001
0000
3010
1000
,
0001
0001
0010
0001
1000
0000
0110
1000
,
0001
0010
1000
0010
0001
0100
1000
0100
,
0001
0000
0010
0000
1000
0000
0100
0000
0001
0000
1000
0000
1000
0000
0010
0100
,
0002
0000
0010
0000
1000
0000
0103
0001
,
1000
1000
0100
1000
0001
0000
0110
0001
,
1000
0010
0001
0010
1000
0100
0001
0100
,
1000
0000
0010
0000
0001
0000
0100
0000
1000
0000
0001
0000
0001
0000
0100
0010
,
1000
0000
0001
0100
0000
1000
0000
0100
0001
0000
0100
0000
0010
0000
1000
0010
,
1000
0000
0001
0010
0000
1000
0000
0010
0001
0000
0010
0000
0100
0000
1000
0001
,
1000
0000
0001
0100
0000
0010
0000
1000
0001
0000
0100
0000
0010
0000
1000
0001
,
1000
0000
0001
1000
0000
0010
0000
0100
0010
0000
0100
0000
0100
0000
0010
1000
,
0001
0000
1000
0010
0000
0001
0000
0010
1000
0000
0010
0000
0100
0000
0001
0100
,
0001
0000
1000
0100
0000
0001
0000
0100
1000
0000
0100
0000
0010
0000
0001
1000
,
0001
0000
1000
0010
0000
0100
0000
0001
1000
0000
0100
0000
0010
0000
0001
1000
,
0001
0000
1000
0001
0000
0100
0000
0010
0100
0000
0010
0000
0010
0000
0100
0001
,
2000
0000
0010
0000
3010
0000
0001
0100
,
0020
0000
0001
0000
1030
0000
0100
1000
,
0002
0000
0010
0000
0013
0000
1000
0010
,
0200
0000
0000
0000
1000
0000
0000
0000
0301
0000
1000
0000
0100
0000
0010
0001
,
2000
0000
0010
0000
3010
0000
0001
0010
,
0200
0000
0001
0000
1300
0000
0010
0100
,
0002
0000
0010
0000
0013
0000
1000
0100
,
0020
0000
0000
0000
0031
1000
0010
0100
,
2002
0000
0000
0000
,
3003
0000
0000
0000
;

//---------------dance-double - ----------------
#NOTES:
     dance-double:
     :
     Easy:
     4:
     0.264,0.266,0.112,0.326,0.000:
00000000
00000000
00000000
00000000
,
00000000
00000000
00000000
00000000
,
00000000
00000000
00000000
00000000
,
00000000
00000000
00000000
00000000
,
00001000
00010000
00001000
00010000
,
00000010
00001000
00000010
00001000
,
00000001
00000010
00000001
00000010
,
00000100
00010000
00000100
00010000
,
00002000
00000000
00023000
00000000
,
00032000
00000000
02003000
00000000
,
03020000
00000000
20030000
00000000
,
32000000
00000000
03100000
00010000
,
20000000
00000000
30020000
00000000
,
20030000
00000000
30200000
00000000
,
02300000
00000000
03002000
00000000
,
00023000
00000000
00031000
00010000
,
00000100
00001000
00000100
00000110
,
00000000
00000001
00001000
00001001
,
00000000
00000001
00000100
00000010
,
00001000
00000100
00010000
00011000
,
00001000
01000000
00010000
00110000
,
00000000
00100000
01000000
11000000
,
00000000
10000000
00100000
01000000
,
00010000
00100000
00001000
00011000
,
00010000
00000100
00001000
00000010
,
00000100
00000001
00001000
00000100
,
00000020
00000000
00000000
00000000
,
00000230
00000000
00000000
00000000
,
00001300
00000010
00010000
00001000
,
01000000
00010000
00100000
01000000
,
00200000
00000000
00000000
00000000
,
02300000
00000000
00000000
00000000
00100000
00100000
03100000
00000000
,
10010000
10010000
00000000
00000000
,
00100000
00010000
01000000
00000000
,
00001000
00010000
00001000
00010000
,
00000010
00000100
00000001
00001000
,
00001001
00001001
00000000
00000000
,
00000010
00000001
00000100
00000000
,
00000010
00000100
00000010
00000100
,
00000001
00001000
00000100
00010000
,
00002000
00000000
00023000
00000000
,
00032000
00000000
02003000
00000000
,
03020000
00000000
00230000
00000000
,
02300000
00000000
13000000
00010000
,
20000000
00000000
30020000
00000000
,
20030000
00000000
30200000
00000000
,
02300000
00000000
03002000
00000000
,
00023000
00000000
00030100
00010000
,
00001000
00000000
01000000
00000000
,
00001000
00000000
00010000
00000100
,
00000010
00000000
00000001
00000000
,
00001000
00000000
00000010
00001001
,
00000100
00000000
00000010
00000000
,
00010000
00000000
00001000
01000000
,
00010000
00000000
00100000
00000000
,
02000000
00000000
00000000
00000000
00100000
00100000
03100000
00000000
,
20020000
00000000
00000000
00000000
,
30030000
00000000
00000000
00000000
;

//---------------dance-double - ----------------
#NOTES:
     dance-double:
     :
     Medium:
     6:
     0.372,0.372,0.103,0.112,0.000:
00000000
00000000
00000000
00000000
,
00000000
00000000
00000000
00000000
,
00000000
00000000
00000000
00000000
,
00000000
00000000
00000000
00000000
,
00001000
00010000
00000010
00000100
,
00000001
00000000
00000010
00000000
00000100
00000000
00001000
00000010
,
00010000
00001000
01000000
00010000
,
00100000
00000000
01000000
00000000
10000000
00100000
01000000
00010000
,
10000000
00000000
01000000
00000000
10000000
00000000
00100000
01000000
,
00010000
00000000
00100000
00000000
00001000
00000000
00100000
00010000
,
01000000
00000000
00100000
00000000
10000000
00000000
00010000
00100000
,
01000000
00000000
00100000
00000000
00010000
01000000
00010000
00100000
,
00001000
00000000
00010000
00000000
00000010
00000000
00001000
00000100
,
00000010
00000000
00000001
00000000
00001000
00000000
00000010
00001000
,
00000100
00000000
00010000
00000000
00000010
00000000
00000010
00001000
,
00000200
00000000
00000000
00000000
00001300
00000100
00001000
00000010
,
00010000
00001000
01000000
01010000
,
00010000
00100000
01000000
11000000
,
10000000
01000000
00100000
00001000
,
00010000
00000000
00000100
00000010
00000001
00000100
00000010
00001000
,
00000001
00001000
00000010
00001010
,
00001000
00000100
00000010
00000011
,
00000001
00000100
00000010
00010000
,
00001000
00000000
01000000
00100000
10000000
01000000
00100000
00010000
,
10000000
01000000
00100000
10020000
,
01030000
00010000
00100000
01000000
,
10000000
01000000
00100000
00000000
01000000
00000000
01000000
00000000
,
00100000
00001000
00010000
00000000
00010000
00001000
00010000
00000100
,
00001000
00000010
00000100
00002001
,
00003010
00001000
00000100
00000010
,
00000001
00000100
00000010
00000000
00000100
00000000
00000100
00000000
,
00000020
00000000
00000000
00000000
00001030
00000100
00010000
00000000
,
00011000
00011000
00001000
01000000
,
00010000
00100000
01000000
10000000
00010000
00000000
10000000
00000000
,
01000000
10000000
01000000
00000000
00100000
00010000
00100000
00000000
,
00010000
10000000
01000000
00100000
00001000
00000000
00010000
00000000
,
00011000
00011000
00010000
00000100
,
00001000
00000010
00000100
00000001
00001000
00000000
00000001
00000000
,
00000100
00000001
00000100
00000000
00000010
00001000
00000010
00000000
,
00001000
00000001
00000100
00000010
00010000
00000000
00001000
00010000
,
00001000
00000000
01000000
00000000
00100000
00000000
10000000
01000000
,
00100000
00000000
00010000
00000000
10000000
00000000
00100000
10000000
,
01000000
00000000
00010000
00000000
01000000
00000000
10000000
00100000
,
01000000
00000000
00010000
00000000
00100000
00001000
00010000
00000100
,
00001000
00000000
00000010
00000000
00000100
00000000
00000001
00000010
,
00000100
00000000
00001000
00000000
00000010
00000000
00000100
00000001
,
00000010
00000000
00000100
00000000
00000001
00000000
00000100
00000010
,
00000001
00000000
00001000
00000000
00000100
00010000
00001000
01000000
,
00010000
00000000
10000000
00000000
01000000
00000000
01000000
00200000
,
00000000
00000000
00310000
00000000
01000000
00000000
01000000
00020000
,
00000000
00000000
00130000
00000000
00001000
00000000
00001000
00020000
,
00000000
00000000
00030010
00000000
00001000
00000000
00001000
00000001
,
00000100
00000000
00000001
00000000
00001000
00000000
00001000
00000200
,
00000000
00000000
00000310
00000000
00000001
00000000
00000001
00000020
,
00000000
00000000
00000130
00000000
00001000
00000000
00001000
00000020
,
00000000
00000000
00000030
00000000
00010000
00001000
01000000
00000000
,
00022000
00000000
00000000
00000000
,
00033000
00000000
00000000
00000000
;

//---------------dance-double - ----------------
#NOTES:
     dance-double:
     :
     Hard:
     9:
     0.553,0.691,0.093,0.168,0.270: // measure 1
00000000
00000000
00000000
00000000
,  // measure 2
00000000
00000000
00000000
00000000
,  // measure 3
00000000
00000000
00000000
00000000
,  // measure 4
00000000
00000000
00000000
00000000
00000000
10000000
00000000
00010000
,  // measure 5
02000000
10000000
00100000
00010000
,  // measure 6
00001000
00000000
00100000
00000000
03001000
00000000
00001000
00010000
,  // measure 7
00000020
00000001
00000100
00001000
,  // measure 8
00010000
00000000
00000100
00000000
00001030
00000001
00001000
00000010
,  // measure 9
00010000
00000000
00000100
00000010
00000000
00000001
00000000
00000010
00000100
00000000
00010000
00000000
00001000
00000000
00100000
00000000
,  // measure 10
00001000
00000000
01000000
00100000
00000000
10000000
00000000
00100000
01000000
00000000
00001000
00000000
00010000
00000000
00000100
00000000
,  // measure 11
00010000
00000000
00000010
00000100
00000000
00000001
00000000
00000100
00000010
00000000
00010000
00000000
00001000
00000000
01000000
00000000
,  // measure 12
00001000
00000000
00100000
01000000
00000000
10000000
00000000
01000000
00100000
00000000
00001000
00000000
00010000
00000000
00001000
00010000
,  // measure 13
00000010
00000000
00000100
00000001
00000000
00001000
00000000
00000010
00010000
00000000
00000100
00000000
00010000
00000000
00001000
00000000
,  // measure 14
01000000
00000000
00100000
10000000
00000000
00010000
00000000
01000000
00001000
00000000
00100000
00000000
00001000
00000000
00010000
00000000
,  // measure 15
00000100
00000000
00000010
00000001
00000000
00001000
00000000
00000100
00010000
00000000
00000010
00000000
00010000
00000000
00001000
00000000
,  // measure 16
00021000
00000000
00000000
00000000
00000000
00000000
00000000
00000000
00031000
00000000
01000000
00000000
00100000
00000000
10000000
00010000
,  // measure 17
10000000
01000000
00100000
00001000
00010000
01000000
01100000
00100000
,  // measure 18
00001000
00010000
00000010
00000100
00000001
00000010
00000110
00000100
,  // measure 19
00001000
00000010
00000001
00000010
00001000
00000100
00010000
00001000
,  // measure 20
00010000
00000000
00100000
00000000
10000000
00000000
00100000
00000000
00010000
00000000
00001000
00000000
00010000
00000000
00000010
00000100
,  // measure 21
00000001
00000100
00000010
00010000
00001000
00000010
00000110
00000100
,  // measure 22
00010000
00001000
01000000
00100000
10000000
01000000
01100000
00100000
,  // measure 23
00010000
01000000
10000000
01000000
00010000
00100000
00001000
00010000
,  // measure 24
00001000
00000000
00000010
00000000
00000001
00000000
00000010
00000000
00001000
00000000
00010000
00000000
00001000
00000000
01000000
00100000
,  // measure 25
10000000
01000000
00100000
00010000
10000000
00000000
01020000
00000000
,  // measure 26
00130000
00000000
00001000
00000000
00000010
00000001
00001000
00000000
,  // measure 27
00001000
00000010
00000001
00000010
00001000
00000010
00000001
00000010
,  // measure 28
00000100
00001000
00000100
00000001
00000100
00001000
00010000
00100000
,  // measure 29
10000000
00100000
01000000
00010000
00100000
00000000
21000000
00000000
,  // measure 30
30010000
00000000
00100000
00000000
00001000
00010000
00000010
00000000
,  // measure 31
00001000
00000100
00000001
00000100
00001000
00000010
00000001
00000010
,  // measure 32
00000200
00000000
00000000
00000000
00000000
00000000
00000000
00000000
00000310
00000000
00010000
00000000
00001000
00000000
00010000
00001000
,  // measure 33
00020000
00000000
00000010
00000000
00031000
00000000
00010000
00001000
,  // measure 34
01000000
00100000
10000000
00010000
00100000
00000000
00011000
00000000
,  // measure 35
00010000
00001000
01000000
00100000
00010000
00001000
00000100
00000010
,  // measure 36
00001000
00000000
00000100
00000000
00000010
00000000
00001000
00000000
00010000
00000000
00000100
00000000
00010000
00000000
00001000
00010000
,  // measure 37
00002000
00000000
01000000
00000000
00013000
00000000
00001000
00010000
,  // measure 38
00000010
00000100
00000001
00001000
00000100
00000000
00011000
00000000
,  // measure 39
00001000
00010000
00000010
00000100
00001000
00010000
00100000
01000000
,  // measure 40
00010000
00100000
01000000
00010000
00001000
00100000
00010000
01000000
,  // measure 41
00001000
00000000
00100000
01000000
00000000
10000000
00000000
01000000
00100000
00000000
00001000
00000000
00010000
00000000
00000100
00000000
,  // measure 42
00010000
00000000
00000010
00000100
00000000
00000001
00000000
00000100
00000010
00000000
00010000
00000000
00001000
00000000
00100000
00000000
,  // measure 43
00001000
00000000
01000000
00100000
00000000
10000000
00000000
00100000
01000000
00000000
00001000
00000000
00010000
00000000
00000010
00000000
,  // measure 44
00010000
00000000
00000100
00000010
00000000
00000001
00000000
00000010
00000100
00000000
00010000
00000000
00001000
00000000
00010000
00001000
,  // measure 45
01000000
00000000
00100000
10000000
00000000
00010000
00000000
01000000
00001000
00000000
00100000
00000000
00001000
00000000
00010000
00000000
,  // measure 46
00000010
00000000
00000100
00000001
00000000
00001000
00000000
00000010
00010000
00000000
00000100
00000000
00010000
00000000
00001000
00000000
,  // measure 47
00100000
00000000
01000000
10000000
00000000
00010000
00000000
00100000
00001000
00000000
01000000
00000000
00001000
00000000
00010000
00000000
,  // measure 48
00001000
00010000
00001000
00010000
00001000
00010000
00001000
00010000
00001000
00010000
00001000
00010000
00001000
00010000
00001000
00010000
,  // measure 49
00000200
00000000
00001000
00000000
00001300
00000000
00000010
00000100
,  // measure 50
00000002
00000000
00000010
00000000
00001003
00000000
00000001
00000100
,  // measure 51
00000020
00000000
00001000
00000000
00001030
00000000
00000010
00010000
,  // measure 52
00002000
00000000
00000000
00000000
01000000
00000000
00000000
00000000
00013000
00000000
00001000
00000000
01000000
00000000
00100000
10000000
,  // measure 53
02000000
00000000
10000000
00000000
13000000
00000000
01000000
00100000
,  // measure 54
00020000
00000000
10000000
00000000
00130000
00000000
00010000
00100000
,  // measure 55
00002000
00000000
00010000
00000000
00013000
00000000
00001000
01000000
,  // measure 56
00200000
00000000
00000000
00000000
01300000
00010000
00100000
00001000
,  // measure 57
00022000
00000000
00000000
00000000
,  // measure 58
00033000
00000000
00000000
00000000
;
