#TITLE:No Doubt Get Loud;
#SUBTITLE:;
#ARTIST:Asletics;
#TITLETRANSLIT:;
#SUBTITLETRANSLIT:;
#ARTISTTRANSLIT:;
#GENRE:;
#CREDIT:;
#MENUCOLOR:;
#METERTYPE:DDR;
#BANNER:No Doubt Get Loud-bn.png;
#BACKGROUND:No Doubt Get Loud-bg.png;
#LYRICSPATH:;
#CDTITLE:ddrencorecdtitle.png;
#MUSIC:No Doubt Get Loud.mp3;
#OFFSET:-0.377;
#SAMPLESTART:38.760;
#SAMPLELENGTH:12.000;
#SELECTABLE:YES;
#LISTSORT:;
#BPMS:0.000=100.000;
#STOPS:;
#BGCHANGES:0.000=No Doubt Get Loud.avi=1.000=1=1=0,
99999=-nosongbg-=1.000=0=0=0 // don't automatically add -songbackground-
;
#ATTACKS:;

//---------------dance-single - ----------------
#NOTES:
     dance-single:
     :
     Beginner:
     1:
     0.143,0.159,0.070,0.020,0.000:
0000
0000
0000
0000
,
0000
0000
0000
0000
,
1001
0000
0000
0000
,
0100
0100
0100
0000
,
0010
0000
0000
1000
,
1000
0000
0000
0001
,
0001
0000
0100
0000
,
0010
0000
1001
0000
,
0100
0000
0000
0010
,
0010
0000
0000
1000
,
1000
0000
0000
0010
,
0010
0000
1001
0000
,
0020
0030
0010
0000
,
0100
0000
0100
0000
,
0002
0003
0001
0000
,
1000
0000
1000
1000
,
1000
0000
0001
0000
,
0010
0010
0010
0000
,
0001
0000
1000
0000
,
0100
0100
0100
0000
,
1000
0000
0001
0000
,
1000
1000
1000
0000
,
0001
0000
0010
0000
,
0001
0001
0001
0001
,
0001
0000
1000
1000
,
1000
0000
0010
0000
,
0010
0000
1000
1000
,
1000
0000
0001
0001
,
0001
0000
0010
0000
,
0100
0000
1000
1000
,
1000
0000
0010
0000
,
0100
0000
0010
0000
,
1001
0000
0100
0000
,
0001
0001
0001
0000
,
1001
0000
0010
0000
,
1000
1000
1000
0000
,
1001
0000
0100
0000
,
0010
0010
0010
0000
,
1001
0000
0010
0000
,
0100
0100
0100
0100
,
0100
0000
0000
0000
;

//---------------dance-single - ----------------
#NOTES:
     dance-single:
     :
     Hard:
     9:
     0.579,0.555,0.189,0.477,0.582:
0000
0000
0000
0000
,
0000
0000
0000
0000
,
0000
0000
0000
0000
,
0000
0000
1000
0001
0100
0000
0001
1000
0100
0000
1000
0000
0001
0001
0001
0001
,
1000
0000
0000
0001
0000
0000
0010
0000
0001
0000
0000
1000
0000
0000
0100
1000
,
0010
0000
0000
0100
0000
0001
0000
1000
0000
0001
0000
1000
0010
0100
0001
1000
,
0001
0000
0000
1000
0000
0000
0100
0000
0001
0000
0000
0100
0000
0000
1000
0000
,
0010
0000
0000
1000
0010
0000
0000
0100
0001
0000
1000
0000
0100
1000
0001
0010
,
0001
0000
1000
0000
0100
0010
0100
0000
0000
0000
1000
0001
0010
0001
0100
0010
,
1000
0000
0000
0001
0000
1000
0000
0001
0000
0100
0000
0010
1000
0100
1000
0001
,
0010
0000
0000
0001
0000
0000
1000
0000
0100
0000
0000
1000
0000
0000
0001
0000
,
0010
0000
0000
0001
0100
0000
0000
0010
1000
0000
0001
0000
0100
0001
0100
0000
,
0001
1000
0001
1000
0100
1000
0010
0100
0001
1000
0100
0100
0100
0000
0000
0000
,
1000
0000
0001
0000
0010
0001
0100
0001
0100
0010
1000
1000
1000
0000
0000
0000
,
0001
0100
0010
1000
0100
1000
0001
0010
0001
0100
0001
0001
0001
0000
0000
0000
,
1000
0100
1000
0010
0100
0001
0000
0001
0000
0001
0000
1000
0100
1000
0010
0100
,
0001
0000
1000
0001
0100
0000
0101
0000
2020
0000
0000
3030
0000
0000
2000
0000
,
3200
0000
0302
0000
0203
0000
1300
0010
0100
0001
1000
0100
0000
1000
0000
0000
,
0001
0000
0100
0010
1000
0000
1100
0000
0022
0000
0000
0033
0000
0000
2000
0000
,
3020
0000
0032
0000
0023
0000
1030
0001
0100
0001
0010
0001
1000
0000
0100
0000
,
1000
0000
0001
0010
0100
0000
0110
0000
0022
0000
0000
0033
0000
0000
2000
0000
,
0020
3000
0200
0030
0002
0300
1003
0100
1000
0000
0010
0000
0100
0001
0100
0001
,
1000
0000
0100
0010
0001
0000
1100
0000
0202
0000
0000
0303
0000
0000
2000
0000
,
0002
3000
0200
0003
0020
0300
1030
0100
1001
0000
1001
0000
1001
0000
1001
0000
,
0000
0000
1000
0010
0100
0001
1000
0000
0001
0001
0001
0000
1000
0000
0001
0000
,
0000
0000
0100
0001
1000
0100
1000
0000
0010
0010
0010
0000
0100
0000
0001
0000
,
0000
0000
1000
0100
1000
0010
0100
0000
0001
0100
0001
1000
0001
0000
0000
0000
,
1000
0000
0100
0010
0001
0010
0000
0001
0000
0100
0000
0001
1000
0100
1000
0010
,
0100
0000
0000
0001
0000
0000
1000
0000
0100
0000
0000
1000
0000
0000
0001
0000
,
0010
0000
0000
0001
0000
1000
0000
0001
0000
0100
0000
0010
1000
0100
1000
0001
,
0010
0000
0000
0001
0000
0000
0100
0000
0010
0000
0000
1000
0000
0000
0001
0000
,
0100
0000
0010
1000
0100
0000
0010
0001
0100
0000
0001
0000
1000
1000
1000
1000
,
0001
0000
0100
0010
1000
0000
0001
0000
2002
0000
0000
0000
3003
0000
2000
0000
,
0200
3000
0002
0300
0200
0003
1000
0300
0010
0100
0001
1000
0001
0000
0100
0000
,
0010
0000
1000
0001
0100
0000
0010
0000
0220
0000
0000
0000
0330
0000
0002
0000
,
0020
0003
2000
0030
0020
3000
0001
0030
0100
0010
1000
0000
0001
0000
0010
0000
,
0001
0000
1000
0100
0001
0000
0100
0000
0220
0000
0000
0000
0330
0000
0002
0000
,
2000
0003
0020
3000
0200
0030
0001
0300
1000
0001
0100
0010
0100
0000
0001
0000
,
1000
0000
0001
0010
0001
0000
1000
0000
0202
0000
0000
0000
0303
0000
2000
0000
,
0020
3000
0200
0030
0002
0300
1003
0100
1000
0000
0101
0000
1001
0000
1010
0000
;

//---------------dance-single - ----------------
#NOTES:
     dance-single:
     :
     Medium:
     6:
     0.239,0.238,0.030,0.159,0.080:
0000
0000
0000
0000
,
0000
0000
0000
0000
,
0000
0000
0000
0000
,
1000
0000
0000
0001
0000
0000
0000
0000
0100
0000
0000
0001
0000
0000
0000
0000
,
1000
0000
0000
0100
0000
0000
0000
0000
1000
0000
0000
0001
0000
0000
0000
0000
,
0100
0000
0000
0001
0000
0000
0000
0000
1000
0000
0000
0000
0001
0000
0000
0000
,
0100
0000
0000
0010
0000
0000
0000
0000
1000
0000
0000
0100
0000
0000
0000
0000
,
1000
0000
0000
0010
0000
0000
0000
0000
0100
0000
0000
0000
0001
0000
0000
0000
,
1000
0000
0000
0100
0000
0000
0000
0000
0010
0000
0000
0001
0000
0000
0000
0000
,
0100
0000
0000
0010
0000
0000
0000
0000
1000
0000
0000
0000
0001
0000
0000
0000
,
0010
0000
0000
0100
0000
0000
0000
0000
1000
0000
0000
0001
0000
0000
0000
0000
,
0100
0000
0000
0001
0000
0000
0000
0000
1000
0000
0000
0000
0010
0000
0000
0000
,
0100
0000
0001
0000
1000
0001
1000
0000
,
0001
0000
0010
0000
0100
1000
0100
0000
,
1000
0000
0001
0000
0100
0010
0100
0000
,
0001
1000
0010
0100
,
1001
0200
0002
0303
,
1000
0100
1000
0001
,
0110
0002
2000
3003
,
0100
0010
0001
1001
,
1000
0020
0200
0330
,
0001
1000
0100
0100
,
1000
0002
0020
0033
,
0001
0000
1000
0000
0010
0100
0010
0000
,
1000
0000
0001
0000
0010
0000
0001
1000
,
0000
0000
0001
0000
0100
0000
0010
1000
,
0000
0000
0001
0000
0100
0000
0001
1000
,
0001
0100
0010
1000
,
0100
0000
0000
1000
0000
0000
0000
0000
0000
0000
0000
0000
0000
0000
0001
0000
,
0010
0001
0100
0010
,
1000
0000
0000
0100
0000
0000
0000
0000
0000
0000
0000
0000
0000
0000
0001
0000
,
0100
0000
0010
0000
1000
0001
1000
0000
,
0001
0200
0020
0330
,
1000
0000
0100
0000
0010
0001
0010
0000
,
0001
0200
0002
0303
,
1000
0000
0100
0000
1000
0010
1000
0000
,
0001
0020
0002
0033
,
1000
0000
0100
0000
1000
0010
1000
0000
,
0001
0200
0020
0330
,
0001
0000
1000
0000
0010
1000
0010
1000
;

//---------------dance-single - ----------------
#NOTES:
     dance-single:
     :
     Easy:
     3:
     0.222,0.217,0.089,0.159,0.000:
0000
0000
0000
0000
,
0000
0000
0000
0000
,
0000
0000
0000
0000
,
1000
0010
0100
0100
,
0001
1000
0001
0010
,
0001
1000
0100
1000
,
0010
0100
0010
1000
,
0100
0000
1001
0000
,
0010
0100
0001
1000
,
0001
0010
0100
1000
,
0001
0100
0001
1000
,
0010
0100
0001
1000
,
0001
0010
0000
0010
,
0001
1000
0100
1000
,
0001
0100
0000
0100
,
0001
1000
0010
0010
,
1000
0001
2002
3003
,
1000
0010
0100
0001
,
1000
0100
0220
0330
,
0001
1000
0100
1000
,
0001
0010
2002
3003
,
0100
0001
1000
1000
,
0001
0010
0220
0330
,
0001
1000
0100
0100
,
1000
0001
0010
0000
,
0001
1000
0100
0000
,
0010
0001
0100
0100
,
0010
1000
0100
1000
,
0001
0010
0000
0001
,
1000
0100
0000
1000
,
0010
0100
0000
0001
,
0100
0001
1000
0001
,
1000
0010
0220
0330
,
0001
1000
0100
0100
,
1000
0010
2002
3003
,
0100
0001
0010
0100
,
1000
0001
0220
0330
,
1000
0001
0100
0100
,
0001
1000
0220
0330
,
0001
1000
0100
0100
;

//---------------dance-double - ----------------
#NOTES:
     dance-double:
     :
     Easy:
     3:
     0.199,0.178,0.080,0.060,0.000:
00000000
00000000
00000000
00000000
,
00000000
00000000
00000000
00000000
,
00000000
00000000
00000000
00000000
,
00000100
00001000
00000001
00001000
,
00000100
00010000
00000000
00001000
,
01000000
00010000
00000000
00100000
,
00010000
01000000
00000000
00010000
,
10000000
01000000
10000000
00010000
,
00100000
00001000
00000000
00010000
,
00000100
00001000
00000000
00000010
,
00000100
00000001
00000000
00001000
,
00000100
00001000
00000010
00000100
,
00000001
00001000
00000100
00000100
,
00000000
00010000
00001000
00010000
,
00001000
00100000
00010000
00010000
,
00000000
01000000
00010000
10000000
,
01000000
10000000
11000000
00000000
,
00010000
01000000
00010000
00010000
,
01000000
00001000
00011000
00000000
,
00000100
00001000
00000010
00000010
,
00000100
00000001
00000101
00000000
,
00001000
00000100
00010000
00010000
,
00001000
00100000
00110000
00000000
,
01000000
00010000
10000000
01000000
,
10000000
20000000
00000000
30010000
,
01000000
02000000
00000000
03010000
,
00100000
00200000
00000000
00301000
,
00010000
00000100
00001000
00000010
,
00000100
00000200
00000000
00000301
,
00001000
00002000
00000000
00003001
,
00000010
00000200
00000000
00010300
,
00001000
01000000
00010000
00100000
,
00010000
01000000
01010000
00000000
,
10000000
00010000
00100000
00100000
,
00001000
00010000
00011000
00000000
,
00000100
00001000
00000010
00000010
,
00000100
00000001
00000101
00000000
,
00000010
00001000
00000100
00010000
,
00001000
00100000
00110000
00000000
,
00010000
10000000
00100000
00100000
;

//---------------dance-double - ----------------
#NOTES:
     dance-double:
     :
     Medium:
     5:
     0.233,0.218,0.000,0.159,0.055:
00000000
00000000
00000000
00000000
,
00000000
00000000
00000000
00000000
,
00000000
00000000
00000000
00000000
,
00100000
00000000
00000000
00010000
00000000
00000000
01000000
00000000
00010000
00000000
00000000
10000000
00000000
00000000
00000000
00000000
,
00010000
00000000
00000000
01000000
00000000
00000000
00000000
00000000
00001000
00000000
00000000
00010000
00000000
00000000
00000000
00000000
,
00000100
00000000
00000000
00001000
00000000
00000000
00000000
00000000
00000001
00000000
00000000
00000000
00000100
00000000
00000000
00000000
,
00000001
00000000
00000000
00000010
00000000
00000000
00000000
00000000
00000100
00000000
00000000
00001000
00000000
00000000
00000000
00000000
,
00000100
00010000
00001000
01000000
,
00010000
00000000
00000000
00100000
00000000
00000000
00000000
00000000
00000000
00000000
00000000
00000000
00010000
00000000
00000000
00000000
,
10000000
00000000
00000000
01000000
00000000
00000000
00000000
00000000
00100000
00000000
00000000
00000000
00010000
00000000
00000000
00000000
,
01000000
00000000
00000000
00001000
00000000
00000000
00000000
00000000
00000000
00000000
00000000
00000000
00100000
00000000
00000000
00000000
,
00001000
00000000
00000000
00010000
00000000
00000000
00000000
00000000
00000100
00000000
00000000
00000000
00001000
00000000
00000000
00000000
,
00000010
00000000
00000100
00000000
00000001
00001000
00000001
00000000
,
00000010
00000000
00000001
00000000
00001000
00000100
00001000
00000000
,
00000100
00000000
00010000
00000000
00001000
00010000
00001000
00000000
,
01000000
00010000
00100000
01000000
,
10000000
00020000
02000000
03030000
,
00010000
00100000
00001000
00010000
,
00000100
00002000
00000020
00003030
,
00000100
00000001
00001000
00000100
,
00010000
00002000
00200000
00303000
,
00010000
01000000
00010000
10000000
,
00100000
02000000
00020000
03030000
,
10000000
00000000
01000000
00000000
00100000
00010000
00100000
00000000
,
00001000
00000000
00010000
00000000
00000100
00000000
00001000
00000100
,
00000000
00000000
00001000
00000000
00000010
00000000
00000100
00000001
,
00000000
00001000
00000100
00010000
,
00001000
00000000
00100000
00000000
00010000
00000000
01000000
00010000
,
01000000
00000000
00100000
00000000
00000000
00000000
10000000
00010000
,
00100000
00000000
00010000
00000000
00000000
00000000
01000000
00010000
,
01000000
00001000
00000000
00010000
,
00000010
00000100
00000001
00001000
,
00000100
00020000
00002000
00033000
,
01000000
00000000
00010000
00000000
00100000
00010000
00100000
00000000
,
00001000
00020000
00000200
00030300
,
00001000
00000000
00000010
00000000
00000100
00000001
00000100
00000000
,
00000001
00002000
00000200
00003300
,
00010000
00000000
00001000
00000000
00100000
00010000
00100000
00000000
,
01000000
20000000
00020000
30030000
,
00100000
00000000
00010000
00000000
01000000
00100000
01000000
00100000
;

//---------------dance-double - ----------------
#NOTES:
     dance-double:
     :
     Hard:
     8:
     0.493,0.495,0.099,0.159,0.427: // measure 1
00000000
00000000
00000000
00000000
,  // measure 2
00000000
00000000
00000000
00000000
,  // measure 3
00000000
00000000
00000000
00000000
,  // measure 4
00000100
00000000
00001000
00000001
00000100
00000000
00000010
00001000
00000100
00000000
00010000
00000000
00001000
01000000
00001000
01000000
,  // measure 5
00010000
00000000
00000000
00100000
00000000
00000000
01000000
00000000
10000000
00000000
00000000
00010000
00000000
00000000
01000000
00000000
,  // measure 6
00001000
00000000
00000000
00010000
00000000
00000100
00000000
00001000
00000000
00000001
00000000
00001000
00000000
00000001
00000010
00000000
,  // measure 7
00000001
00000000
00000000
00001000
00000000
00000000
00000001
00000000
00000100
00000000
00000000
00000010
00000000
00000000
00001000
00000000
,  // measure 8
00000100
00000000
00010000
00001000
00010000
00000000
00001000
01000000
00001000
00000000
00100000
00010000
00100000
00000000
00010000
00000000
,  // measure 9
10000000
00000000
00000000
01000000
00000000
00000000
10000000
00000000
00100000
00000000
00000000
01000000
00000000
00000000
00010000
00000000
,  // measure 10
00100000
00000000
00000000
00010000
00000000
01000000
00000000
00001000
00000000
00010000
00000000
00000100
00000000
00001000
00000010
00000000
,  // measure 11
00000100
00000000
00000000
00000001
00000000
00000000
00001000
00000000
00000100
00000000
00000000
00000010
00000000
00000000
00000001
00000000
,  // measure 12
00000100
00000000
00000000
00000000
00000001
00000000
00000000
00000000
00001000
00000000
00000100
00000000
00010000
00001000
00010000
00001000
,  // measure 13
00010000
00000000
00001000
00000000
00010000
00000000
01000000
00000000
10000000
00000000
00100000
01000000
00100000
00000000
00000000
00000000
,  // measure 14
10000000
00000000
00010000
00000000
00100000
00000000
01000000
00000000
00100000
00001000
00100000
00000000
00010000
00000000
00000000
00000000
,  // measure 15
01000000
00000000
00001000
00000000
00010000
00000000
00000100
00000000
00001000
00000010
00001000
00000100
00001000
00000000
00000000
00000000
,  // measure 16
00000001
00000000
00000010
00000000
00000100
00000000
00001000
00000000
00000001
00000000
00000100
00000000
00000001
00000010
00000001
00001000
,  // measure 17
00000100
00000000
00001000
00000010
00000100
00000000
00000001
00000000
00000202
00000000
00000000
00000000
00000303
00000000
00000010
00000000
,  // measure 18
00001000
00000000
00000100
00000000
00010000
00000000
00001000
00000000
01000000
00000000
00100000
00000000
00010000
00001000
00010000
00000000
,  // measure 19
00001000
00000000
01000000
00010000
00100000
00000000
00010000
00000000
02020000
00000000
00000000
00000000
03030000
00000000
00100000
00000000
,  // measure 20
10000000
00000000
01000000
00000000
00010000
00000000
00001000
00000000
00000010
00000000
00000001
00000000
00000100
00000001
00000100
00000000
,  // measure 21
00000001
00000000
00000010
00000100
00001000
00000000
00000100
00000000
00020200
00000000
00000000
00000000
00030300
00000000
00000000
00000000
,  // measure 22
00001000
00000000
01000000
00000000
00010000
00000000
00100000
00000000
01000000
00000000
10000000
00000000
00010000
01000000
00010000
10000000
,  // measure 23
00100000
00000000
01000000
00010000
10000000
00000000
00100000
00000000
20020000
00000000
00000000
00000000
30030000
00000000
01000000
00000000
,  // measure 24
00010000
00000000
00100000
00000000
01000000
00000000
00001000
00000000
00000100
00000000
00000010
00000000
00000001
00000100
00000001
00000000
,  // measure 25
00001000
00000000
00000010
00000100
00000001
00001000
00000100
00001000
00000100
00000000
00010000
00000000
00001000
00000000
00010000
00000000
,  // measure 26
00001000
00000000
01000000
00010000
00100000
00010000
01000000
00010000
10000000
00010000
10000000
00000000
01000000
00000000
10000000
00000000
,  // measure 27
00100000
00000000
01000000
00010000
00100000
00001000
00010000
00001000
00010000
00000000
00000100
00001000
00000010
00000000
00000100
00000000
,  // measure 28
00000001
00000010
00000001
00000010
00000000
00000100
00000000
00001000
00000000
00000001
00000100
00000001
00001000
00000100
00010000
00000000
,  // measure 29
00001000
00000000
01000000
00000000
00010000
00000000
00100000
00010000
00100000
00000000
01000000
00000000
10000000
00000000
00100000
00000000
,  // measure 30
00010000
00000000
00001000
00000000
00000100
00000010
00000000
00001000
00000000
00000100
00000000
00000010
00000000
00000001
00000100
00000001
,  // measure 31
00001000
00000000
00000000
00000100
00000000
00000000
00010000
00000000
00001000
00000000
00000000
00100000
00000000
00000000
00010000
00000000
,  // measure 32
01000000
00000000
00100000
01000000
00001000
00000000
00010000
00000100
00001000
00000000
00000010
00000000
00000100
00000001
00000100
00000001
,  // measure 33
00001000
00000000
00000100
00010000
00000010
00000000
00000100
00000000
00000202
00000000
00000000
00000000
00000303
00000000
00000010
00000000
,  // measure 34
00000100
00000000
00000001
00000000
00000010
00000000
00000100
00000000
00010000
00000000
00001000
00000000
01000000
00010000
01000000
00010000
,  // measure 35
00100000
00000000
01000000
10000000
00010000
00000000
00100000
00000000
02020000
00000000
00000000
00000000
03030000
00000000
10000000
00000000
,  // measure 36
00100000
00000000
01000000
00000000
00001000
00000000
00010000
00000000
01000000
00000000
10000000
00000000
00010000
00100000
00010000
00000000
,  // measure 37
10000000
00000000
00010000
00100000
00001000
00000000
00010000
00000000
00020200
00000000
00000000
00000000
00030300
00000000
00001000
00000000
,  // measure 38
00000100
00000000
00000010
00000000
00001000
00000000
00000100
00010000
00001000
00000000
01000000
00000000
00010000
00100000
00010000
10000000
,  // measure 39
01000000
00000000
10000000
00100000
01000000
00000000
00010000
00000000
00220000
00000000
00000000
00000000
00330000
00000000
01000000
00000000
,  // measure 40
10000000
00000000
00010000
00000000
00100000
00000000
00010000
01000000
00010000
00000000
10010000
00000000
01000000
00000000
10100000
00000000
;
