#TITLE:My Sharona;
#SUBTITLE:;
#ARTIST:DJ MIKO;
#TITLETRANSLIT:;
#SUBTITLETRANSLIT:;
#ARTISTTRANSLIT:;
#GENRE:;
#CREDIT:;
#MENUCOLOR:;
#METERTYPE:DDR;
#BANNER:My Sharona-bn.png;
#BACKGROUND:My Sharona-bg.png;
#LYRICSPATH:;
#CDTITLE:ddrencorecdtitle.png;
#MUSIC:My Sharona.mp3;
#OFFSET:-0.436;
#SAMPLESTART:40.360;
#SAMPLELENGTH:12.000;
#SELECTABLE:YES;
#LISTSORT:;
#BPMS:0.000=144.000;
#STOPS:;
#BGCHANGES:;
#ATTACKS:;

//---------------dance-single - ----------------
#NOTES:
     dance-single:
     :
     Beginner:
     1:
     0.129,0.144,0.056,0.000,0.000:
0000
0000
0000
0000
,
0000
0000
0000
0000
,
0000
0000
0000
0000
,
0000
0000
0000
0000
,
1000
0000
1000
0000
,
0100
0000
0100
0000
,
1000
0000
1000
0000
,
0001
0000
0000
0000
,
0001
0000
0001
0000
,
0100
0000
0100
0000
,
0001
0000
0001
0000
,
1000
0000
0000
0000
,
1001
0000
0000
0000
,
0010
0000
0010
0000
,
0010
0000
0100
0000
,
0110
0000
0000
0000
,
1000
0000
1000
0000
,
1000
0000
0000
0000
,
0001
0000
0001
0000
,
1001
0000
0000
0000
,
0100
0000
0000
0000
,
1000
0000
1000
0000
,
0001
0000
0000
0000
,
0010
0000
0010
0000
,
0001
0000
0000
1000
,
0000
0000
0010
0010
,
0000
0000
0000
1000
,
1000
0000
0000
0000
,
0000
0000
0000
0000
,
0001
0000
0010
0000
,
0001
0000
0100
0000
,
0100
0000
0000
0000
,
0010
0000
1000
0000
,
1001
0000
0000
0000
,
0100
0000
0100
0000
,
0010
0000
0000
0000
,
0001
0000
0001
0000
,
1001
0000
0000
0000
,
0100
0000
0100
0000
,
1000
0000
0000
0000
,
0001
0000
0001
0000
,
0010
0000
0000
0000
,
0010
0000
0000
0100
,
0000
0000
0001
0001
,
0000
0000
0000
0000
,
0000
0100
0100
0100
,
0100
0000
0000
0001
,
0000
0000
0010
0010
,
0000
0000
0000
0000
,
0000
0001
0001
0001
,
0001
0000
0000
1000
,
0000
0000
0010
0010
;

//---------------dance-single - ----------------
#NOTES:
     dance-single:
     :
     Hard:
     8:
     0.518,0.491,0.134,0.468,0.067:
0000
0000
0000
0000
,
0000
0000
0000
0000
,
0000
0000
0000
0000
,
0000
0000
0000
0000
,
0010
0000
0000
0001
0000
0000
0100
0000
0001
0000
0000
1000
0000
0000
0010
0000
,
0100
0000
0000
0010
0000
0000
1000
0000
0001
0000
0000
0000
0101
0000
0000
0000
,
0010
0000
0000
1000
0000
0000
0100
0000
0010
0000
0000
0001
0000
0000
1000
0000
,
0010
0000
0000
0100
0000
0000
0010
0000
1000
0000
0100
0000
0001
0000
0100
0000
,
1000
0000
0000
0100
0000
0000
0010
0000
0001
0000
0000
0010
0000
0000
0001
0000
,
0100
0000
0000
0010
0000
0000
1000
0000
0100
0000
0000
0000
0110
0000
0000
0000
,
0001
0000
0000
0010
0000
0000
1000
0000
0010
0000
0000
0001
0000
0000
0100
0000
,
0010
0000
0000
0001
0000
0000
0010
0000
1000
0000
0100
0000
0010
0000
0001
0000
,
0100
0001
0010
0000
0100
0000
1020
0000
,
0130
0001
0020
0000
0130
0000
1100
0000
,
0010
0001
0100
1000
0100
0001
0010
0100
,
2100
0000
0000
0001
3001
0200
0000
0000
,
0310
1000
0100
0001
0100
0010
0012
0000
,
0103
0000
0010
1000
0200
0000
1300
0000
,
0010
0100
0001
0010
0100
0001
0100
1000
,
0200
0000
0000
0010
0310
0002
0000
0000
,
0103
0010
0200
0000
0301
0000
1000
0100
,
0001
0000
1000
0100
0001
0100
1000
0010
,
0100
0010
2000
0000
3100
0000
0010
0001
,
0100
0000
0010
0001
0100
0010
1000
0100
,
2000
0000
0010
0020
3000
0100
0230
0000
,
0001
0302
0000
1000
1003
0100
1001
0000
,
0000
0000
0000
0000
0000
0100
1000
0100
,
2000
0000
0000
0010
3010
0200
0000
0000
,
0301
0010
0100
1000
,
0020
0000
0000
0100
0130
0002
0000
0000
,
1003
0100
0010
0000
0001
0100
2000
0000
,
3100
0000
0001
0010
0200
0000
0310
0000
,
0001
1000
0100
0010
0100
1000
0001
0100
,
0020
0000
0000
1000
1030
0200
0000
0000
,
0310
0001
0100
0010
0001
0010
0200
0000
,
0301
0000
1000
0100
0020
0000
0130
0000
,
1000
0001
0100
0010
0001
0010
1000
0100
,
0020
0000
0000
0001
0031
2000
0000
0000
,
3100
0010
0001
0000
2100
0000
3010
0100
,
0002
0000
0013
0100
1000
0001
0010
0001
,
1000
0100
0010
0000
2100
0000
3001
0100
,
0020
0000
0130
0001
0010
0001
1000
0010
,
0200
0000
0001
0302
0000
1000
2003
0000
,
0010
3020
0000
0100
0130
0000
1001
0000
,
1000
0100
0010
0001
,
0100
0000
0010
1000
0010
0100
0010
0100
,
0020
0000
1000
2030
0000
0001
3002
0000
,
0100
0203
0000
0010
0310
0000
1001
0000
,
0001
0100
0010
1000
,
0100
0000
0010
0001
0010
0001
0100
0001
,
0200
0000
0310
2000
0000
3100
0002
0000
,
0103
2000
0000
3010
0010
0000
0110
0000
;

//---------------dance-single - ----------------
#NOTES:
     dance-single:
     :
     Medium:
     6:
     0.355,0.375,0.257,0.134,0.000:
0000
0000
0000
0000
,
0000
0000
0000
0000
,
0000
0000
0000
0000
,
0000
0000
0000
0000
,
1000
0000
0100
0000
0010
0001
0010
0000
,
0001
0000
0100
0000
0010
1000
0010
0100
,
0010
1000
0001
0010
,
0100
1000
0100
0000
0010
0001
0010
0000
,
1000
0000
0010
0000
0100
0001
0100
0000
,
0001
0000
1000
0000
0100
0010
0001
0010
,
0100
1000
0001
0100
,
0010
1000
0010
0000
0100
0001
0100
0000
,
0010
1000
0100
0000
1000
0000
0101
0000
,
0000
0010
1100
0010
,
0100
0001
1000
0000
0010
0000
0100
0000
,
0002
0000
0013
0000
,
0100
0000
1000
0000
0010
0100
0010
0000
,
0000
0000
0100
0000
0001
0010
0001
0000
,
1000
0000
0010
0000
0100
0001
0100
0000
,
0020
0000
1030
0000
,
0002
0010
1003
0000
,
0100
0100
0010
0001
,
2000
0010
3001
0000
,
0100
0100
0010
1000
,
1100
0000
0000
1001
0000
0000
0011
0000
,
0000
1100
0000
0000
0010
0000
1001
0000
,
0100
0000
0010
0000
1000
0000
0100
0010
,
0002
0000
0103
0000
,
0010
1000
0001
1000
,
0020
0000
0130
0000
,
0001
0000
0010
0000
0100
1000
0100
0000
,
0000
0000
0001
0000
0100
0010
0100
0000
,
0001
1000
0100
0010
,
0200
0000
1300
0000
,
0001
0000
0100
0000
0001
0010
0001
0000
,
0000
0000
1000
0000
0100
0010
0100
0000
,
0010
0000
0001
0000
0100
0010
0100
0000
,
0002
0000
0013
0000
,
0100
0001
2000
0010
,
3002
0000
0103
0000
0010
1000
0010
0000
,
0200
0001
0320
1030
,
0100
0000
0010
0000
0001
0010
0001
0000
,
1001
0000
0000
0110
0000
0000
1100
0000
,
0000
0101
0000
0000
0010
0000
1001
0000
,
0000
0100
0010
0100
,
0000
0001
1000
0100
,
1100
0000
0000
0101
0000
0000
1010
0000
,
0000
0011
0000
0000
0100
0000
0110
0000
,
0000
1000
0010
0100
,
0001
0000
0010
0001
0010
0001
0010
0000
,
1001
0000
0000
0110
0000
0000
1010
0000
,
0000
0101
0000
0000
0110
0000
1001
0000
;

//---------------dance-single - ----------------
#NOTES:
     dance-single:
     :
     Easy:
     3:
     0.226,0.260,0.000,0.190,0.000:
0000
0000
0000
0000
,
0000
0000
0000
0000
,
0000
0000
0000
0000
,
0000
0000
0000
0000
,
1000
0000
0001
0010
,
0001
0000
1000
0100
,
0010
0000
0001
0000
,
0100
0000
0010
1000
,
0010
0000
0100
0001
,
1000
0000
0100
0010
,
0001
0000
1000
0100
,
1000
0000
0001
0000
,
0100
0010
0100
0001
,
0000
1000
0100
0000
,
0010
0001
0010
0100
,
2000
0000
3001
0000
,
0100
0001
1000
0010
,
0000
0100
0001
0000
,
1000
0100
0010
0001
,
0020
0000
0031
0000
,
0100
0010
1000
0000
,
0001
0000
1000
0100
,
1000
0010
0100
0000
,
0001
0000
0001
0100
,
0002
0000
2003
0000
,
3020
0000
0000
0030
,
0000
0000
1000
1000
,
2000
0000
3001
0000
,
1000
0100
0010
0001
,
0100
0010
1000
0001
,
1000
0010
0100
0000
,
0001
0000
1000
0000
,
0001
0010
0001
1000
,
0200
0000
0310
0000
,
0001
1000
0100
0000
,
1000
0000
0010
0000
,
0100
0001
0010
0001
,
2000
0000
3100
0000
,
0010
0010
0001
0000
,
0100
0000
0001
0000
,
1000
1000
0010
0000
,
0100
0000
0001
0000
,
2000
0000
3020
0000
,
0230
0000
0000
0300
,
0000
0000
0001
0001
,
1000
0000
0010
0100
,
0002
0000
0023
0000
,
0230
0000
0000
0300
,
0000
0000
1000
0001
,
1000
0000
0010
0100
,
0002
0000
2003
0000
,
3020
0000
0000
0130
;

//---------------dance-double - ----------------
#NOTES:
     dance-double:
     :
     Hard:
     8:
     0.511,0.462,0.056,0.402,0.100: // measure 1
00000000
00000000
00000000
00000000
,  // measure 2
00000000
00000000
00000000
00000000
,  // measure 3
00000000
00000000
00000000
00000000
,  // measure 4
00000000
00000000
00000000
00000000
,  // measure 5
00000002
00000000
00000000
00000000
00000013
00000000
00000100
00000000
00001000
00000000
00000000
00000100
00000000
00000000
00010000
00000000
,  // measure 6
00002000
00000000
00000000
00000000
00103000
00000000
00010000
00000000
01000000
00000000
00000000
00100000
00000000
00000000
10000000
00000000
,  // measure 7
02000000
00000000
00000000
00000000
03100000
00000000
00010000
00000000
10000000
00000000
00000000
01000000
00000000
00000000
00010000
00000000
,  // measure 8
00001000
00000000
00000000
00000010
00000000
00000000
00000001
00000000
00000100
00000000
00000010
00000000
00001000
00000000
00000100
00000000
,  // measure 9
00000020
00000000
00000000
00000000
00000130
00000000
00010000
00000000
00001000
00000000
00000000
01000000
00000000
00000000
00010000
00000000
,  // measure 10
00200000
00000000
00000000
00000000
00301000
00000000
00010000
00000000
00000100
00000000
00000000
00001000
00000000
00000000
00000010
00000000
,  // measure 11
00000200
00000000
00000000
00000000
00000301
00000000
00000010
00000000
00000100
00000000
00000000
00010000
00000000
00000000
00001000
00000000
,  // measure 12
01000000
00000000
00000000
00010000
00000000
00000000
00100000
00000000
01000000
00000000
10000000
00000000
00010000
00000000
01000000
00000000
,  // measure 13
00100000
10000000
01000000
00010000
02000000
00000000
13000000
00000000
,  // measure 14
00010000
00100000
00002000
00000000
01003000
00000000
00010000
00000000
,  // measure 15
00100000
00001000
00010000
01000000
00100000
00001000
00000100
00000010
,  // measure 16
00002000
00000000
00000000
00000001
00000001
00003001
00000000
00000000
,  // measure 17
00000100
00000010
00001000
00000100
00000001
00000100
00002000
00000000
,  // measure 18
00003010
00000000
00010000
00001000
00200000
00000000
00310000
00000000
,  // measure 19
01000000
00010000
00100000
00001000
01000000
00001000
00010000
00000100
,  // measure 20
00002000
00000000
00000000
00000010
00000010
00003010
00000000
00000000
,  // measure 21
00000100
00000000
00000000
00000100
00000001
00000000
00000000
00000001
00000010
00000000
00000000
00000000
00000100
00000000
00000000
00000100
,  // measure 22
00010000
00000000
00001000
00000000
00100000
00010000
01000000
00000000
,  // measure 23
00100000
00000000
00000000
00100000
10000000
00000000
00000000
10000000
01000000
00000000
00000000
00000000
00100000
00000000
00000000
00100000
,  // measure 24
00010000
00000000
01000000
00001000
00100000
00001000
00010000
00000100
,  // measure 25
00002000
00000000
00000010
00003020
00000000
00000100
00000230
00000000
,  // measure 26
00000001
00000302
00000000
00001003
00000100
00000000
00000110
00000000
,  // measure 27
00000001
00000000
00001000
00000000
00000100
00010000
00001000
00010000
,  // measure 28
00000200
00000000
00000000
00001000
00001000
00001300
00000000
00000000
,  // measure 29
00000010
00010000
00001000
00100000
,  // measure 30
00020000
00000000
00000000
01000000
01000000
01030000
00000000
00000000
,  // measure 31
00100000
10000000
00100000
01000000
00010000
00100000
00002000
00000000
,  // measure 32
00013000
00000100
00002000
00000000
00003010
00000000
00000100
00000000
,  // measure 33
00000001
00000010
00000100
00001000
00000010
00000100
00000010
00010000
,  // measure 34
00002000
00000000
00000000
00100000
00100000
00103000
00000000
00000000
,  // measure 35
00010000
00100000
01000000
10000000
02000000
00000000
13000000
00100000
,  // measure 36
02000000
03010000
00100000
00110000
,  // measure 37
01000000
00001000
00100000
00010000
01000000
00001000
00010000
00000100
,  // measure 38
00002000
00000000
00000000
00000010
00000010
00003010
00000000
00000000
,  // measure 39
00010000
00000000
00000000
00010000
00000100
00000000
00000000
00000100
00001000
00000000
00000000
00000000
00000010
00000000
00000100
00000000
,  // measure 40
00000010
00000000
00010000
00001000
00100000
00010000
01000000
00010000
,  // measure 41
00100000
00000000
00000000
00100000
00010000
00000000
00000000
00010000
01000000
00000000
00000000
00000000
00100000
00000000
10000000
00000000
,  // measure 42
00100000
00000000
01000000
00010000
00100000
00001000
00010000
00000010
,  // measure 43
00000200
00000000
00000001
00000302
00000000
00001000
00002003
00000000
,  // measure 44
00000100
00003200
00000000
00010300
00010000
00000000
00011000
00000000
,  // measure 45
00001000
01000000
00010000
00100000
,  // measure 46
01000000
10000000
00100000
10000000
01000000
10000000
00100000
01000000
,  // measure 47
00020000
00000000
00100000
00230000
00000000
01000000
02300000
00000000
,  // measure 48
10000000
23000000
00000000
30010000
01000000
00000000
01010000
00000000
,  // measure 49
00100000
00001000
00010000
00000100
,  // measure 50
00001000
00000010
00000100
00000001
00001000
00000100
00010000
00001000
,  // measure 51
00200000
00000000
00001000
00302000
00000000
01000000
02003000
00000000
,  // measure 52
00010000
03020000
00000000
00130000
00001000
00000000
00101000
00000000
;

//---------------dance-double - ----------------
#NOTES:
     dance-double:
     :
     Medium:
     5:
     0.363,0.346,0.290,0.234,0.078:
00000000
00000000
00000000
00000000
,
00000000
00000000
00000000
00000000
,
00000000
00000000
00000000
00000000
,
00000000
00000000
00000000
00000000
,
10000000
00000000
00000000
00100000
00000000
00000000
00000000
00000000
01000000
00000000
00000000
00010000
00000000
00000000
00000000
00000000
,
00100000
00000000
00000000
00001000
00000000
00000000
00000000
00000000
00010000
00000000
00000000
00000100
00000000
00000000
00000000
00000000
,
00001000
00000000
00000000
00000010
00000000
00000000
00000000
00000000
00000100
00000000
00000000
00000001
00000000
00000000
00000000
00000000
,
00001000
00000000
00000000
00000100
00000000
00000000
00000000
00000000
00010000
00000000
00000000
00000000
00011000
00000000
00000000
00000000
,
00001000
00000000
00000000
01000000
00000000
00000000
00000000
00000000
00100000
00000000
00000000
10000000
00000000
00000000
00000000
00000000
,
00010000
00000000
00000000
01000000
00000000
00000000
00000000
00000000
00001000
00000000
00000000
00100000
00000000
00000000
00000000
00000000
,
00000100
00000000
00000000
00010000
00000000
00000000
00000000
00000000
00000010
00000000
00000000
00001000
00000000
00000000
00000000
00000000
,
00000001
00000000
00000000
00000010
00000000
00000000
00000000
00000000
00000100
00000000
00000000
00000000
00001100
00000000
00000000
00000000
,
00000001
00000100
00000001
00000000
00001000
00000000
00000200
00000000
,
00010300
00002000
00020000
00033000
,
00001000
00000000
00100000
00000000
00010000
01000000
00010000
00000000
,
20000000
00000000
00000000
00000000
00100000
30100000
00000000
00000000
,
01000000
00000000
00010000
00000000
00100000
00010000
00100000
00000000
,
00001000
00020000
00002000
00033000
,
00000100
00000000
00001000
00000000
00000010
00000100
00000010
00000000
,
00002000
00000000
00000000
00000000
00000001
00003001
00000000
00000000
,
00000100
00000010
00020000
00031000
,
00100000
00010000
01000000
00100000
,
10000000
02000000
03100000
00010000
,
01000000
00001000
00020000
00031000
,
00010100
00000000
00000000
00001010
00000000
00000000
00001100
00000000
,
00000000
00001001
00000000
00000000
00000110
00000000
00001001
00000000
,
00000000
00000000
00000100
00000000
00000010
00000000
00001000
00000100
,
00002000
00000000
00003001
00000000
,
00000100
00000010
00010000
00001000
,
00200000
00000000
00310000
00000000
,
01000000
00010000
01000000
00000000
00200000
00000000
10300000
00000000
,
00010000
00200000
00002000
00303000
,
00010000
00000100
00001000
00000010
,
00000200
00000000
00000000
00000000
00000001
00000301
00000000
00000000
,
00001000
00000000
00000100
00000000
00010000
00001000
00010000
00000000
,
00001000
00200000
00020000
00330000
,
01000000
00000000
00010000
00000000
10000000
00100000
10000000
00000000
,
00020000
00000000
00000000
00000000
00100000
00130000
00000000
00000000
,
01000000
10000000
00010000
00200000
,
00301000
00010000
00000100
00001000
,
00000010
00000100
00000001
00002000
,
00003100
00010000
00001000
00010000
,
00011000
00000000
00000000
00101000
00000000
00000000
00110000
00000000
,
00000000
01010000
00000000
00000000
10010000
00000000
01100000
00000000
,
00000000
00010000
01000000
00010000
,
10000000
00000000
00100000
01000000
00100000
01000000
00010000
00000000
,
01010000
00000000
00000000
00110000
00000000
00000000
00101000
00000000
,
00000000
00011000
00000000
00000000
00010100
00000000
00001100
00000000
,
00000000
00001000
00000010
00000100
,
00000001
00000000
00001000
00000100
00001000
00000100
00001000
00000000
,
00001100
00000000
00000000
00010100
00000000
00000000
00011000
00000000
,
00000000
00101000
00000000
00000000
00011000
00000000
00011000
00000000
;

//---------------dance-double - ----------------
#NOTES:
     dance-double:
     :
     Easy:
     4:
     0.236,0.260,0.000,0.067,0.000:
00000000
00000000
00000000
00000000
,
00000000
00000000
00000000
00000000
,
00000000
00000000
00000000
00000000
,
00000000
00000000
00000000
00000000
,
10000000
01000000
10000000
00010000
,
00100000
00000000
00001000
00000000
,
00010000
00000100
00010000
00000100
,
00001000
00000000
00000010
00000000
,
00000100
00000001
00000100
00000001
,
00001000
00000000
00000100
00000000
,
00000010
00000001
00000010
00000001
,
00001000
00000000
00000100
00000000
,
00010000
00001000
00010000
00001000
,
00000000
01000000
00010000
00000000
,
10000000
01000000
10000000
00100000
,
02000000
00000000
03010000
00000000
,
00100000
00010000
01000000
00010000
,
00000000
01000000
00001000
00000000
,
00010000
00001000
00010000
00000100
,
00002000
00000000
00003010
00000000
,
00000100
00000001
00000100
00000000
,
00000001
00000000
00001000
00000000
,
00000100
00010000
00000100
00000000
,
00001000
00000000
00100000
00000000
,
00010000
00000000
00000000
01000000
00000000
00000000
00010000
00000000
,
00000000
01000000
00000000
00000000
00001000
00000000
00010000
00000000
,
00000000
00000100
00000000
00001000
,
00000020
00000000
00001030
00000000
,
00000100
00010000
00000100
00001000
,
00000002
00000000
00000103
00000000
,
00000010
00001000
00000010
00001000
,
00000000
00000100
00010000
00000000
,
00001000
00010000
00001000
00100000
,
00020000
00000000
01030000
00000000
,
00100000
10000000
00100000
01000000
,
00000000
00010000
00100000
00000000
,
00001000
00010000
00000100
00001000
,
00000020
00000000
00000130
00000000
,
00000001
00001000
00000100
00010000
,
00001000
00100000
00010000
00010000
,
01000000
00010000
10000000
01000000
,
00100000
00010000
01000000
01000000
,
00010000
00000000
00000000
00100000
00000000
00000000
00001000
00000000
,
00000000
00100000
00000000
00000000
00001000
00000000
00010000
00000000
,
00000000
00000100
00000000
00001000
,
00000000
00000010
00000100
00000001
,
00000100
00000000
00000000
00000001
00000000
00000000
00001000
00000000
,
00000000
00000100
00000000
00000000
00010000
00000000
00001000
00000000
,
00000000
00100000
00000000
00010000
,
00000000
01000000
00010000
00100000
,
00001000
00000000
00000000
00010000
00000000
00000000
00000100
00000000
,
00000000
00001000
00000000
00000000
00000010
00000000
00000100
00000000
;
