#TITLE:My Selene;
#SUBTITLE:;
#ARTIST:Sonata Arctica;
#TITLETRANSLIT:;
#SUBTITLETRANSLIT:;
#ARTISTTRANSLIT:;
#GENRE:;
#CREDIT:;
#MENUCOLOR:;
#METERTYPE:DDR;
#BANNER:My Selene.png;
#BACKGROUND:My Selene-bg.png;
#LYRICSPATH:My Selene.lrc;
#CDTITLE:ddrencorecdtitle.png;
#MUSIC:My Selene.mp3;
#OFFSET:-0.025;
#SAMPLESTART:63.601;
#SAMPLELENGTH:14.280;
#SELECTABLE:YES;
#LISTSORT:;
#BPMS:0.000=150.000;
#STOPS:;
#BGCHANGES:;
#ATTACKS:;

//---------------dance-single - ----------------
#NOTES:
     dance-single:
     :
     Hard:
     8:
     0.537,0.570,0.105,0.555,0.049: // measure 1
0000
0000
0000
0000
,  // measure 2
0000
0000
0000
0000
,  // measure 3
0000
0000
0000
0000
,  // measure 4
0000
0000
0000
0000
,  // measure 5
0002
0000
2003
0000
,  // measure 6
3200
0000
0310
0001
,  // measure 7
2000
0000
0000
3020
0000
0000
0230
0000
,  // measure 8
0302
0000
0000
0000
0003
0000
1000
0010
,  // measure 9
0200
0000
0000
0320
0000
0000
2030
0000
,  // measure 10
3002
0000
0000
0003
,  // measure 11
2000
0000
0000
3200
0000
0000
0320
0000
,  // measure 12
0230
0000
0000
0300
,  // measure 13
0020
0000
0032
0000
,  // measure 14
0203
0000
0310
1000
,  // measure 15
0002
0000
0000
2003
0000
0000
3200
0000
,  // measure 16
2300
0000
3020
2030
,  // measure 17
3010
1000
0010
0100
0000
0001
0100
0000
,  // measure 18
0010
0000
1000
0000
0001
0000
0010
0000
0000
0000
0010
0001
1000
0000
0000
0000
,  // measure 19
1000
0001
0010
0100
0000
0010
0001
1000
,  // measure 20
1001
0000
0000
0101
0000
0000
0110
0000
1010
0000
0000
0000
0000
0000
0000
0000
,  // measure 21
0010
0000
1000
0100
0000
1000
0000
0001
,  // measure 22
0100
0000
0100
0010
0000
0000
0010
1000
,  // measure 23
0001
0000
0010
0100
0000
0100
0010
0000
,  // measure 24
0001
1000
0001
0000
1000
0100
0000
0010
,  // measure 25
0100
0000
1000
0001
0010
0100
0010
0001
,  // measure 26
0000
1000
0010
0100
0010
0000
1000
0100
,  // measure 27
0010
0001
1000
0010
,  // measure 28
1001
0000
0001
0100
1000
0100
0010
0000
,  // measure 29
1001
0000
0010
0100
0001
0000
1000
0100
,  // measure 30
0000
0010
0000
0001
1000
0000
0010
0100
,  // measure 31
0001
0000
1000
0100
0010
0000
0001
1000
,  // measure 32
0100
0000
0010
0100
1000
0001
0000
0100
,  // measure 33
0010
0000
1000
0001
0100
0010
0100
0001
,  // measure 34
0000
0010
0100
0010
0001
0000
1000
0001
,  // measure 35
0100
0010
1000
0001
,  // measure 36
0100
0010
1001
0101
,  // measure 37
0100
0010
1000
0100
0000
1000
0001
0100
,  // measure 38
1000
0100
0010
1000
0000
0001
0010
0000
,  // measure 39
1001
0010
0100
0001
0000
1000
0010
0100
,  // measure 40
0010
0000
0000
1000
0000
0000
0001
0000
1000
0000
0000
0000
1000
0000
0001
0000
,  // measure 41
0200
0010
0310
0200
0001
0301
0100
0010
,  // measure 42
2000
0000
0001
0000
0010
0000
3001
0010
,  // measure 43
0002
1000
1003
0002
0010
0013
0001
1000
,  // measure 44
0200
0010
0001
1300
,  // measure 45
0020
0000
0130
1000
0200
0000
0301
0010
,  // measure 46
0002
0000
1003
0000
0010
0100
0001
0010
,  // measure 47
0200
0000
1000
2300
0000
0010
3020
0000
,  // measure 48
0130
0000
0001
0000
1000
0000
0100
0000
0010
0000
0001
0000
1000
0010
1000
0010
,  // measure 49
2000
0010
3010
2000
0001
3001
1000
0010
,  // measure 50
0200
0001
0010
0301
,  // measure 51
0020
0100
0130
0020
0001
0031
0010
0001
,  // measure 52
2000
0001
0010
3100
,  // measure 53
0020
0000
0031
1000
0002
0000
0103
1000
,  // measure 54
0200
0000
0310
0000
1000
0010
0100
0001
,  // measure 55
0020
0000
0031
0200
0000
0000
0320
0000
,  // measure 56
2030
3001
1001
1001
,  // measure 57
2000
0100
3100
0002
0100
0103
1000
0010
,  // measure 58
0200
0001
1000
0310
,  // measure 59
2000
0000
0010
0000
0010
3000
0002
0000
0010
0000
0010
0003
1000
0000
0001
0000
,  // measure 60
0020
0100
1000
0031
,  // measure 61
0200
0000
0000
0310
2000
0000
0000
3100
,  // measure 62
0020
0001
0100
0031
,  // measure 63
2000
0000
0001
3002
0000
0000
0203
0000
,  // measure 64
0310
0000
1000
0000
0001
0000
0010
0000
0001
0000
0100
0000
0010
1000
0010
1000
,  // measure 65
0020
0100
0130
0002
0010
0013
0001
1000
,  // measure 66
0200
0010
0001
1300
,  // measure 67
0200
0010
0310
0002
1000
1003
0001
1000
,  // measure 68
0002
0000
0100
0000
1000
0000
0013
0001
,  // measure 69
2000
0000
3010
0200
0000
0301
0100
0000
,  // measure 70
0200
0000
1000
0000
0001
0000
1300
0100
,  // measure 71
0002
0000
1000
2003
0000
0000
3200
0000
,  // measure 72
0310
0001
1000
0010
,  // measure 73
1000
0010
0100
0001
0010
0001
0100
0000
,  // measure 74
0010
0100
0001
1000
0100
0010
1001
0000
,  // measure 75
0010
0100
0010
1000
0001
0010
0100
0000
,  // measure 76
0010
0001
1000
0100
0010
0001
1001
0000
,  // measure 77
1000
0001
0100
1000
0100
0001
0010
0000
,  // measure 78
0100
0010
0001
1000
0100
0010
1001
0000
,  // measure 79
0010
0000
0001
0010
0001
0010
0001
0000
1000
0100
1000
0000
0100
0010
0100
0000
,  // measure 80
0010
0000
0001
1000
0001
1000
0002
0000
0000
0000
0000
0000
0000
0000
0000
0000
,  // measure 81
0003
0000
0000
0000
;

//---------------dance-single - ----------------
#NOTES:
     dance-single:
     :
     Medium:
     5:
     0.347,0.357,0.052,0.105,0.000: // measure 1
0000
0000
0000
0000
,  // measure 2
0000
0000
0000
0000
,  // measure 3
0000
0000
0000
0000
,  // measure 4
0000
0000
0000
0000
,  // measure 5
0000
0000
0000
0000
,  // measure 6
0000
0000
0000
0000
,  // measure 7
0000
0000
0000
0000
,  // measure 8
0000
0000
0000
0000
0000
0000
0001
1000
,  // measure 9
0002
0000
0000
0010
0003
0000
0010
0000
,  // measure 10
0200
0000
0310
0001
,  // measure 11
2000
0000
0000
0001
3000
0000
0010
0000
,  // measure 12
0200
0000
0310
0001
,  // measure 13
2000
0000
3020
0000
,  // measure 14
0230
0000
0310
0001
,  // measure 15
2000
0000
0000
0001
3000
0000
0100
0000
,  // measure 16
0020
0000
1030
0001
,  // measure 17
0010
0000
0100
0100
0000
0000
0010
0000
,  // measure 18
0001
0000
1000
1000
0000
0001
0100
0000
,  // measure 19
0001
0000
1000
1000
0000
0000
0010
0000
,  // measure 20
1000
0001
1001
0000
,  // measure 21
1000
0010
0100
0001
,  // measure 22
1000
0100
0010
0000
,  // measure 23
0010
0000
0001
1000
0000
1000
0001
0000
,  // measure 24
0100
0010
1000
0001
,  // measure 25
0010
0000
0000
0100
0010
0000
0000
0010
,  // measure 26
0001
1000
0010
0100
,  // measure 27
0001
1000
0001
0010
,  // measure 28
1001
0000
0001
1000
0000
0000
0001
0000
,  // measure 29
1001
0001
0010
0100
,  // measure 30
0010
0001
1000
0000
,  // measure 31
0010
1000
0001
1000
,  // measure 32
0010
0100
0001
0010
,  // measure 33
0100
0000
0010
0100
0010
0000
0001
1000
,  // measure 34
0000
0010
0100
0001
,  // measure 35
1000
0100
1000
0100
,  // measure 36
0100
0010
0001
0010
,  // measure 37
0001
0010
0001
0000
1000
0000
0001
0000
,  // measure 38
1000
0010
1000
0000
0100
0000
1001
0000
,  // measure 39
1000
0001
1000
0000
0001
0000
1000
0000
,  // measure 40
0001
0100
0001
0000
1000
0000
0001
0000
,  // measure 41
1000
0000
1000
0010
0000
0100
0010
0000
,  // measure 42
0200
0001
0001
0301
,  // measure 43
1000
0000
1000
0001
0000
0010
0001
0000
,  // measure 44
0020
0100
0100
0130
,  // measure 45
0010
0000
0000
0001
1000
0000
0000
0001
,  // measure 46
1000
0010
0100
0001
,  // measure 47
1000
0100
1000
0000
0001
0000
0100
0000
,  // measure 48
0010
0000
1001
0000
,  // measure 49
0010
0000
0010
1000
0000
0010
1000
0000
,  // measure 50
0002
0010
0010
0013
,  // measure 51
0100
0000
0100
0010
0000
0100
0010
0000
,  // measure 52
0002
1000
1000
1003
,  // measure 53
0001
0000
0001
0100
0010
0000
1000
0100
,  // measure 54
0010
0000
1000
0000
0001
0000
0010
0001
,  // measure 55
0010
0000
0010
0100
0000
0010
0100
0000
,  // measure 56
1000
0001
1001
1001
,  // measure 57
1000
0000
0001
0100
0000
0010
1000
0000
,  // measure 58
0100
0000
0010
0000
0001
0000
1000
0100
,  // measure 59
1000
0000
0001
0100
0000
0001
0100
0000
,  // measure 60
0010
1000
0001
0010
,  // measure 61
0100
0000
0000
0010
0001
0000
0000
1000
,  // measure 62
0100
1000
0010
0100
,  // measure 63
0001
1000
0001
0000
0100
0000
0010
0000
,  // measure 64
1000
0000
0001
1000
,  // measure 65
0100
0000
0010
0100
0000
0010
0100
0000
,  // measure 66
1000
0000
0001
0000
0100
0000
0010
1000
,  // measure 67
0010
0000
0100
0001
0000
0100
0001
0000
,  // measure 68
1000
0100
0010
0001
,  // measure 69
1000
0000
0001
0100
0000
0001
0100
0000
,  // measure 70
0010
0000
1000
0000
0001
0000
0010
0001
,  // measure 71
0010
0000
0001
1000
0000
1000
0001
0000
,  // measure 72
0200
0000
0310
0000
0010
1000
0010
0000
,  // measure 73
0100
0100
0100
0100
,  // measure 74
0010
0000
0010
0000
0010
0000
0010
1000
,  // measure 75
0001
0001
0001
0001
,  // measure 76
1000
0000
1000
0000
1000
0000
1000
0001
,  // measure 77
0010
0010
0010
0010
,  // measure 78
0100
0000
0100
0000
0100
0000
0100
0010
,  // measure 79
0001
0001
0001
0001
,  // measure 80
1000
0010
0000
0000
;

//---------------dance-single - ----------------
#NOTES:
     dance-single:
     :
     Easy:
     3:
     0.212,0.267,0.030,0.187,0.000:
0000
0000
0000
0000
,
0000
0000
0000
0000
,
0000
0000
0000
0000
,
0000
0000
0000
0000
,
0000
0000
0000
0000
,
0000
0000
0000
0000
,
0000
0000
0000
0000
,
0000
0000
0000
1000
,
0020
0000
1030
0001
,
0100
0000
0010
0000
,
2000
0000
3001
0010
,
0100
0000
0010
0000
,
0002
0000
2003
0000
,
3002
0000
0013
0000
,
0200
0000
0310
0001
,
2000
0000
3010
0100
,
0001
0000
0000
1000
0000
0000
0010
0000
,
0010
0000
0000
0010
0000
0000
0100
0000
,
0001
0000
0000
1000
0000
0000
0100
0000
,
1000
0001
0100
0000
,
0010
0000
0000
0000
,
1000
0000
0000
0000
,
0001
0000
0010
0000
,
0001
0000
1000
0100
,
0010
0000
0000
0000
,
0010
0000
0000
0000
,
0100
0000
0000
0000
,
1000
0000
0001
0010
,
0001
0000
0000
0000
,
1000
0000
0000
0000
,
0010
0000
1000
0000
,
0001
0000
0010
0001
,
1000
0000
0000
0000
,
1000
0000
0000
0000
,
0010
0000
0010
0000
,
1000
0001
0010
0001
,
1000
0000
0010
0000
,
0100
0001
0100
0000
,
0010
0000
1000
0000
,
0001
0010
0100
0000
,
0020
0000
0031
1000
,
0100
0000
1000
0000
,
0020
0000
0130
0001
,
0010
0000
0001
0000
,
2000
0000
3002
0000
,
0203
0000
0310
0000
,
2000
0000
3001
0010
,
0002
0000
0103
0000
,
0020
0000
1030
0001
,
0100
0000
0010
0000
,
2000
0000
3100
1000
,
0010
0000
0100
0000
,
0002
0000
2003
0000
,
3020
0000
1030
0001
,
0010
0000
0000
0001
0000
0000
1000
0000
,
1000
0000
0010
0000
,
0100
0010
1000
0001
,
0010
0000
0010
0000
,
0010
0001
1000
0010
,
0100
0000
0100
0000
,
0020
0000
2030
0000
,
3002
0000
0013
0000
,
0001
0000
1000
0010
,
0100
0000
0010
1000
,
0001
0010
0100
1000
,
0001
0000
0100
0000
,
0010
0100
0001
1000
,
0100
0000
1000
0000
,
0002
0000
0023
0000
,
0230
0000
0310
0001
,
1000
0000
0000
0010
0000
0000
0100
0000
,
0001
0000
0001
1000
,
0100
0000
1000
0000
,
0001
0000
1001
0000
,
1000
0000
0010
0000
,
0100
0000
1001
0000
,
0010
0000
1000
0000
,
0001
0000
1100
0000
,
0010
0000
0000
0000
,
1001
0000
0000
0000
;

//---------------dance-single - ----------------
#NOTES:
     dance-single:
     :
     Beginner:
     1:
     0.100,0.178,0.060,0.000,0.000:
0000
0000
0000
0000
,
0000
0000
0000
0000
,
0000
0000
0000
0000
,
0000
0000
0000
0000
,
0000
0000
0000
0000
,
0000
0000
0000
0000
,
0000
0000
0000
0000
,
0000
0000
0000
0000
,
0001
0000
0000
0000
,
1000
0000
0000
0000
,
0001
0000
0000
0000
,
1000
0000
0000
0000
,
0010
0000
1000
0000
,
0010
0000
0000
0000
,
0100
0000
0010
0000
,
0100
0000
0000
0000
,
0010
0000
0000
0000
,
0001
0000
0000
0000
,
1001
0000
0000
0000
,
0010
0000
0000
0000
,
0100
0000
0000
0000
,
0100
0000
0000
0000
,
1000
0000
0000
0000
,
1000
0000
0001
0000
,
1000
0000
0000
0000
,
0001
0000
0000
0000
,
0100
0000
0000
0000
,
1001
0000
0000
0000
,
0010
0000
0000
0000
,
1000
0000
0000
0000
,
1000
0000
0000
0000
,
0001
0000
1000
0000
,
0000
0001
0000
0000
,
0100
0000
0000
0000
,
0010
0000
0000
0000
,
1000
0000
0000
0000
,
0001
0001
0001
0000
,
1000
0000
1000
0000
,
1000
1000
1000
0000
,
0001
0000
0001
0000
,
0100
0000
0000
0000
,
0010
0000
0000
0000
,
1000
0000
0000
0000
,
0001
0000
0000
0000
,
0010
0000
0000
0000
,
0010
0000
0000
0000
,
0100
0000
1000
0000
,
0100
0000
0010
0000
,
0001
0000
0000
0000
,
1000
0000
0000
0000
,
0010
0000
0000
0000
,
0100
0000
0000
0000
,
0010
0000
0000
0000
,
0010
0000
0000
0000
,
1000
0000
0001
0000
,
0100
0000
0000
0000
,
1001
0000
0000
0000
,
0001
0000
0000
0000
,
0010
0000
0000
0000
,
0100
0000
0000
0000
,
0010
0000
0000
0000
,
0010
0000
0000
0000
,
0001
0000
1000
0000
,
0010
0000
0100
0000
,
0001
0000
0000
0000
,
1000
0000
0000
0000
,
0100
0000
0000
0000
,
0010
0000
0000
0000
,
0001
0000
0000
0000
,
0001
0000
0000
0000
,
1000
0000
0010
0000
,
0100
0000
0000
0000
,
1001
0000
0000
0000
,
0000
0000
0000
0000
,
1001
0000
0000
0000
,
0000
0000
0000
0000
,
1001
0000
0000
0000
,
0000
0000
0000
0000
,
1001
0000
0000
0000
,
1001
0000
0000
0000
;

//---------------dance-double - ----------------
#NOTES:
     dance-double:
     :
     Hard:
     9:
     0.644,0.750,0.382,0.240,0.184:
00000000
00000000
00000000
00000000
,
00000000
00000000
00000000
00000000
,
00000000
00000000
00000000
00000000
,
00000000
00000000
00000000
00000000
,
00000002
00000000
00000203
00000000
,
00000320
00000000
00000000
00000000
00000000
00000000
00000000
00000000
00002030
00000000
00000000
00000000
00003200
00000000
00000000
00000300
,
00020000
00000000
00000000
00001000
00000000
00030000
00011000
00000000
,
02002000
00000000
00000000
00000000
03003000
00000000
01000000
00100000
,
20000000
00000000
00000000
32000000
00000000
00000000
23000000
00000000
,
30020000
00000000
00000000
00030000
,
02000000
00000000
00000000
03002000
00000000
00000000
00023000
00000000
,
00030200
00000000
00000000
00000300
,
00000020
00000000
00000032
00000000
,
00002003
00000000
00003010
00000010
,
00000020
00000000
00000000
00002030
00000000
00000000
00003200
00000000
,
00020300
00000000
00000000
00030000
00011000
00000000
00101000
00000000
,
01001000
00000000
00001000
00010000
00001000
00010000
00001000
00000000
00000000
00000000
01000000
00100000
01000000
00100000
01000000
00000000
,
00010000
00000000
00100000
00010000
00100000
00010000
00100000
00000000
00000000
00000000
00010000
00001000
00020000
00000000
00000000
00000000
,
00031000
00000000
00000010
00000001
00000010
00000001
00000010
00000000
00000000
00000000
00000001
00001000
00000001
00001000
00000001
00000000
,
00001001
00000000
00000000
00000110
00000000
00000000
00001010
00000000
00000101
00000000
00000000
00000000
00000000
00000000
00000000
00000000
,
00000001
00000100
00000010
00001000
00000100
00010000
00001000
00100000
,
00010000
01000000
00100000
10000000
00000000
10000000
00010000
00100000
,
00010000
00000000
01000000
00100000
00000000
10000000
01000000
00100000
,
00000000
00010000
01000000
00000000
00100000
10000000
00000000
00010000
,
01000000
00000000
00001000
00010000
00001000
00000010
00000001
00000100
,
00000000
00000010
00001000
00000000
00001001
00000000
00000001
00000100
,
00001000
00000101
00001001
00001100
,
00010100
00000000
00010000
00001000
00100000
00010000
01000000
00000000
,
01010000
00000000
10000000
00010000
01000000
00000000
00001000
00010000
,
00000000
00000010
00000000
00000100
00000000
00000000
00001010
00000000
,
00001001
00000000
00001000
00000010
00010000
00000000
00001000
00100000
,
00010000
00000000
01000000
00010000
00100000
01000000
00000000
10000000
,
00100000
00000000
01000000
00010000
00100000
00001000
00010000
00000010
,
00000000
00000100
00000010
00001000
00000001
00000000
00000100
00000010
,
00001000
00000000
00000100
00000010
00000000
00001000
00000100
00000000
,
00011000
00000000
00001000
00100000
00000000
00010000
01000000
00000000
,
01000000
00010000
00100000
00001000
00000000
00010000
00000010
00000100
,
00000001
00000010
00001000
00000010
00000000
00000001
00000100
00000000
,
00000010
00010000
00001000
00000010
00000000
00001000
00010000
00000100
,
00011000
00000000
00000000
00010010
00000000
00000000
00011000
00000000
00101000
00000000
00000000
00000000
00100000
00000000
00010000
00000000
,
01000000
00100000
10000000
01000000
00010000
01000000
00100000
00010000
,
01000000
00000000
00001000
00000000
00010000
00000000
00011000
00000000
00010000
00000000
00000010
00001000
00000010
00001000
00000010
00000000
,
00000100
00000001
00000010
00000100
00001000
00000010
00000001
00000010
,
00000100
00000000
00000001
00000000
00001000
00000000
00001100
00000000
00000100
00000000
00010000
00001000
00010000
00001000
00010000
00000000
,
00002000
00100000
00100000
00103000
00020000
01000000
01000000
01030000
,
00100000
00000000
10000000
00000000
01000000
00000000
11000000
00000000
10000000
00000000
00010000
01000000
00010000
01000000
00010000
00000000
,
00100000
00001000
00010000
00001000
01000000
00010000
00100000
01000000
,
00010000
00000000
01010000
00000000
01000000
00000000
00100000
00000000
00010000
00000000
01000000
00001000
01000000
00001000
00010000
00000100
,
00001000
00000010
00000100
00000001
00000010
00001000
00000010
00000100
,
00001000
00000000
00000010
00000000
00010000
00000000
00011000
00000000
00001000
00000000
01000000
00010000
01000000
00010000
01000000
00000000
,
00100000
10000000
01000000
00100000
00010000
01000000
00001000
00010000
,
00000010
00000000
00000100
00000000
00000001
00000000
00001100
00000000
00001000
00000000
00000010
00000100
00000010
00000100
00000010
00000000
,
00002000
00000100
00000100
00003100
00000020
00000001
00000001
00000031
,
00000100
00000000
00000010
00000000
00001000
00000000
00001100
00000000
00000100
00000000
00010000
00001000
00010000
00001000
00010000
00000000
,
00000100
00001000
00000010
00000100
00000001
00001000
00000100
00010000
,
00002000
01000000
00100000
00013000
,
00011000
00001000
01000000
01010000
00010000
10000000
11000000
01000000
,
00100000
00000000
00010000
00000000
01000000
00000000
00001000
00000000
00010000
00000000
00000010
00010000
00000010
00010000
00000010
00000000
,
00001010
00001000
00000001
00000011
00000010
00000100
00001100
00001000
,
00000010
00000000
00000100
00000000
00000001
00000000
00001000
00000000
00000100
00000000
00010000
00001000
00010000
00001000
00010000
00000000
,
00002000
00010000
01000000
00013000
00020000
00001000
00000010
00031000
,
00011000
00000000
00001000
00000000
00100000
00000000
00010000
00000000
01000000
00000000
00100000
10000000
00100000
10000000
00100000
00000000
,
10100000
10000000
00010000
00110000
00100000
00001000
00011000
00010100
,
00001100
00000000
00000000
00000000
00001001
00000000
00000000
00000000
00000001
00000100
00000001
00001000
00000100
00010000
00000100
00000000
,
00010100
00010000
00001000
00101000
00100000
00010000
01010000
01000000
,
00100000
00000000
10000000
00000000
00010000
00000000
00100000
00000000
00001000
00000000
00010000
00000100
00010000
00000100
00010000
00000000
,
00010100
00000100
00001000
00001010
00000010
00000100
00000101
00000001
,
00001000
00000000
00000100
00000000
00000010
00000000
00000001
00000000
00001000
00000000
00000100
00010000
00000100
00010000
00000100
00000000
,
00001000
00000010
00000100
00000100
00000010
00001000
00000100
00010000
,
00100000
00000000
00000000
00000000
10000000
00000000
00000000
00000000
01000000
00100000
00010000
00000000
01000000
00100000
10000000
00000000
,
00010000
00010000
01000000
00001000
00000000
00010000
00001000
00000000
,
00011000
00010000
00010010
00001001
,
00000001
00001000
00000100
00001000
00000010
00010000
00001000
01000000
,
00100000
00010000
00100000
10000000
01000000
00100000
00010000
00000000
,
10000000
01000000
00100000
00010000
01000000
00010000
00100000
00001000
,
00000010
00000001
00000100
00001000
00000100
00000010
00001000
00000000
,
00000100
00000010
00000001
00000100
00001000
00000100
00000010
00001000
,
00000100
00010000
00100000
10000000
00100000
01000000
00010000
00000000
,
00100000
00000000
01000000
10000000
01000000
10000000
01000000
00000000
00100000
00010000
00100000
00000000
01000000
10000000
01000000
00000000
,
00100000
00000000
00010000
01000000
00001000
00010000
00002000
00000000
00000000
00000000
00000000
00000000
00000000
00000000
00000000
00000000
,
00003000
00000000
00000000
00000000
;

//---------------dance-double - ----------------
#NOTES:
     dance-double:
     :
     Medium:
     6:
     0.380,0.360,0.052,0.495,0.000:
00000000
00000000
00000000
00000000
,
00000000
00000000
00000000
00000000
,
00000000
00000000
00000000
00000000
,
00000000
00000000
00000000
00000000
,
00000020
00000000
00002030
00000000
,
00003200
00000000
00000000
00010300
,
00002000
00000000
00000000
02003000
00000000
00000000
03020000
00000000
,
00200000
00000000
00000000
00000000
00330000
00000000
01000000
10000000
,
02000000
00000000
00000000
23000000
00000000
00000000
30100000
00000000
,
02000000
00000000
00000000
03000000
,
00020000
00000000
00000000
00230000
00000000
00000000
00301000
00000000
,
00020000
00000000
00000000
00030000
,
00000200
00000000
00002300
00000000
,
00003020
00000000
00000000
00000130
,
00000002
00000000
00000000
00002003
00000000
00000000
00003100
00000000
,
00020000
00000000
00031000
01000000
,
00010000
00100000
00010000
00000000
00000000
10000000
01000000
00000000
,
10000000
00100000
10000000
00000000
01000000
00000000
10010000
00000000
,
01000000
00010000
01000000
00000000
00000000
00010000
00100000
00000000
,
00001000
00010000
00001000
00000000
00011000
00000000
00000000
00000000
,
00010000
00000000
00000100
00001000
00000000
00000010
00000000
00000100
,
00000000
00000000
00000001
00001000
00000000
00000000
00000100
00000000
,
00010000
00000000
00000100
00001000
00000000
00000010
00000000
00000100
,
00000000
00000000
00000001
00000000
00001000
00000000
00000100
00010000
,
00000000
00000000
00001000
00010000
00001000
00000000
01000000
00000000
,
00010000
00000000
00100000
00000000
01000000
00000000
10000000
00020000
,
00000000
01000000
01030000
00100000
,
20000000
00000000
30000000
01100000
,
01000000
00000000
00001000
00000000
00010000
00000000
00000100
00001000
,
00000000
00000010
00000000
00000100
00000000
00000000
00000001
00000100
,
00000001
00000000
00001000
00000100
00010000
00000000
00001000
00000000
,
00010000
00000000
00000100
00000000
00001000
00000000
00000010
00000100
,
00000000
00000000
00000001
00001000
00000001
00000000
00000100
00000010
,
00000000
00001000
00000100
00000000
00010000
00000000
00001000
00020000
,
00000000
00000000
00000000
00030000
00001000
00000000
00010000
00000000
,
00001000
01000000
00010000
01010000
,
00200000
10300000
02000000
03010000
,
00100000
00010000
00100000
00000000
,
02000000
13000000
00020000
00130000
,
01000000
10000000
10010000
01000000
,
00002000
00013000
00020000
00030100
,
00002000
00000000
00003010
00000010
,
00000200
00000301
00002000
00003010
,
00000200
00000000
00000301
00000001
,
00002000
00000000
00000000
00003100
00020000
00000000
00000000
00031000
,
02000000
00000000
03010000
00010000
,
20000000
00000000
00000000
32000000
00000000
00000000
03100000
00000000
,
00020000
00000000
00000000
00000000
00030000
00000000
01000000
00010000
,
00200000
00301000
00020000
00030100
,
00002000
00000010
00000010
00003010
,
00000020
00000130
00000002
00001003
,
00000200
00010000
00010000
00010300
,
00002000
00000000
00003000
01000000
00020000
00000000
00030000
01000000
,
00200000
00000000
00300000
10000000
,
00010000
00000000
01000000
00100000
00000000
00000000
10000000
00000000
,
02000000
00000000
03100000
00010000
,
02000000
00000000
03000000
00100000
20000000
00000000
31000000
00100000
,
02000000
00000000
13000000
00010000
,
02000000
00000000
03000000
00001000
00020000
00000000
00030100
00001000
,
00000200
00000000
00001300
00000010
,
00000200
00000000
00000000
00000301
00002000
00000000
00000000
00003100
,
00000020
00000000
00000001
00000031
,
00001000
00000000
00000100
00010000
00000000
00000000
00001000
00000000
,
00010000
00000000
00001000
01000000
,
00200000
01300000
00020000
10030000
,
02000000
00000000
00100000
03100000
,
00002000
00013000
00020000
00030100
,
00002000
00000000
00000010
00003010
,
00000100
00000000
00000001
00001000
00000000
00000001
00000100
00000000
,
00000020
00000000
00001000
00001030
,
00000100
00000000
00010000
00001000
00000000
00000000
00100000
00000000
,
00020000
00000000
01030000
00100000
,
10000000
00010000
10000000
00000000
01000000
00000000
00100000
00000000
,
01000000
00010000
01000000
00000000
00100000
00000000
10010000
00000000
,
01000000
00001000
00010000
00000000
00000100
00000000
00001000
00000000
,
00000010
00000100
00000010
00000000
00001000
00000000
00000110
00000000
,
00000001
00000100
00000001
00000000
00001000
00000000
00000100
00000000
,
00010000
00001000
00010000
00000000
00001000
00000000
01000000
00000000
,
00010000
00100000
00010000
00000000
10000000
00000000
01000000
00000000
,
10000000
01000000
10000000
00200000
00000000
00000000
00000000
00000000
,
00300000
00000000
00000000
00000000
;

//---------------dance-double - ----------------
#NOTES:
     dance-double:
     :
     Easy:
     4:
     0.269,0.297,0.060,0.232,0.000:
00000000
00000000
00000000
00000000
,
00000000
00000000
00000000
00000000
,
00000000
00000000
00000000
00000000
,
00000000
00000000
00000000
00000000
,
10000000
00000000
00100000
00000000
,
01000000
00000000
00010000
00010000
,
00100000
00000000
00001000
00000000
,
00020000
00000000
00030000
00001000
,
00011000
00000000
00000100
00000000
,
00001000
00000000
00000010
00000010
,
00000100
00000000
00000001
00000000
,
00002000
00000000
00003001
00000001
,
00000200
00000000
00000320
00000000
,
00002030
00000000
00003000
00000100
,
00020000
00000000
00032000
00000000
,
01003000
00010000
00000000
00100000
,
01000000
10000000
10000000
00010000
,
01000000
00010000
00100000
00110000
,
00100000
00001000
00010000
00000100
,
00001000
00000010
00001010
00000000
,
00000100
00000010
00000000
00001000
,
00000100
00010000
00000000
00001000
,
00100000
00000000
00010000
00000000
,
01000000
00100000
10000000
00100000
,
01000000
00000000
00010000
00000000
,
00100000
00001000
00010000
00000100
,
00001000
00000000
00000010
00000000
,
00000100
00000000
00000001
00001000
,
00000100
00010000
00000000
00001000
,
00000000
01000000
00000000
00000000
,
00010000
10000000
01000000
00100000
,
01000000
00000000
10000000
00000000
,
00010000
01000000
00001000
00010000
,
00000100
00000000
00001000
00000000
,
00000010
00000000
00000100
00000001
,
00001000
00000000
00000100
00000000
,
00011000
00000000
00011000
00000000
,
00001000
01000000
00010000
00000000
,
10010000
00000000
10010000
00000000
,
01000000
00100000
01000000
00010000
,
00200000
00001000
00301000
00010000
,
00000200
00000000
00000300
00001000
,
00000020
00010000
00010030
00001000
,
02000000
00000000
03000000
00010000
,
00100000
00000000
01000000
10000000
,
01000000
00000000
10000000
00000000
,
00010000
00000000
00100000
00000000
,
00110000
00000000
01000000
00010000
,
02000000
00001000
03001000
00010000
,
00000200
00000000
00000300
00001000
,
00000020
00000100
00000130
00000001
,
00002000
00000000
00003000
00000000
,
00000100
00000010
00000001
00000010
,
00000200
00000000
00000300
00001000
,
00000100
00010000
00001000
01000000
,
00010000
00000000
10000000
00100000
,
02000000
00100000
00010000
03100000
,
00002000
00000000
00003000
00010000
,
00000200
00001000
00000010
00001300
,
00000002
00000000
00000003
00000000
,
00000100
00000010
00001000
00000100
,
00020000
00000000
00030000
00001000
,
01000000
00010000
00100000
01000000
,
20000000
00000000
30010000
00010000
,
02000000
00100000
03010000
00200000
,
01000000
00000000
10300000
00000000
,
00020000
01000000
00130000
02000000
,
00001000
00000000
03010000
00000000
,
00100000
00001000
00010000
00000000
,
00000100
00000000
00001000
00000000
,
00000010
00000100
00000001
00000100
,
00000001
00000000
00001000
00000100
,
00020000
00000000
00031000
00010000
,
00000200
00000000
00001300
00000000
,
00000020
00000000
00000130
00000001
,
00000100
00000000
00000001
00000000
,
00002000
00000000
00003100
00010000
,
00001000
00000000
00010000
00000000
,
00002000
00000000
01003000
00010000
,
00100000
00001000
00000000
00000000
;
