#TITLE:My Only Shining Star;
#SUBTITLE:(PureFocus Remix);
#ARTIST:NAOKI feat. Becky Lucinda;
#TITLETRANSLIT:;
#SUBTITLETRANSLIT:;
#ARTISTTRANSLIT:;
#GENRE:;
#CREDIT:;
#MENUCOLOR:;
#METERTYPE:DDR;
#BANNER:My Only Shining Star (PureFocus Remix)-bn.png;
#BACKGROUND:My Only Shining Star (PureFocus Remix)-bg.png;
#LYRICSPATH:;
#CDTITLE:ddrencorecdtitle.png;
#MUSIC:My Only Shining Star (PureFocus Remix).mp3;
#OFFSET:1.832;
#SAMPLESTART:58.200;
#SAMPLELENGTH:12.000;
#SELECTABLE:YES;
#LISTSORT:;
#BPMS:0.000=128.000;
#STOPS:;
#BGCHANGES:;
#ATTACKS:;

//---------------dance-single - ----------------
#NOTES:
     dance-single:
     :
     Hard:
     7:
     0.470,0.483,0.146,0.232,0.034: // measure 1
0000
0000
0000
0000
,  // measure 2
2000
0001
0000
0001
0000
0100
0000
3100
,  // measure 3
0000
0020
0000
0100
0000
0100
0000
1030
,  // measure 4
0000
2000
0000
0100
0000
0001
0000
3010
,  // measure 5
0000
0200
0000
0001
0000
0010
0000
1300
,  // measure 6
0000
0020
0000
0100
0000
1000
0000
0130
,  // measure 7
0000
2000
0000
0100
0000
0010
0000
3100
,  // measure 8
0000
0002
0000
0100
0000
0010
0000
1003
,  // measure 9
0000
0000
0000
0000
0000
0000
1000
0010
,  // measure 10
0200
0000
0301
0100
0000
0010
0000
2000
,  // measure 11
0000
3100
0010
0000
0000
0000
0001
0100
,  // measure 12
0020
0000
1030
0100
0000
0001
0000
0200
,  // measure 13
0000
0000
0000
0300
0000
0010
0100
1000
,  // measure 14
0100
0000
0001
0200
0000
1300
0000
0010
,  // measure 15
0000
0100
0001
0000
0000
0000
1000
0100
,  // measure 16
1100
0000
0010
0101
0000
1001
0000
0000
,  // measure 17
0110
0000
0000
0000
,  // measure 18
1000
0100
1000
0010
0000
0000
0100
0001
,  // measure 19
0100
0010
1000
0100
1000
0001
0100
0001
,  // measure 20
1000
0010
0100
0001
0000
1000
0010
1000
,  // measure 21
0000
0001
0100
0001
0000
0010
0100
0010
,  // measure 22
0000
1000
0100
1000
0100
0000
0010
0001
,  // measure 23
0010
0100
1000
0100
1000
0000
0010
0100
,  // measure 24
0001
1000
0100
0010
0100
0000
0010
0001
,  // measure 25
0010
0100
1000
0001
0100
0001
1000
0000
,  // measure 26
0020
0000
0130
0000
0001
1000
0100
0010
,  // measure 27
0001
0000
0000
0000
0001
0000
1000
0100
0010
0000
0000
0001
0000
0000
0100
0000
,  // measure 28
0020
0000
1030
0000
0100
0010
0001
0010
,  // measure 29
0100
0000
0010
0001
0100
0010
0100
0100
,  // measure 30
0002
0000
1003
0000
0010
0100
0010
1000
,  // measure 31
0100
0000
0000
0000
1000
0000
0010
0100
0001
0000
0000
1000
0000
0000
0100
0000
,  // measure 32
1000
0000
0010
0100
0000
0001
0000
0000
,  // measure 33
0200
0000
0000
0000
0000
0300
0000
0000
,  // measure 34
1001
0000
1100
0000
0110
0001
0100
0010
,  // measure 35
1000
0000
0000
0000
0001
0000
0010
0100
1000
0000
0000
0100
0000
0000
0010
0000
,  // measure 36
0001
0101
0010
1100
,  // measure 37
0010
1000
0010
0100
0001
0100
0010
1000
,  // measure 38
0001
0100
1000
0100
,  // measure 39
0001
0000
0000
0000
0010
0000
0100
1000
0001
0000
0000
0100
0000
0000
0010
0000
,  // measure 40
1000
0001
0100
0010
,  // measure 41
1000
0100
1000
0000
0001
0100
0001
0000
,  // measure 42
1000
0100
0001
0000
1000
0100
0001
0000
,  // measure 43
1000
0100
0001
0100
0001
0100
1000
0000
,  // measure 44
0010
0100
0001
0000
0010
0100
0001
0000
,  // measure 45
0010
0100
0001
1000
0100
0010
0100
0000
,  // measure 46
1000
0001
0100
0000
0001
1000
0100
0000
,  // measure 47
0010
0100
1000
0001
0010
0100
1000
0000
,  // measure 48
1000
0100
0010
0000
0001
0100
0010
0000
,  // measure 49
1000
0100
0010
0001
0100
0010
1000
0000
,  // measure 50
0001
0010
0100
1000
0100
0010
0001
0100
,  // measure 51
1000
0100
0001
0010
0100
0010
0001
1000
,  // measure 52
0100
0010
0001
1000
0001
1000
0100
0000
,  // measure 53
1000
0001
0100
0000
0001
1000
0100
0000
,  // measure 54
0010
0100
0001
0100
0010
0100
0001
0100
,  // measure 55
0020
0230
0302
2003
,  // measure 56
3100
0010
0100
1000
0100
0010
0100
1000
,  // measure 57
0002
2003
3200
0320
,  // measure 58
0031
1000
0001
0100
0001
1000
0001
0000
,  // measure 59
1100
1001
0101
0110
,  // measure 60
0001
0010
0100
1000
0001
0010
0100
1000
,  // measure 61
0101
1100
0110
1001
,  // measure 62
0200
1000
2300
0001
,  // measure 63
0002
0000
3003
0000
;

//---------------dance-single - ----------------
#NOTES:
     dance-single:
     :
     Beginner:
     1:
     0.146,0.160,0.086,0.000,0.000:
0000
0000
0000
0000
,
1000
0000
0000
0000
,
0001
0000
0000
0000
,
0100
0000
0000
0000
,
0100
0000
0000
0000
,
0001
0000
0000
0000
,
1000
0000
0000
0000
,
0010
0000
0000
0000
,
0010
0000
0000
0100
,
0100
0000
0001
0000
,
1000
0000
0000
0001
,
0001
0000
0010
0000
,
0100
0000
0000
1000
,
1000
0000
0100
0000
,
0010
0000
0000
0001
,
0001
0000
1000
0000
,
1001
0000
0000
0010
,
0010
0000
0000
0000
,
0100
0000
0000
0001
,
0001
0000
0000
0000
,
1000
0000
0000
0100
,
0100
0000
0000
0000
,
0010
0000
0000
0001
,
0001
0000
1000
0000
,
0010
0000
0000
0000
,
0110
0000
0001
0000
,
1000
0000
0100
0000
,
1001
0000
0100
0000
,
0001
0000
0100
0000
,
0110
0000
1000
0000
,
0100
0000
1000
0000
,
1001
0000
0100
0000
,
0001
0000
0000
0000
,
0010
0010
0010
0000
,
1000
0000
0001
0000
,
0100
0100
0100
0000
,
0001
0000
0001
0000
,
1000
1000
1000
0000
,
0010
0000
0100
0000
,
0001
0001
0001
0000
,
1000
0000
0000
0000
,
1001
0000
0100
0000
,
0010
0010
0010
0000
,
0001
0000
0000
0000
,
1000
0000
0000
0000
,
0110
0000
1000
0000
,
0001
0001
0001
0000
,
0010
0000
0000
0000
,
0100
0000
0000
0000
,
1000
0000
0001
0000
,
0100
0000
0001
0000
,
1000
0000
0010
0000
,
0100
0000
0001
0000
,
1000
0000
0001
0000
,
0100
0000
0001
0000
,
1000
0000
0010
0000
,
1000
0000
0000
0000
,
1001
0000
0000
0100
,
0100
0000
0000
0000
,
1001
0000
0000
0010
,
0010
0000
0000
0000
,
1001
0000
0000
0001
,
0001
0000
0000
0000
;

//---------------dance-single - ----------------
#NOTES:
     dance-single:
     :
     Easy:
     3:
     0.202,0.213,0.051,0.120,0.000:
0000
0000
0000
0000
,
0020
0000
0000
0000
,
0000
0000
0000
0030
,
0200
0000
0000
0000
,
0000
0000
0000
0301
,
0002
0000
0000
0000
,
0000
0000
0000
0003
,
2000
0000
0000
0000
,
0000
0000
0000
3100
,
0010
0000
0001
0100
,
0001
0000
0000
1000
,
0010
0000
0100
0001
,
0100
0000
0000
0010
,
1000
0000
0001
1000
,
0001
0000
0000
0100
,
0010
0000
0001
0000
,
1001
0000
0000
0100
,
2000
0001
0000
3001
,
0100
0000
0010
0000
,
0002
1000
0000
0103
,
0010
0000
1000
0000
,
0020
1000
0000
0130
,
0001
0000
1000
0000
,
0002
0010
0000
1003
,
0200
0000
0000
0300
,
1001
0000
0100
1000
,
0100
0000
0010
0010
,
0001
0000
0100
0001
,
0100
0000
0010
1000
,
0010
0000
0100
0100
,
0100
0000
0001
0010
,
0001
0000
0100
0010
,
0200
0000
0000
0300
,
0001
1000
0100
1000
,
0100
0000
0010
0000
,
0100
0001
0010
0001
,
1000
0000
0100
0000
,
0010
0001
1000
0100
,
1000
0000
0001
0000
,
0100
0010
1000
0001
,
1000
0000
0010
0000
,
0210
0001
0000
0301
,
0000
1000
0000
0100
,
2000
0001
0000
3010
,
0000
0000
0000
0010
,
0020
0100
0000
0130
,
0000
0001
0000
1000
,
0200
0010
0000
0310
,
0000
0001
0000
0100
,
0001
0100
1000
0100
,
0001
0000
1000
0000
,
0001
0010
1000
0010
,
0001
0000
1000
0000
,
0010
1000
0100
1000
,
0010
0000
0100
0000
,
0010
0001
0100
0001
,
0010
0000
0100
0000
,
1001
0000
0010
0100
,
0100
0000
0000
0000
,
1001
0000
0100
0010
,
0010
0000
0000
0000
,
1001
0000
0010
0100
,
0100
0000
0000
0000
;

//---------------dance-single - ----------------
#NOTES:
     dance-single:
     :
     Medium:
     5:
     0.286,0.319,0.034,0.103,0.000:
0000
0000
0000
0000
,
0000
0000
0000
0000
,
0010
1000
0100
0000
,
0010
0001
0100
0000
,
0001
1000
0100
0000
,
1000
0001
0100
0000
,
0010
1000
0100
0000
,
1000
0001
0100
0000
,
0020
0000
0000
0030
,
1000
0000
0001
0100
0000
0001
0000
2000
,
0000
3100
0000
0010
,
0001
0000
0100
0010
0000
1000
0000
0100
,
0000
0000
0000
1000
,
0001
0000
0100
0010
0000
1000
0000
0200
,
0000
0310
0000
0001
,
0100
0000
0010
0100
0000
0001
0000
0000
,
1001
0000
0000
0100
,
1000
0000
0001
0100
0000
0010
0000
1000
,
0000
0001
0100
0000
0000
0000
0010
0000
,
0000
1000
0000
0100
,
0000
1000
0000
0010
,
0100
0000
0001
1000
0000
0000
0100
1000
,
0000
0000
0010
0100
0000
0000
0001
0100
,
0000
0000
0010
0100
0000
0000
0001
0000
,
2002
0000
0000
0000
0000
0000
0000
3003
,
0100
0000
0100
0000
0010
0001
0010
0000
,
1000
0000
1000
0000
0001
0100
0001
0000
,
0100
0000
0100
0000
0010
1000
0010
0000
,
0100
0001
1000
1001
,
0010
0000
0010
0000
1000
0100
1000
0000
,
0001
0000
0001
0000
0100
0010
0100
0000
,
0010
0000
0100
0001
0000
1000
0000
0000
,
1001
0000
0000
0000
,
0010
0000
0100
0000
0001
0000
1000
0100
,
1000
0000
0001
0000
0100
0010
0100
0010
,
0100
0000
0001
0000
0010
0000
0100
0010
,
0100
0000
1000
0000
0001
0100
0001
0100
,
0001
1000
0100
0010
,
0001
0000
1000
0000
0010
0100
0010
0100
,
0010
0100
0001
1000
,
0020
0000
0000
0000
0000
0000
0000
0030
,
0100
0000
0000
0000
0001
0010
0001
0000
,
2000
0010
0000
3001
,
0010
0000
0000
0000
0100
1000
0100
0000
,
0020
0000
0000
0030
,
0001
0000
0000
0000
0100
0001
0100
0000
,
0002
1000
0000
0013
,
0100
0000
0000
0000
0001
1000
0001
0000
,
0200
0000
0000
0300
,
0010
0000
1000
0100
0000
0010
0000
0001
,
0000
0100
0000
0010
0000
0100
0000
0001
,
1000
0100
0010
0001
,
1000
0100
0010
0001
,
0100
0000
0010
0100
0000
0001
0000
1000
,
0000
0100
0000
1000
0000
0010
0000
0100
,
0001
0100
0010
1000
,
0001
0100
0010
1000
,
0001
0000
0100
0010
0100
0000
0001
0000
,
2000
0000
0000
3000
,
0100
0000
0010
0001
0010
0000
0100
0000
,
2000
0000
0000
0000
0000
0000
0000
3000
,
0010
0000
0100
0001
0100
0000
0010
0000
,
1000
0000
0000
0000
;

//---------------dance-double - ----------------
#NOTES:
     dance-double:
     :
     Easy:
     3:
     0.240,0.266,0.034,0.154,0.000:
00000000
00000000
00000000
00000000
,
20000000
00000000
00000000
30010000
,
02000000
00000000
00000000
03010000
,
00200000
00000000
00000000
00301000
,
00010000
00000100
00001000
00000010
,
00000200
00000000
00000000
00000301
,
00002000
00000000
00000000
00003100
,
00020000
00000000
00000000
00032000
,
00020000
00000000
00000000
00033000
,
00000100
00000000
00001000
00000000
,
00000010
00000100
00000001
00001000
,
00000100
00000000
00010000
00000000
,
00001000
01000000
00100000
00000000
,
01000000
00000000
00010000
00000000
,
10000000
01000000
10000000
00100000
,
01000000
00000000
00010000
00000000
,
00011000
00000000
00000000
00000000
,
00000100
00000000
00001000
00000000
,
00000010
00000000
00000100
00000001
,
00001000
00000000
00000100
00000000
,
00010000
00000000
00001000
00100000
,
00010000
00000000
01000000
00000000
,
00010000
00000000
10000000
01000000
,
10000000
00000000
00100000
00000000
,
02000000
00000000
00000000
03000000
,
01100000
00010000
10000000
01000000
,
00100000
00001000
00010000
00000100
,
00001000
00000010
00000100
00000001
,
00000010
00000000
00000100
00000000
,
00001000
00000001
00000100
00000010
,
00010000
00001000
00100000
00010000
,
01000000
00100000
10000000
01000000
,
20020000
00000000
00000000
30030000
,
01000000
00010000
01000000
00001000
,
00010000
00000000
00001000
00000000
,
00010000
00000100
00001000
00000100
,
00001000
00000000
00000010
00000100
,
00000001
00000000
00001000
00000000
,
00000100
00010000
00001000
01000000
,
00010000
00000000
00100000
00000000
,
01000000
10000000
00010000
00000000
,
01000000
00100000
10000000
01000000
,
10000000
00010000
01000000
00001000
,
00010000
00000100
00001000
00000010
,
00000100
00000000
00000000
00000000
,
00000001
00000010
00000100
00001000
,
00000100
00010000
00001000
01000000
,
00010000
00100000
01000000
10000000
,
00010000
00000000
00000000
00000000
,
20000000
01000000
00100000
30010000
,
01000000
00010000
00100000
00001000
,
00020000
00000100
00001000
00030100
,
00001000
00000010
00000100
00000001
,
00000200
00000010
00000001
00000310
,
00000001
00001000
00000100
00010000
,
00002000
00010000
01000000
00013000
,
01000000
00000000
00000000
00000000
,
00020000
00000000
10030000
00100000
,
01000000
00000000
00000000
00000000
,
00002000
00000000
00013000
00000100
,
00001000
00000000
00000020
00000000
,
00000130
00000001
00001000
00000000
,
00011000
00000000
00000000
00000000
;

//---------------dance-double - ----------------
#NOTES:
     dance-double:
     :
     Medium:
     5:
     0.329,0.373,0.112,0.146,0.000:
00000000
00000000
00000000
00000000
,
10000000
01000000
00000000
00100000
00000000
00010000
00000000
01000000
,
00000000
00001000
00000000
00010000
00000000
00000100
00000000
00001000
,
00000000
00000010
00000000
00000100
00000000
00000001
00000000
00001000
,
00000000
00000100
00000000
00010000
00000000
00001000
00000000
01000000
,
00010000
00100000
00000000
00010000
00000000
10000000
00000000
01000000
,
00000000
00100000
00000000
00010000
00000000
01000000
00000000
00100000
,
00000000
01000000
00000000
00001000
00000000
00010000
00000000
00022000
,
00000000
00000000
00000000
00033000
,
00000100
00000000
00001000
00000010
00000000
00000100
00000000
00000001
,
00000000
00001000
00000100
00000000
00000000
00000000
00000010
00000000
,
00000001
00000000
00001000
00000100
00000000
00010000
00000000
00001000
,
00000000
00000000
00000000
00000000
00000000
00010000
00001000
01000000
,
00100000
00000000
10000000
01000000
00000000
00100000
00000000
00010000
,
00000000
01000000
00001000
00000000
00000000
00000000
00010000
00001000
,
00010000
00000000
00000100
00001000
00000000
00000010
00000000
00000000
,
00002002
00000000
00000000
00003003
,
00000100
00000000
00010000
00001000
00000000
00010000
00000000
00001000
,
00000000
01000000
00100000
00000000
00000000
10000000
01000000
00000000
,
00000000
00100000
00010000
00000000
00000000
01000000
00100000
00000000
,
00000000
01000000
00001000
00000000
00000000
00010000
00001000
00000000
,
00000000
00010000
00000200
00000000
00000000
00000000
00001300
00000000
,
00000000
00000010
00000002
00000000
00000000
00000000
00000103
00000000
,
00000000
00000010
00001000
00000000
00000000
00000100
00010000
00000000
,
00022000
00000000
00000000
00033000
,
01000000
00010000
00100000
01000000
,
10000000
00000000
00010000
00000000
01000000
00000000
00100000
00010000
,
00100000
10000000
00010000
01000000
,
00001000
00000000
00010000
00000000
00000100
00001000
00000010
00000100
,
00000010
00001000
00000100
00000010
,
00000001
00000000
00001000
00000000
00000100
00000000
00000001
00000100
,
00000001
00000000
00001000
00000100
00000000
00010000
00000000
00000000
,
00022000
00000000
00000000
00033000
,
00001000
00100000
00010000
01000000
,
00100000
10000000
01000000
10000000
,
00010000
01000000
00100000
01000000
,
00001000
00010000
00000100
00001000
,
00000010
00000100
00000001
00001000
,
00000100
00001000
00000010
00010000
,
00001000
01000000
00010000
10000000
,
10100000
01010000
10010000
01100000
,
02000000
00000000
00000000
00000000
03010000
10000000
00010000
00000000
,
00100000
00000000
00001000
00000000
00000000
00010000
00001000
00000000
,
00010000
00010100
00001000
00001100
,
00001000
00001001
00000001
00000101
,
00000020
00000000
00000000
00000000
00000130
00000001
00000100
00000000
,
00000010
00000000
00001000
00000000
00000000
00000100
00010000
00000000
,
00001000
01000000
00001000
00000000
00010000
00000000
00100000
00000000
,
01000000
10000000
01000000
00000000
20000000
00000000
00000000
00000000
,
30100000
00000000
01000000
00000000
00010000
00000000
00100000
00001000
,
00100000
00000000
00001000
00000000
00010000
00000000
00000100
00001000
,
00000100
00001000
00000010
00000100
,
00000002
00001000
00001000
00001003
,
00000100
00000000
00010000
00000000
00001000
00000000
00100000
00010000
,
00100000
00000000
01000000
00000000
10000000
00000000
00010000
01000000
,
00020000
00100000
00100000
00130000
,
02000000
00000000
00000000
03000000
,
00100000
00000000
00000000
10000000
01000000
00000000
00100000
00010000
,
01000000
00000000
00000000
00000000
,
00011000
00000000
00000000
00000100
00001000
00000000
00000010
00001000
,
00000100
00000000
00000000
00000000
00000000
00020000
00000000
00000000
,
00031000
00000000
00000000
01000000
00100000
00000000
10000000
01000000
,
10000000
00000000
00000000
00000000
;

//---------------dance-double - ----------------
#NOTES:
     dance-double:
     :
     Hard:
     8:
     0.481,0.479,0.077,0.249,0.206:
00000000
00000000
00000000
00000000
,
00000000
00000000
00100000
00000000
00000000
01000000
00000000
00010000
00000000
00000000
00100000
00000000
00000000
01000000
00000000
10000000
,
00000000
00000000
00010000
00000000
00000000
01000000
00000000
00001000
00000000
00000000
00010000
00000000
00000000
00000100
00000000
00001000
,
00000000
00000000
00000010
00000000
00000000
00000100
00000000
00000001
00000000
00000000
00001000
00000000
00000000
00000010
00000000
00000001
,
00000000
00000000
00000010
00000000
00000000
00001000
00000000
00000100
00000000
00000000
00010000
00000000
00000000
01000000
00000000
10000000
,
00000000
00000000
00100000
00000000
00000000
01000000
00000000
00010000
00000000
00000000
10000000
00000000
00000000
01000000
00000000
00100000
,
00000000
00000000
00001000
00000000
00000000
00010000
00000000
00000100
00000000
00000000
00001000
00000000
00000000
00000010
00000000
00000100
,
00000000
00000000
00000001
00000000
00000000
00001000
00000000
00000100
00000000
00000000
00010000
00000000
00000000
00002000
00000000
02000000
,
00000000
00000000
00000000
00000000
03003000
00000000
00010000
00100000
,
01000000
00000000
10000000
00100000
00000000
01000000
00000000
00100000
,
00000000
00010000
00200000
00000000
00000000
00000000
01300000
00001000
,
00100000
00000000
00001000
00000100
00000000
00000001
00000000
00000200
,
00000000
00000000
00000000
00000000
00000300
00000010
00001000
00000100
,
00000001
00000000
00000100
00000010
00000000
00000001
00000000
00000100
,
00000000
00000010
00000001
00000000
00000000
00000000
00000001
00000010
,
00001000
00000000
00000100
00010000
00000000
00001000
00000000
00000000
,
00022000
00000000
00000000
00033000
,
00001000
01000000
00100000
00010000
00000000
00100000
10000000
01000000
,
10000000
00010000
01000000
00010000
00000000
10000000
01000000
10000000
,
00000000
00100000
01000000
00100000
00000000
01000000
00001000
01000000
,
00000000
00100000
00001000
00100000
00000000
00000100
00010000
00000100
,
00000000
00001000
00000010
00001000
00000100
00000010
00000001
00000100
,
00000010
00000100
00000001
00001000
00000100
00000010
00000001
00001000
,
00000100
00000010
00000100
00010000
00001000
01000000
00010000
00100000
,
02000000
00000000
00000000
03000000
,
10000000
00000000
00100000
00000000
01000000
00000000
00010000
10000000
00000000
10000000
00010000
00000000
01000000
00000000
00100000
00000000
,
10000000
00000000
01000000
00000000
00100000
00000000
00010000
01000000
00100000
00000000
00000000
00000000
00010000
00000000
00000000
00000000
,
00001000
00000100
00000010
00001000
00000100
00000010
00000001
00000100
,
00000020
00000000
00002030
00000000
00003100
00010000
00011000
00000000
,
00000100
00000000
00001000
00000000
00000010
00000000
00000100
00000001
00000000
00000001
00000100
00000000
00000010
00000000
00001000
00000000
,
00000100
00000000
00000010
00000000
00000001
00000000
00000100
00000010
00010000
00000000
00000000
00000000
00001000
00000000
00000000
00000000
,
01000000
00000000
00100000
10000000
00000000
01000000
00000000
00000000
,
02200000
00000000
00000000
03300000
,
10000000
00000000
00100000
00000000
01000000
00000000
00010000
00100000
00000000
00000000
01000000
00000000
10000000
00000000
00010000
01000000
,
00000000
00000000
00001000
00000000
00010000
00000000
00000100
00001000
00000000
00000000
00000010
00000000
00001000
00000000
00000000
00000000
,
00000001
00000000
00000100
00000000
00000010
00000000
00001000
00000100
00000000
00000000
00000010
00000000
00000001
00000000
00000100
00000010
,
00000000
00000000
00001000
00000000
00000100
00000000
00010000
00001000
00000000
00000000
00100000
00000000
00010000
00000000
00000000
00000000
,
01000000
00000000
00100000
00000000
10000000
00000000
01000000
00100000
00000000
00100000
00010000
00000000
01000000
00000000
00100000
10000000
,
00000000
10000000
01000000
00000000
00100000
00000000
00010000
01000000
00000000
01000000
00010000
00000000
00100000
00000000
00000000
00000000
,
00010000
00000000
01000000
00000000
00001000
00000000
00010000
00000100
00000000
00000100
00001000
00000000
00000010
00000000
00000100
00000000
,
00000002
00000203
00000320
00002030
,
00003100
00000000
00010100
00001000
01000000
00100000
10000000
01000000
,
00100000
00000000
00010000
00000000
01000000
00100000
10000000
00000000
,
00200000
00010000
02300000
03010000
,
00100000
00001000
00010000
00000100
,
00001000
00000010
00000100
00000001
00001000
00000100
00000001
00000100
,
00001000
00000000
00000010
00000000
00000100
00000001
00000010
00000000
,
00000200
00000001
00000320
00000031
,
00001000
00000100
00010100
00011000
,
01000000
00010000
00100000
01000000
10000000
00010000
01000000
00100000
,
01000000
00001000
00100000
00010000
01000000
00001000
00010000
00000000
,
00000200
00001300
00002000
00003010
,
00000020
00000130
00000200
00000301
,
00001000
00000100
00000010
00000001
00000010
00000100
00001000
00000001
,
00000100
00000010
00000100
00000001
00001000
00000100
00001000
00000000
,
00000200
00010300
00020000
00031000
,
00002000
02003000
03200000
20300000
,
30010000
00000000
01010000
00100000
10000000
01000000
10000000
00010000
,
00100000
00001000
00010000
00000100
,
00001000
00000000
00001010
00000001
00000010
00000100
00001000
00000100
,
00010000
00000000
00001000
00010000
00001000
00000000
01000000
00000000
,
00100000
00000000
11000000
00010000
00100000
01000000
10000000
01000000
,
10000000
00000000
00000000
00000000
;
