#TITLE:Monster;
#SUBTITLE:;
#ARTIST:Lady Gaga;
#TITLETRANSLIT:;
#SUBTITLETRANSLIT:;
#ARTISTTRANSLIT:;
#GENRE:;
#CREDIT:;
#MENUCOLOR:;
#METERTYPE:DDR;
#BANNER:Monster-bn.png;
#BACKGROUND:Monster-bg.png;
#LYRICSPATH:Monster-lrc.lrc;
#CDTITLE:ddrencorecdtitle.png;
#MUSIC:Monster.mp3;
#OFFSET:-0.248;
#SAMPLESTART:83.009;
#SAMPLELENGTH:12.000;
#SELECTABLE:YES;
#LISTSORT:;
#DISPLAYBPM:60.000:120.000;
#BPMS:0.000=60.000,8.000=120.000,148.000=60.000,148.500=960.000,151.500=60.003,152.000=120.000;
#STOPS:148.000=1.188
,148.500=0.469
,149.000=0.469
,149.500=0.469
,150.000=0.469
,150.500=0.469
,151.000=0.469
,151.500=0.813
;
#BGCHANGES:;
#ATTACKS:;

//---------------dance-single - ----------------
#NOTES:
     dance-single:
     :
     Hard:
     7:
     0.462,0.427,0.216,0.039,0.069:
0000
0000
0000
0000
,
0000
0000
0000
0000
,
1000
0010
1000
0010
1000
0010
1000
0010
,
0100
0001
0100
0001
0100
0001
0100
0001
,
1000
1000
1000
0010
0010
0010
0010
0010
,
0100
0100
0100
0010
1000
0001
0100
0001
,
1000
0000
0000
0000
1100
0000
0000
0000
0000
0001
0100
0000
0000
0000
0000
0000
,
1001
0000
0000
0000
0000
0000
0001
1000
0000
0010
0100
0000
0000
0000
0000
0000
,
0101
0000
0000
0000
1100
0000
0000
0000
0000
0001
0010
0000
0000
0000
0000
0000
,
1100
0000
0000
0000
0001
0000
0010
0100
0000
1000
0100
0000
1000
0000
0001
0000
,
1000
0000
0000
0000
1001
0000
0000
0000
0000
0001
1000
0000
0000
0000
0000
0000
,
0110
0000
0000
0000
0000
0000
0100
0010
0000
1000
0100
0000
0000
0000
0000
0000
,
0011
0000
0000
0000
1100
0000
0000
0000
0000
0001
0100
0000
0000
0000
0000
0000
,
0110
0000
0000
0000
0001
0000
1000
0100
0000
0010
0001
0000
0100
0000
0010
0000
,
1000
1010
0000
0011
0000
1010
0000
0000
,
0011
1000
0001
0100
1000
0000
0100
0000
,
0001
0010
0001
0010
1000
0010
1000
0010
,
0001
0100
0010
1000
0100
0000
1001
1000
,
0001
0001
1000
0000
0010
0100
0001
0000
,
1100
0100
1000
0001
0100
1000
0100
0001
,
1000
0010
0001
0010
0100
0100
0001
0100
,
1000
0100
0010
1000
0100
0010
1000
0010
,
0100
1000
0100
1000
0100
1000
0100
1000
,
0001
1000
0001
1000
0001
1000
0001
1000
,
0100
0100
0100
0010
0010
0010
0010
0010
,
1000
1000
1000
0010
0001
1000
0100
0001
,
0100
1000
0100
1000
0100
1000
0100
1000
,
0001
1000
0001
1000
0001
1000
0001
1000
,
0100
0100
0100
0010
0010
0010
0010
0010
,
1000
1000
1000
0010
0001
1000
0100
0001
,
0100
0000
1100
0000
0101
0000
0001
1000
,
0100
0100
0100
0001
0100
1000
0002
1000
,
1003
0000
0000
0000
1010
0000
0000
0000
0011
0000
0000
0000
0001
0000
0010
0100
,
0010
0000
0001
0100
0001
0000
2000
0000
0010
0000
0010
0000
3001
0000
1000
0000
,
0020
0000
0100
0000
1000
0000
0130
0010
,
1000
0100
0010
0001
0100
1000
0100
0001
,
0002
0000
0010
0000
1000
0000
0103
0010
,
1001
0000
0000
0000
,
1001
0010
1000
0010
1000
0010
1000
0010
,
0001
0010
0001
0010
0001
0010
0001
0010
,
0100
0100
0100
0001
0001
0001
0001
0001
,
1000
1000
1000
0100
0001
1000
0010
0001
,
1000
0010
1000
0010
1000
0010
1000
0010
,
0001
0010
0001
0010
0001
0010
0001
0010
,
0100
0100
0100
0001
0001
0001
0001
0001
,
1000
1000
1000
0010
0001
1000
0100
0001
;

//---------------dance-single - ----------------
#NOTES:
     dance-single:
     :
     Medium:
     6:
     0.305,0.315,0.098,0.118,0.005:
0000
0000
0000
0000
,
0000
0000
0000
0000
,
1000
0000
1000
0000
0000
0000
0010
0100
,
0001
0010
0000
0100
,
1000
0000
0001
0000
0000
0000
0100
0001
,
1000
0010
0000
0100
,
0001
0000
0000
0000
0000
0000
1000
0100
,
1000
0000
0000
0000
0000
0000
0100
1000
,
0001
0000
0000
0000
0001
1000
0100
0000
,
0010
0000
0001
1000
,
0001
0000
0000
0000
0000
0000
0100
0010
,
1000
0000
0000
0000
0000
0001
0010
0001
,
0100
0000
0010
0000
1000
0100
1000
0000
,
0001
0000
0000
0010
,
0000
1001
0000
0110
0000
1001
0000
0000
,
0001
0001
1000
0001
1000
0000
0000
0000
,
0010
1000
0100
0001
,
0010
0100
0010
0100
1000
0000
0001
0000
,
0000
1000
1000
0000
0001
0100
0001
0000
,
1000
0010
1000
0010
1000
0000
0000
0000
,
0010
0100
0010
0100
0010
0000
1000
0000
,
0100
0000
0010
0000
0001
1000
0001
1000
,
0000
0001
0000
1000
0010
1000
0010
1000
,
0000
0010
0000
0100
0001
0100
0001
1000
,
0000
0100
0000
0010
0000
0001
0000
1000
,
0000
0010
0000
0100
0001
0100
0001
1000
,
0000
0100
0000
0010
0001
0010
0001
0010
,
0000
0100
0000
1000
0100
1000
0010
1000
,
0000
0100
0000
0010
0000
0011
0000
0100
,
0000
1100
0000
0101
0000
1000
0000
0001
,
0002
0023
0230
0300
,
0000
0000
0000
1000
0001
1000
0001
0000
,
0200
0000
0320
0000
2030
0000
3000
0001
,
0001
0000
0000
0001
0000
0000
0001
0000
0010
0000
0100
0000
0010
0000
0000
0000
,
0002
2003
3020
0130
,
0001
1000
0001
0000
1000
0000
0010
0000
,
0200
0302
0023
0130
,
1001
0000
0000
0000
,
0000
0001
0000
0010
0100
0010
0100
1000
,
0000
0010
0000
1000
0001
1000
0001
1000
,
0000
0010
0000
0100
0000
0001
0000
0010
,
0000
0100
0000
1000
0010
1000
0010
1000
,
0000
0001
0000
0010
0100
0010
0100
0010
,
0000
0001
0000
1000
0100
1000
0001
0100
,
0000
0001
0000
1000
0000
1010
0000
0100
,
0000
0011
0000
1010
0000
0001
0000
1000
;

//---------------dance-single - ----------------
#NOTES:
     dance-single:
     :
     Easy:
     2:
     0.164,0.179,0.147,0.157,0.000:
0000
0000
0000
0000
,
0000
0000
0000
0000
,
1000
1000
0000
0001
,
0000
0100
0000
0010
,
0000
1000
0000
0100
,
0000
0001
0000
0010
,
0010
0000
1001
0000
,
0100
0000
1001
0000
,
1000
0000
1010
0000
,
0001
0000
1001
0000
,
1000
0000
0101
0000
,
0001
0000
1001
0000
,
0010
0000
0110
0000
,
0001
0000
0010
0000
,
1000
0000
0100
0000
,
1000
0100
1000
0000
,
0001
0000
0010
0000
,
1000
0001
0100
0000
,
0001
0000
0010
0000
,
0100
1000
0100
0000
,
1000
0000
0100
0000
,
0001
0010
0001
0000
,
2002
0000
0000
3003
,
0010
0000
0100
0000
,
2002
0000
0000
3003
,
0001
0000
1000
0000
,
0220
0000
0000
0330
,
0010
0000
1000
0000
,
2002
0000
0000
3003
,
0000
0010
0000
0100
,
0001
0001
0001
0000
,
2000
0000
0000
3000
,
0100
0100
0100
0000
,
0020
0000
0000
0030
,
0001
0000
1000
0000
,
0010
0000
0100
0000
,
0001
0000
1000
0000
,
1001
0000
0000
0000
,
0220
0000
0000
0330
,
0001
0000
1000
0000
,
2002
0000
0000
3003
,
1000
0000
0001
0000
,
2002
0000
0000
3003
,
0001
0000
1000
0000
,
0010
0010
0000
1000
,
0000
0001
0000
0100
;

//---------------dance-single - ----------------
#NOTES:
     dance-single:
     :
     Beginner:
     1:
     0.105,0.134,0.069,0.000,0.000:
0000
0000
0000
0000
,
0000
0000
0000
0000
,
0010
0000
0010
0000
,
1000
0000
1000
0000
,
0010
0000
0010
0000
,
1000
0000
1000
0000
,
0001
0000
0000
0000
,
0010
0000
0000
0000
,
0100
0000
0000
0000
,
1000
0000
0000
0000
,
0010
0000
0000
0000
,
0100
0000
0000
0000
,
0001
0000
0000
0000
,
1000
0000
0000
0000
,
0000
0100
0000
0000
,
0010
0000
0010
0000
,
0000
1000
0000
0000
,
0001
0000
0001
0000
,
0000
0010
0000
0100
,
0100
0000
1000
0000
,
0000
0010
0000
0010
,
0100
0000
0001
0000
,
1001
0000
0000
0000
,
0010
0000
0100
0000
,
1001
0000
0000
0000
,
0001
0000
1000
0000
,
1001
0000
0000
0000
,
0010
0000
1000
0000
,
0110
0000
0000
0000
,
0010
0000
0010
0000
,
0001
0000
0001
0000
,
1000
0000
0000
0000
,
0100
0000
0100
0000
,
0010
0000
0000
0000
,
0001
0000
1000
0000
,
0010
0000
0100
0000
,
0001
0000
1000
0000
,
0001
0000
0000
0000
,
0110
0000
0000
0000
,
0001
0000
1000
0000
,
1001
0000
0000
0000
,
1000
0000
0001
0000
,
1001
0000
0000
0000
,
0001
0000
1000
0000
,
0010
0000
0010
0000
,
1000
0000
0001
0000
;

//---------------dance-double - ----------------
#NOTES:
     dance-double:
     :
     Hard:
     7:
     0.456,0.427,0.196,0.108,0.074:
00000000
00000000
00000000
00000000
,
00000000
00000000
00000000
00000000
,
00000100
00001000
00000010
00000100
00000001
00000010
00000100
00010000
,
00001000
00100000
00010000
01000000
10000000
01000000
00010000
00100000
,
00001000
00010000
00001000
00100000
00010000
01000000
00100000
01000000
,
00010000
00100000
00010000
01000000
00001000
00010000
00000100
00001000
,
00000001
00000000
00000000
00000000
00000011
00000000
00000000
00000000
00000000
00000010
00000100
00000000
00000000
00000000
00000000
00000000
,
00011000
00000000
00000000
00000000
00100000
00000000
00010000
10000000
00000000
01000000
00100000
00000000
00000000
00000000
00000000
00000000
,
00011000
00000000
00000000
00000000
00000010
00000000
00000000
00000000
00000000
00000100
00000001
00000000
00000000
00000000
00000000
00000000
,
00001100
00000000
00000000
00000000
00000100
00000000
00010000
00001000
00000000
00100000
00010000
00000000
01000000
00000000
00100000
00000000
,
10020000
00000000
00000000
00000000
00130000
00000000
00000000
00000000
00000000
00001000
00010000
00000000
00000000
00000000
00000000
00000000
,
00002100
00000000
00000000
00000000
00003010
00000000
00000100
00000001
00000000
00000001
00000010
00000000
00000000
00000000
00000000
00000000
,
00000210
00000000
00000000
00000000
00001300
00000000
00000000
00000000
00000000
00000100
00010000
00000000
00000000
00000000
00000000
00000000
,
00011000
00000000
00000000
00000000
00100000
00000000
00010000
01000000
00000000
00100000
10000000
00000000
00010000
00000000
00100000
00000000
,
00001000
00101000
00000000
00010010
00000000
00101000
00000000
00000000
,
00001100
00000101
00002200
00003300
,
00000100
00010000
00001000
00100000
00010000
01000000
10000000
01000000
,
00010000
00100000
01000000
10000000
10010000
00000000
00100000
00001000
,
00011000
00010000
00000100
00000000
00000001
00000100
00001000
00000010
,
00000100
00000001
00001000
00000010
00001000
00000000
00000100
00010000
,
00001000
01000000
10000000
01000000
00010000
01000000
00100000
10000000
,
01000000
00100000
00001000
00010000
00000100
00000100
00001000
00000010
,
00000100
00000001
00000100
00000001
00000100
00000001
00000100
00000001
,
00001000
00000010
00001000
00000010
00001000
00000010
00001000
00000010
,
00001000
00001000
00001000
00000100
00000100
00000100
00000100
00000100
,
00010000
00010000
00010000
00001000
01000000
00100000
10000000
01000000
,
10000000
00100000
10000000
00100000
10000000
00100000
10000000
00100000
,
01000000
00010000
01000000
00000000
01000000
00010000
01000000
00010000
,
00100000
00100000
00100000
00001000
00001000
00001000
00001000
00001000
,
00010000
00010000
00010000
00000010
00001000
00000100
00000001
00000100
,
00002000
00003020
00000230
00000300
,
00001001
00000000
00000000
00000100
00010000
00001000
01000000
00000000
,
10020000
00000000
00000000
00000000
00230000
00000000
00000000
00000000
02300000
00000000
00000000
00000000
03000000
00000000
10000000
01000000
,
10000000
00000000
00010000
00100000
00000000
00000000
00001000
00000000
00010000
00000000
00000100
00000000
00001000
00000000
00000010
00000000
,
00000110
00000000
00000001
00000000
00001000
00000000
00000100
00010000
,
00001000
00001000
00001000
00100000
00010000
00000000
01000000
00100000
,
10000000
00000000
00000000
00000000
01000000
00000000
00000000
00000000
00100000
00000000
00000000
00000000
00001000
00000000
00010000
00001000
,
00010000
00000000
00000000
00000000
,
00011000
00100000
00010000
00100000
00010000
00100000
00010000
00100000
,
00001000
00010000
00001000
00010000
00001000
00010000
00001000
00010000
,
01000000
01000000
01000000
10000000
10000000
10000000
10000000
10000000
,
01000000
01000000
01000000
00100000
00001000
00010000
00000100
00001000
,
00000001
00001000
00000001
00001000
00000001
00001000
00000001
00001000
,
00000010
00010000
00000010
00010000
00000010
00010000
00000010
00010000
,
00001000
00001000
00001000
01000000
01000000
01000000
01000000
01000000
,
10000000
10000000
10000000
01000000
00100000
10000000
00010000
00100000
;

//---------------dance-double - ----------------
#NOTES:
     dance-double:
     :
     Medium:
     6:
     0.318,0.336,0.382,0.118,0.049:
00000000
00000000
00000000
00000000
,
00000000
00000000
00000000
00000000
,
00000001
00000000
00001000
00000000
00000000
00000100
00000100
00000000
,
00010000
00000000
00001000
00000000
00000000
01000000
01000000
00000000
,
00100000
00000000
10000000
00000000
00000000
01000000
01000000
00000000
,
00100000
00000000
00000000
00001000
00001000
00010000
00001000
00000000
,
00100000
00000000
00000000
00000000
00000000
00000000
00000000
00000000
00000000
00110000
00000000
00000000
00000000
00000000
00000000
00000000
,
01000000
00000000
00000000
00000000
00000000
00000000
00000000
00100000
00000000
00000000
10000000
00000000
00000000
00000000
00000000
00000000
,
01000000
00000000
00000000
00000000
00000000
00000000
00000000
00000000
00000000
00110000
00000000
00000000
00000000
00000000
00000000
00000000
,
00001000
00000000
00000000
00000000
00000000
00000000
00000000
00010000
00000000
00000000
00000100
00000000
00000000
00001000
00000000
00000000
,
00000001
00000000
00000000
00000000
00000000
00000000
00000000
00000000
00000000
00001100
00000000
00000000
00000000
00000000
00000000
00000000
,
00011000
00000000
00000000
00000000
00000000
00000000
00000000
00110000
00000000
00000000
10010000
00000000
00000000
00000000
00000000
00000000
,
01010000
00000000
00000000
00000000
00000000
00000000
00000000
00000000
00000000
01100000
00000000
00000000
00000000
00000000
00000000
00000000
,
10010000
00000000
00000000
00000000
00000000
00000000
00000000
00010000
00000000
00000000
00100000
00000000
00000000
00001000
00000000
00000000
,
00010000
00000100
00000000
00001000
00000100
00000001
00000000
00000000
,
00000100
00001000
00000010
00000100
,
00000001
00001000
00000001
00000000
00001000
00000100
00001000
00000000
,
00000100
00000000
00011000
00000000
00100000
00000000
00010000
00100000
,
01000000
00000000
11000000
00000000
00000000
10010000
00010000
00000000
,
00100000
00010000
00100000
00000000
00001000
00000000
00000000
00000000
,
00010000
00000000
00000100
00000000
00001000
00000010
00001000
00000000
,
00000010
00000000
00000100
00000000
00000001
00001000
00000001
00000000
,
00001100
00002200
00000000
00003300
,
00011000
00000000
00110000
00000000
00100000
00010000
10000000
00000000
,
01000000
00000000
00100000
00000000
00010000
01000000
00010000
01000000
,
00001000
00000000
00010000
00001000
00010000
00000000
00011000
00000000
,
00110000
00220000
00000000
00330000
,
00011000
00000000
00001100
00000000
00000100
00001000
00000001
00000000
,
00000100
00000000
00000010
00001000
00000100
00000000
00010000
00001000
,
01000000
00000000
01100000
00000000
10010000
00000000
00010000
10000000
,
00010000
10010000
00220000
00330000
,
00100000
00001000
00010000
00000100
,
00001100
00001010
00002200
00003300
,
00000100
00001000
00000001
00000100
,
00000001
00000001
00001000
00001000
,
00000100
00001000
00000100
00000000
00010000
00001000
00010000
00000000
,
00001000
00100000
00010000
00000000
,
10010000
00000000
00000000
00000000
,
10010000
20020000
00000000
30030000
,
01100000
00000000
00110000
00000000
00100000
00001000
00010000
00000000
,
00001100
00000000
00000100
00000000
00001000
00000010
00001000
00000010
,
00000100
00000001
00001000
00000100
,
00001001
00002002
00000000
00003003
,
00001010
00000000
00011000
00000000
00100000
00010000
10000000
00000000
,
11000000
00000000
01000000
10000000
00010000
00000000
00100000
00001000
,
00010000
00000000
00000100
00000000
00010000
00001000
01000000
00000000
;

//---------------dance-double - ----------------
#NOTES:
     dance-double:
     :
     Easy:
     3:
     0.181,0.202,0.157,0.078,0.000:
00000000
00000000
00000000
00000000
,
00000000
00000000
00000000
00000000
,
10000000
00000000
01000000
00000000
,
00100000
00000000
00010000
00000000
,
00001000
00000000
00000100
00000000
,
00000010
00000000
00000001
00000000
,
00000020
00000030
00000000
00000000
,
00000200
00000300
00000000
00000000
,
00020000
00030000
00000000
00000000
,
02000000
03000000
00100000
10000000
,
00020000
00030000
00000000
00000000
,
00200000
00300000
00000000
00000000
,
00002000
00003000
00000000
00000000
,
00020000
00030000
00000100
00001000
,
00000000
00000001
00000000
00001000
,
00000000
00000010
00000000
00000100
,
00000000
00000001
00000000
00001000
,
00000100
00010000
00001000
01000000
,
00010000
00000000
00100000
00000000
,
01000000
10000000
01000000
10000000
,
00000000
00100000
00000000
01000000
,
00000000
00001000
00010000
00001000
,
00011000
00011000
00100000
00000000
,
00100000
00000000
00100000
00000000
,
00011000
00011000
00000100
00000000
,
00001000
00000000
00000001
00000000
,
00001001
00001001
00000010
00000000
,
00001000
00000000
00000100
00000000
,
00001001
00001001
00000000
00010000
,
00000000
00001000
00000000
00100000
,
00010000
00010000
00010000
00000000
,
10000000
00000000
01000000
00000000
,
00100000
00100000
00001000
00000000
,
00010000
00000000
00000100
00000000
,
00001000
00000010
00001000
00000010
,
00000100
00000001
00000100
00000001
,
00001000
00000001
00001000
00000001
,
00001000
00000000
00000000
00000000
,
00011000
00011000
01000000
00000000
,
00100000
00000000
10000000
00000000
,
10010000
10010000
00100000
00000000
,
00001000
00000000
00010000
00000000
,
00011000
00011000
00000100
00000000
,
00001000
00000000
00000001
00000000
,
00001001
00001001
00000000
00001000
,
00000000
00000100
00010000
00001000
;

//---------------dance-single - ----------------
#NOTES:
     dance-single:
     :
     Challenge:
     8:
     0.528,0.472,0.304,0.039,0.147:
0000
0000
0000
0000
,
0000
0000
0000
0000
,
1000
0010
0100
0010
1000
0010
0100
0010
,
1000
0001
0100
0001
1000
0001
0100
0001
,
1000
1000
1100
0010
0010
0010
0011
0010
,
0100
0100
0110
0010
0001
2000
0100
3001
,
1000
0000
0000
0000
1100
0000
1000
0000
0000
0001
0100
0000
0010
0000
0000
0000
,
1001
0000
0000
0000
0010
0000
0001
1000
0000
0010
0100
0000
0001
0000
0000
0000
,
0101
0000
0000
0000
1100
0000
0100
0000
0000
0001
0010
0000
0100
0000
0000
0000
,
1100
0000
0000
0000
0001
0000
0010
1000
0000
1000
0100
0000
1000
0010
0000
0010
,
0001
0000
0000
0000
1001
0000
0010
0000
0000
0001
1000
0000
0100
0000
0000
0000
,
0110
0000
0000
0000
0001
0000
0100
0010
0000
1000
0100
0000
0010
0000
0000
0000
,
0011
0000
0000
0000
1100
0000
1000
0000
0000
0001
0100
0000
0001
0000
0000
0000
,
0110
0000
0000
0000
0001
0000
1000
0100
0000
0100
0001
0000
0100
1000
0000
0001
,
0100
1010
0100
0011
0100
1010
0000
1000
,
0011
1000
1001
0100
0101
0000
0100
1000
,
0100
0001
0010
1000
0010
0100
1000
0010
,
0001
0001
0010
1000
0100
0000
1001
1000
,
0001
0001
0011
1010
0010
0100
0101
0000
,
1100
0100
1000
0001
0100
1000
0100
0001
,
1000
0010
0001
0010
0100
0100
0001
0100
,
1000
0000
0100
0000
0001
0000
0010
0100
0000
1000
0001
0000
0100
0010
1000
0001
,
0100
1000
0100
0001
0010
0001
0100
1000
,
0100
0010
1000
0010
0001
0010
1000
0100
,
0001
0010
0100
0010
0001
0100
1000
0010
,
0100
0001
0010
1000
0100
1000
0010
0001
,
0100
0010
1000
0100
0001
0010
0001
0100
,
1000
0001
0010
1000
0010
0001
0100
1000
,
0010
0001
0010
1000
0100
0001
0010
1000
,
0100
0010
0001
1000
0010
0001
1000
0010
,
0110
0000
0000
0000
0101
0000
0000
0000
1001
0000
1000
0001
1000
0000
0001
0000
,
0100
0100
0100
0001
0100
1000
0100
0001
,
1010
0000
0000
0000
0110
0000
0000
0000
0011
0000
0000
0000
0001
0000
0010
0100
,
0010
0000
0001
0100
0001
0000
2000
0000
0010
0000
0010
0000
3001
0000
1000
0000
,
0010
0000
0000
0010
0100
0000
0000
0100
1000
0000
0000
1000
0100
0000
0010
0000
,
1000
0100
0010
0001
0100
1000
0100
0001
,
0001
0000
0000
0001
0010
0000
0000
0010
1000
0000
0000
1000
0100
0000
0010
0002
,
2000
0003
0000
0000
0000
0000
0000
0000
0001
0000
0000
0000
0000
0000
0000
0000
0001
0000
0000
0000
0000
0000
0000
0000
0001
0000
0000
0000
0000
0000
0000
0000
0001
0000
0000
0000
0000
0000
0000
0000
0001
0000
0000
0000
0000
0000
0000
0000
0001
0000
0000
0000
0000
0000
0000
0000
3001
0000
0000
0000
0000
0000
0000
0000
,
1001
0010
1000
0010
0001
0100
1000
0010
,
1000
0100
0001
0100
0010
0001
0010
1000
,
0100
0001
0010
0100
0001
0010
1000
0100
,
0001
1000
0010
0001
0010
1000
0001
0010
,
0100
1000
0010
0001
0010
1000
0100
0010
,
1000
0100
0001
0100
1000
0010
0001
1000
,
0100
0001
0100
0010
0001
0010
1000
0010
,
0100
1000
0001
0100
1000
0100
0001
1000
;

//---------------dance-double - ----------------
#NOTES:
     dance-double:
     :
     Challenge:
     9:
     0.524,0.517,0.274,0.029,0.172: // measure 1
00000000
00000000
00000000
00000000
,  // measure 2
00000000
00000000
00000000
00000000
,  // measure 3
00000100
00001000
00000010
00000100
00000001
00000010
00000100
00010000
,  // measure 4
00001000
00100000
00010000
01000000
10000000
01000000
00010000
00100000
,  // measure 5
00001000
00010000
00001000
00100000
00010000
01000000
00100000
01000000
,  // measure 6
00010000
00100000
00010000
01000000
00001000
00010000
00000100
00001000
,  // measure 7
00000001
00000000
00000000
00000000
00000011
00000000
00000100
00000000
00000000
00000010
00000100
00000000
00010000
00000000
00000000
00000000
,  // measure 8
00011000
00000000
00000000
00000000
00100000
00000000
00010000
10000000
00000000
01000000
00100000
00000000
00001000
00000000
00000000
00000000
,  // measure 9
00011000
00000000
00000000
00000000
00000010
00000000
00000100
00000000
00000000
00000100
00000001
00000000
00001000
00000000
00000000
00000000
,  // measure 10
00001100
00000000
00000000
00000000
00000100
00000000
00010000
00001000
00000000
00100000
00010000
00000000
01000000
00100000
00000000
10000000
,  // measure 11
01000000
00000000
00000000
00000000
00100000
00000000
00001000
00000000
00000000
00001000
00010000
00000000
00000010
00000000
00000000
00000000
,  // measure 12
00001100
00000000
00000000
00000000
00000010
00000000
00000100
00000001
00000000
00000001
00000010
00000000
00000100
00000000
00000000
00000000
,  // measure 13
00000110
00000000
00000000
00000000
00001000
00000000
00000100
00000000
00000000
00000100
00010000
00000000
00001000
00000000
00000000
00000000
,  // measure 14
00011000
00000000
00000000
00000000
00100000
00000000
00010000
01000000
00000000
00100000
10000000
00000000
00010000
00100000
00000000
00001000
,  // measure 15
00010000
00101000
00010000
01001000
00010000
00010100
00000000
00001100
,  // measure 16
00000101
00001000
00000101
00000010
00002100
00000000
00003010
00001000
,  // measure 17
00000100
00010000
00001000
00100000
00010000
01000000
10000000
01000000
,  // measure 18
00010000
00100000
01000000
10000000
10010000
00000000
00110000
00001000
,  // measure 19
00011000
00010000
00001100
00000101
00000002
00000100
00001003
00000010
,  // measure 20
00000100
00000001
00001000
00000010
00001010
00000000
00001000
00000100
,  // measure 21
00010000
01000000
00100000
01000000
10000000
01000000
00100000
00010000
,  // measure 22
01000000
00000000
00100000
00000000
10000000
00000000
00010000
00100000
00000000
00001000
00010000
00000000
00001000
00010000
00000010
00001000
,  // measure 23
00000001
00000010
00001000
00000010
00000100
00010000
00001000
01000000
,  // measure 24
00010000
10000000
00100000
00010000
00100000
10000000
00010000
00100000
,  // measure 25
00001000
00010000
00000100
00001000
00000010
00000001
00000010
00001000
,  // measure 26
00000100
00010000
00001000
00000100
00001000
01000000
00010000
00100000
,  // measure 27
01100000
10000000
00010000
00100000
00001000
00010000
00000100
00001000
,  // measure 28
00000001
00000100
00001000
00000100
00000001
00001000
00000100
00010000
,  // measure 29
00000010
00000001
00000010
00001000
00000100
00010000
00001000
01000000
,  // measure 30
10000000
01000000
00010000
00100000
00001000
00010000
00000100
00000010
,  // measure 31
00001100
00000000
00000000
00001000
00000010
00000000
00000000
00000010
00000100
00000000
00000000
00000100
00000001
00000000
00001000
00000000
,  // measure 32
00001001
00000000
00001100
00000100
00010000
00001000
01010000
10000000
,  // measure 33
10010000
00000000
00000000
00010000
00100000
00000000
00000000
00100000
01000000
00000000
00000000
01000000
10000000
00000000
01000000
10000000
,  // measure 34
00010000
00000000
00100000
00010000
00000000
00000000
01000000
00000000
00001000
00000000
00010000
00000000
00000100
00000000
00000010
00000000
,  // measure 35
00000110
00000000
00000000
00000010
00000001
00000000
00000000
00000001
00001000
00000000
00000000
00001000
00000100
00000000
00010000
00000000
,  // measure 36
00001000
00001000
00001000
00100000
00010000
00000000
01000000
00100000
,  // measure 37
10000000
00000000
00000000
10000000
01000000
00000000
00000000
01000000
00100000
00000000
00000000
00100000
00001000
00000000
00010000
00001000
,  // measure 38
00020000
00001000
00001000
00001000
00001000
00001000
00001000
00031000
,  // measure 39
00001000
00100000
00010000
01000000
10000000
01000000
00010000
00100000
,  // measure 40
00001000
00010000
00000010
00000100
00000001
00000010
00000100
00010000
,  // measure 41
00001000
01000000
10000000
01000000
00010000
00100000
00001000
00000010
,  // measure 42
00000001
00001000
00000010
00010000
00001000
00100000
00010000
01000000
,  // measure 43
10010000
00100000
01000000
00010000
00100000
00001000
00010000
00000100
,  // measure 44
00001000
00010000
00001000
00000100
00010000
00001000
00000100
00001000
,  // measure 45
00100000
00010000
01000000
00100000
10000000
00010000
00100000
00001000
,  // measure 46
00010000
00000100
00000010
00000001
00001000
00000100
00000001
00000100
;
