#TITLE:Metro;
#SUBTITLE:;
#ARTIST:The Vincent Black Shadow;
#TITLETRANSLIT:;
#SUBTITLETRANSLIT:;
#ARTISTTRANSLIT:;
#GENRE:;
#CREDIT:;
#MENUCOLOR:;
#METERTYPE:DDR;
#BANNER:Metro-bn.png;
#BACKGROUND:Metro-bg.png;
#LYRICSPATH:;
#CDTITLE:ddrencorecdtitle.png;
#MUSIC:Metro.mp3;
#OFFSET:-0.886;
#SAMPLESTART:59.460;
#SAMPLELENGTH:11.880;
#SELECTABLE:YES;
#LISTSORT:;
#BPMS:0.000=180.180;
#STOPS:;
#BGCHANGES:;
#ATTACKS:;

//---------------dance-single - ----------------
#NOTES:
     dance-single:
     :
     Hard:
     9:
     0.696,0.842,0.606,0.426,0.800:
0000
0000
0000
0000
,
0000
0000
0000
0000
,
0000
0000
0000
0000
,
0000
0000
0000
0000
,
0001
0000
0001
0100
0000
0100
0010
0000
0010
1000
0000
0100
,
0010
0000
0010
0001
0000
0202
0000
0000
0303
0000
0000
0000
,
1000
0000
1000
0100
0000
0100
0010
0000
0010
0001
0000
0100
,
0010
0000
0010
1000
0000
2200
0000
0000
3300
0000
0000
0000
,
0001
0000
0001
1000
0000
1000
0010
0000
0010
0100
0000
0001
,
0010
0000
0110
0000
0000
1001
0000
0000
0000
0200
0300
0000
,
0110
0000
1001
0000
0000
0011
0000
0000
0000
2000
3000
0000
,
1001
0000
0110
0000
0000
1010
0000
0000
0000
0002
0003
0000
,
1100
1000
0001
0100
,
0001
1000
0100
1000
,
0010
1000
0001
0010
,
0001
0000
0000
0100
0000
0000
0010
0100
0010
0100
0010
0100
,
0010
0000
0010
1000
0000
1000
0100
0000
0100
0010
0000
0001
,
0100
0000
0100
0010
0000
0010
1000
0000
1001
0000
0000
0000
,
0010
0000
0010
0001
0000
0001
0100
0000
0100
0001
0000
0010
,
0100
0000
0100
1000
0000
1000
0010
0000
1001
0000
0000
0000
,
0001
0010
0100
1000
,
0020
0000
0100
0000
0000
1000
0030
0000
0001
0000
0000
0010
,
0100
1000
0100
0010
0001
0010
0100
0000
0000
1000
0000
0000
,
0200
0000
0001
0000
0000
0010
0300
0000
0101
0000
0000
0000
,
1010
0000
1000
0100
0000
0000
0001
0000
0001
0100
0000
0000
,
1000
0000
1000
0100
0000
0000
0001
0000
0001
0100
0000
0001
,
0010
0000
0010
0001
0000
0000
1000
0000
1000
0100
0000
0000
,
1000
0000
1000
0010
0000
0000
0001
0000
0001
0100
0000
0010
,
1000
0100
0010
0001
,
0020
0000
0100
0000
0000
0001
0030
0000
0010
0000
0000
0100
,
1000
0010
0100
0001
0100
0010
1000
0000
0000
0001
0000
0000
,
0200
0000
1000
0000
0000
0010
0300
0000
1100
0000
0000
0000
,
0011
0000
0001
0100
0000
0000
1000
0000
1000
0100
0000
0000
,
0001
0000
0001
0100
0000
0000
1000
0000
1000
0100
0000
0100
,
1000
0000
1000
0010
0000
0000
0100
0000
0100
0001
0000
0000
,
0010
0000
0010
0001
0000
0000
1000
0000
1000
0100
0000
0100
,
0020
0000
0032
0000
,
2003
0000
0000
0000
0000
0000
3020
0000
0000
0000
0000
0230
,
0000
0000
0300
0001
,
0012
0000
0000
0023
0000
0000
0230
0000
0000
2300
0000
3020
,
0000
0000
0030
0100
,
2001
0000
0000
3002
0000
0000
0023
0000
0000
0230
0000
1300
,
0000
0000
1000
0010
0000
0000
0001
0000
0001
0010
0000
0000
,
1000
0000
1000
0100
0000
0000
0001
0000
0001
0100
0000
1000
,
0000
0000
1000
0100
0000
0100
0010
0000
0001
0100
0000
0101
,
0000
0000
0001
0010
0000
0010
0001
0000
1000
0100
0000
0002
,
0000
0003
0001
0100
0000
1000
0010
0000
0010
0100
0000
0100
,
0010
0000
0000
1010
0000
0000
0010
0000
0000
0101
0000
1001
,
0000
0000
0001
0010
0000
0010
0100
0000
1000
0010
0000
1010
,
0000
0000
1000
0100
0000
0100
0010
0000
0001
0100
0000
2000
,
0000
3000
1000
0100
0000
0001
0010
0000
0100
1000
0000
1000
,
0010
0000
0000
1010
0000
0000
0001
0000
0000
0011
0000
1001
,
0000
0000
1000
0100
0000
0100
1000
0000
0001
0100
0000
0101
,
0000
0000
0001
0100
0000
0100
0010
0000
1000
0001
0000
0200
,
0000
0300
0010
0100
0000
0001
1000
0000
0100
0010
0000
0010
,
0001
0000
0000
0011
0000
0000
0100
0000
0000
1010
0000
1100
,
0000
0000
1000
0100
0000
0100
1000
0000
0010
0100
0000
0101
,
0000
0000
0010
0001
0000
0001
0100
0000
0010
1000
0000
0200
,
0000
0300
0010
0100
0000
1000
0001
0000
0100
0010
0000
0010
,
0100
1010
0001
0011
,
2200
0000
3300
1100
0000
1000
0200
0000
0300
1100
0000
0100
,
2000
0000
3000
1010
0000
1000
0020
0000
0030
1010
0000
0010
,
2000
0000
3000
0101
0000
0001
0200
0000
0300
0011
0000
0001
,
0010
0100
1000
0010
,
2002
0000
3003
1001
0000
0001
2000
0000
3000
1001
0000
1000
,
0002
0000
0003
0011
0000
0010
0002
0000
0003
0011
0000
0001
,
0200
0000
0300
0101
0000
0100
0002
0000
0003
1000
0001
1000
,
0001
0000
0000
0011
0000
0000
1000
0000
0010
0100
0000
0000
,
0100
1001
0010
0101
,
1000
0000
0100
1000
0000
1100
0000
0000
0000
0000
0000
0000
,
0010
1001
0100
1010
,
1100
0000
0100
0010
0000
2000
0000
3000
0000
0000
0000
0000
,
0001
0101
0010
1010
,
1000
0000
1100
0000
0000
1001
0000
0000
0000
0010
0000
0000
,
0001
0000
0101
0000
0000
1001
0000
0000
0000
1000
0000
0000
,
1100
0000
1010
0000
0000
0101
0000
0000
0000
0001
0000
0000
,
0011
0000
0010
0100
0000
0100
1000
0000
1000
0100
0000
0100
,
0002
0003
0000
0000
;

//---------------dance-single - ----------------
#NOTES:
     dance-single:
     :
     Medium:
     7:
     0.513,0.511,0.597,0.445,0.194:
0000
0000
0000
0000
,
0000
0000
0000
0000
,
0000
0000
0000
0000
,
0000
0000
0000
0000
,
1000
1100
0001
0101
,
1000
0000
0100
1000
0000
0010
0000
0000
0000
0000
0000
0000
,
0001
0011
1000
1010
,
0001
0000
0100
0001
0000
0010
0000
0000
0000
0000
0000
0000
,
0100
0110
0001
0011
,
2002
0000
3003
0100
,
0220
0000
0330
1000
,
2200
0000
3300
0001
,
1001
1000
0100
0010
,
0001
0010
0100
1000
,
0001
0100
0010
1000
,
0010
0100
0001
0010
,
1000
0000
0100
1000
0000
0000
0001
0000
0100
0001
0000
0000
,
1000
0000
0010
0100
0000
0000
0002
0000
0000
0003
0000
0000
,
0001
0000
0010
0001
0000
0000
1000
0000
0010
1000
0000
0000
,
0001
0000
0010
0100
0000
0000
2000
0000
0000
3000
0000
0000
,
1001
0100
0001
0010
,
0001
0100
1001
0100
,
1000
0010
1000
0100
,
0010
0001
1001
0100
,
1020
0000
0000
0130
0000
0000
0001
0000
1000
0001
0000
0000
,
0020
0000
0000
0130
0000
0000
1000
0000
0001
1000
0000
0000
,
0020
0000
0000
0130
0000
0000
0010
0000
1000
0001
0000
0000
,
2000
0000
0000
3100
0000
0000
0010
0000
0100
1000
0000
0000
,
1001
0001
0100
1000
,
0100
0001
0100
1000
,
0101
1000
0100
0001
,
0100
1000
1001
0100
,
0021
0000
0000
0130
0000
0000
1000
0000
0001
1000
0000
0000
,
0010
0000
0000
0100
0000
0000
0010
0000
0100
0001
0000
0000
,
0010
0000
0000
0001
0000
0000
0010
0000
0100
1000
0000
0000
,
0100
0000
0000
1000
0000
0000
0001
0000
1000
0001
0000
0000
,
0020
0000
0032
0000
,
2003
0000
0000
0000
0000
0000
3020
0000
0000
0000
0000
0230
,
0000
0000
0000
0000
0300
0000
0000
0000
0000
0001
0000
0000
,
0012
0000
0000
0023
0000
0000
0230
0000
0000
2300
0000
3020
,
0000
0000
0030
0100
,
1002
0000
0000
0203
0000
0000
0320
0000
0000
2030
0000
3001
,
0000
0011
1000
1010
,
0001
1000
0001
1000
,
2100
0000
0000
3001
0000
0000
0001
0000
0000
0100
0000
0010
,
0000
0000
0000
1010
0000
0000
0001
0000
0000
1000
0000
0100
,
0000
0010
0100
1000
,
0101
1100
0101
1000
,
0102
0000
0000
1003
0000
0000
1000
0000
0000
0001
0000
0010
,
0000
0000
0000
1100
0000
0000
0001
0000
0000
0100
0000
0010
,
0000
1000
0001
0100
,
0110
1001
0110
1000
,
0210
0000
0000
0310
0000
0000
0010
0000
0000
0100
0000
0001
,
0000
0000
0000
0011
0000
0000
0100
0000
0000
1000
0000
0001
,
0000
0001
0100
0010
,
1010
0011
1010
0100
,
0021
0000
0000
0130
0000
0000
0100
0000
0000
1000
0000
0100
,
0000
0000
0000
1010
0000
0000
0001
0000
0000
1000
0000
0001
,
0000
1000
0100
0010
,
1001
0110
1001
0100
,
2200
0300
0002
0003
,
0020
0000
0000
0030
0000
0000
0002
0000
0000
3003
0000
2002
,
0000
0000
0000
3003
,
0101
1100
0101
1100
,
2002
3000
0020
0030
,
2000
0000
0000
3000
0000
0000
0200
0000
0000
0303
0000
2002
,
0000
0000
0000
3003
,
0110
1001
0110
1001
,
1000
0001
0010
0100
,
1000
0000
0010
1000
0000
0010
0000
0000
0000
0000
0000
0000
,
0100
0001
0100
0001
,
1000
0000
0001
1000
0000
0001
0000
0000
0000
0000
0000
0000
,
1010
0001
1010
0001
,
1000
0000
0001
0000
0000
1001
0000
0000
0000
0000
0000
0000
,
0000
0000
0101
0000
0000
1010
0000
0000
0000
0000
0000
0000
,
0000
0000
1100
0000
0000
0011
0000
0000
0000
0000
0000
0000
,
0220
0000
0000
0000
0000
0000
0000
0000
0000
0000
0330
0000
,
1001
0000
0000
0000
;

//---------------dance-double - ----------------
#NOTES:
     dance-double:
     :
     Hard:
     9:
     0.687,0.656,0.464,0.445,0.862: // measure 1
00000000
00000000
00000000
00000000
,  // measure 2
00000000
00000000
00000000
00000000
,  // measure 3
00000000
00000000
00000000
00000000
,  // measure 4
00000000
00000000
00000000
00000000
,  // measure 5
00000010
00000000
00000010
00000001
00000000
00000001
00000100
00000000
00000100
00001000
00000000
00010000
,  // measure 6
00001000
00000000
00001000
00000100
00000000
00000001
00000000
00000000
00000000
00000000
00000000
00000000
,  // measure 7
00010000
00000000
00010000
01000000
00000000
01000000
10000000
00000000
10000000
00100000
00000000
00010000
,  // measure 8
00001000
00000000
00001000
00010000
00000000
02000000
00000000
00000000
03000000
00000000
00000000
00000000
,  // measure 9
00100000
00000000
00100000
00010000
00000000
00010000
01000000
00000000
01000000
00100000
00000000
00010000
,  // measure 10
00001000
00000000
00010010
00000000
00000000
01001000
00000000
00000000
00000000
00002000
00003000
00000000
,  // measure 11
00001000
00000000
00101000
00000000
00000000
00010100
00000000
00000000
00000000
00010000
00000000
00000000
,  // measure 12
00001000
00000000
00001100
00000000
00000000
01010000
00000000
00000000
00000000
00001000
00000000
00001000
,  // measure 13
00010000
01000000
10000000
00100000
,  // measure 14
00010000
00001000
00000100
00000010
,  // measure 15
00000001
00000010
00000100
00001000
,  // measure 16
00010000
00000000
00000000
00100000
00000000
00000000
01000000
00000000
00000000
10000000
01000000
00010000
,  // measure 17
10000000
00000000
10000000
01000000
00000000
01000000
00100000
00000000
00100000
00010000
00000000
00100000
,  // measure 18
00001000
00000000
00001000
00010000
00000000
00010000
00000010
00000000
00000100
00000000
00000000
00000000
,  // measure 19
00000001
00000000
00000001
00000010
00000000
00000010
00000100
00000000
00000100
00001000
00000000
00001000
,  // measure 20
00000010
00000000
00010000
00001000
00000000
00001000
00010000
00000000
00001000
00000000
00000000
00000000
,  // measure 21
00100000
00010000
01000000
10000000
,  // measure 22
01000000
00000000
00010000
00000000
00000000
00100000
00000000
00000000
01000000
00000000
00000000
00100000
,  // measure 23
01000000
10000000
01000000
10000000
01000000
10000000
00010000
00000000
00000000
01000000
00000000
00000000
,  // measure 24
00001000
00000000
00010000
00000000
00000000
00101000
00000000
00000000
00001000
00010000
00000000
00000010
,  // measure 25
00001000
00000000
00000000
00001010
00000000
00000010
00001000
00000000
00000100
00000010
00000000
00000002
,  // measure 26
00000000
00000003
00000000
00000011
00000000
00000001
00000100
00000000
00001000
00010000
00000000
00002000
,  // measure 27
00000000
00003000
00000000
00011000
00000000
00001000
01000000
00000000
00010000
00100000
00000000
02000000
,  // measure 28
00000000
00000000
03000000
10000000
00000000
01000000
00100000
00000000
00100000
00010000
00000000
00000000
,  // measure 29
10010000
10000000
00100000
00010000
,  // measure 30
00001000
00000000
00000010
00000000
00000000
00000001
00000000
00000000
00000010
00000000
00000000
00000100
,  // measure 31
00001000
00000001
00001000
00000001
00001000
00000001
00000010
00000000
00000000
00000001
00000000
00000000
,  // measure 32
00000100
00000000
00000010
00000000
00000000
00001010
00000000
00000000
00010000
00001000
00000000
00100000
,  // measure 33
00010000
00000000
00000000
01010000
00000000
01000000
00100000
00000000
10000000
00010000
00000000
00200000
,  // measure 34
00000000
00300000
00000000
01100000
00000000
00100000
00010000
00000000
00010000
00100000
00000000
00002000
,  // measure 35
00000000
00003000
00000000
00011000
00000000
00001000
00000100
00000000
00000010
00000100
00000000
00000002
,  // measure 36
00000000
00000003
00000000
00001001
00000000
00000001
00000100
00000000
00000010
00001000
00000000
00000000
,  // measure 37
00000200
00000000
00020300
00000000
,  // measure 38
00032000
00000000
00000000
00000000
00000000
00000000
00203000
00000000
00000000
00000000
00000000
02300000
,  // measure 39
00000000
00000000
00000000
00000000
00000000
03000000
00000000
00000000
00000000
20000000
00000000
00000000
,  // measure 40
30200000
00000000
00000000
00320000
00000000
00000000
00032000
00000000
00000000
00023000
00000000
02030000
,  // measure 41
00000000
00000000
03000000
20000000
,  // measure 42
32000000
00000000
00000000
03020000
00000000
00000000
00032000
00000000
00000000
00003200
00000000
00000302
,  // measure 43
00000000
00000003
00000000
00000011
00000000
00000001
00000010
00000000
00000000
00001100
00000000
00001000
,  // measure 44
00000100
00000000
00000000
00000010
00000000
00000001
00000100
00000000
00000100
00001000
00000000
00010000
,  // measure 45
00000000
00000000
00001000
00010000
00000000
00010000
01000000
00000000
01000000
10000000
00000000
00200000
,  // measure 46
00300000
00000000
00100000
10000000
00000000
10000000
01000000
00000000
01000000
00010000
00000000
00002000
,  // measure 47
00003000
00000000
00010000
00001000
00000000
00001000
00010000
00000000
00000010
00001000
00000000
00001000
,  // measure 48
00000100
00000000
00000000
00000110
00000000
00000000
00001001
00000000
00000000
00000110
00000000
00001001
,  // measure 49
00000000
00000000
00001000
00000100
00000000
00000100
00000010
00000000
00000010
00001000
00000000
00020000
,  // measure 50
00030000
00000000
00010000
00001000
00000000
00001000
00000010
00000000
00000010
00000100
00000000
00002000
,  // measure 51
00003000
00000000
00000001
00000100
00000000
00000100
00000010
00000000
00010000
00001000
00000000
00001000
,  // measure 52
00100000
00000000
00000000
00101000
00000000
00000000
00110000
00000000
00000000
00101000
00000000
00110000
,  // measure 53
00000000
00000000
00100000
01000000
00000000
01000000
10000000
00000000
10000000
00100000
00000000
00020000
,  // measure 54
00030000
00000000
00010000
00100000
00000000
00100000
10000000
00000000
10000000
01000000
00000000
00020000
,  // measure 55
00030000
00000000
00010000
00001000
00000000
00001000
00010000
00000000
00000100
00001000
00000000
00001000
,  // measure 56
00000010
00000000
00000000
00010010
00000000
00000000
00001010
00000000
00000000
00010010
00000000
00001010
,  // measure 57
00000000
00000000
00000010
00000100
00000000
00000100
00001000
00000000
00001000
00010000
00000000
00200000
,  // measure 58
00300000
00000000
00100000
00010000
00000000
00010000
00001000
00000000
00001000
00000100
00000000
00000020
,  // measure 59
00000030
00000000
00000010
00001000
00000000
00001000
00000100
00000000
00010000
00001000
00000000
00001000
,  // measure 60
01000000
01010000
00011000
01010000
,  // measure 61
00011000
00000000
00001000
00020000
00000000
00030000
01000000
00000000
10000000
00200000
00000000
00300000
,  // measure 62
01000000
00000000
00010000
00200000
00000000
00300000
00001000
00000000
00010000
00002000
00000000
00003000
,  // measure 63
00000100
00000000
00000010
00002000
00000000
00003000
00000001
00000000
00000010
00000200
00000000
00000300
,  // measure 64
00001100
00011000
01010000
01100000
,  // measure 65
10010000
00000000
10000000
00002000
00000000
00003000
00010000
00000000
00000001
00020000
00000000
00030000
,  // measure 66
00001000
00000000
10000000
00002000
00000000
00003000
00010000
00000000
00000001
00020000
00000000
00030000
,  // measure 67
00001000
00000000
10000000
00020000
00000000
00030000
10000000
00000000
00001000
00020000
00000000
00030000
,  // measure 68
01010000
00011000
00001100
00000110
,  // measure 69
00000001
00000000
00000001
00001000
00000000
00001000
00000010
00000000
00000010
00001000
00000000
00001000
,  // measure 70
00000100
00000000
00000010
00001000
00000000
00020000
00000000
00000000
00000000
00030000
00000000
00000000
,  // measure 71
00100000
00000000
00100000
10000000
00000000
10000000
00010000
00000000
00010000
00100000
00000000
00100000
,  // measure 72
01000000
00000000
00100000
00001000
00000000
00020000
00000000
00000000
00000000
00030000
00000000
00000000
,  // measure 73
00000100
00000000
00000100
00001000
00000000
00001000
00000001
00000000
00000001
00000100
00000000
00000100
,  // measure 74
00000010
00000000
00000110
00000000
00000000
00010010
00000000
00000000
00000000
00001000
00000000
00000000
,  // measure 75
00000000
00000000
00101000
00000000
00000000
01100000
00000000
00000000
00000000
10000000
00000000
00000000
,  // measure 76
00000000
00000000
10010000
00000000
00000000
01001000
00000000
00000000
00000000
00010000
00000000
00000000
,  // measure 77
00001000
00000000
00001000
00010000
00000000
00010000
00000100
00000000
00000100
00001000
00000000
00001000
,  // measure 78
00000001
00000000
00000000
00000000
;

//---------------dance-single - ----------------
#NOTES:
     dance-single:
     :
     Easy:
     3:
     0.242,0.292,0.142,0.000,0.000:
0000
0000
0000
0000
,
0000
0000
0000
0000
,
0000
0000
0000
0000
,
0000
0000
0000
0000
,
1000
0000
0001
0000
,
0100
0010
0110
0000
,
0001
0000
1000
0000
,
0100
0010
0110
0000
,
0001
0000
1000
0000
,
0001
1000
0001
0000
,
0010
0100
0010
0000
,
1001
1001
0000
0000
,
0100
0000
0000
0000
,
0000
0000
0000
0000
,
0000
0000
0000
0000
,
0000
0000
0000
0000
,
1000
0100
1000
0100
,
1000
0100
0010
0000
,
0001
0010
0001
0010
,
0001
0010
0100
0000
,
1000
0000
0001
0000
,
0100
0000
0010
0000
,
1000
0000
0100
0000
,
0010
0000
0001
0000
,
1001
0000
1000
0000
,
0001
0000
0001
0000
,
0100
0000
0100
0000
,
0010
0000
0010
0000
,
1000
0000
0100
0000
,
0010
0000
0001
0000
,
0100
0000
0010
0000
,
1000
0000
0001
0000
,
1001
0000
0001
0000
,
0100
0000
0100
0000
,
0010
0000
0010
0000
,
1000
0000
1000
0000
,
0001
0000
0100
0000
,
1000
0000
0010
0000
,
0001
0000
0000
0000
,
0001
0000
0010
0000
,
1000
0000
0000
0100
,
0001
0100
0001
0100
,
0001
0000
0100
0000
,
0010
0000
1000
0000
,
0001
0000
0010
0010
,
0010
0000
0100
0100
,
0100
0000
1000
1000
,
1000
0000
0001
0000
,
0100
0000
0010
0010
,
0010
0000
0100
0100
,
0100
0000
0001
0001
,
0001
0000
1000
0000
,
0100
0000
0010
0010
,
0010
0000
0100
0100
,
0100
0000
1000
1000
,
1000
0000
0001
0000
,
0100
0000
0001
0001
,
0001
0000
1000
1000
,
1000
0000
0010
0010
,
0010
0000
0100
0100
,
0100
0000
0001
0000
,
1000
0000
0001
0000
,
1001
0000
0000
0000
,
0001
1000
0001
1000
,
0010
0000
0100
0000
,
0010
0000
0100
0000
,
0110
0000
0000
0000
,
1000
0001
1000
0001
,
0100
0000
0001
0000
,
1000
0001
1001
0000
,
0001
0000
0010
0000
,
0100
0010
0110
0000
,
1000
0000
0001
0000
,
1001
0000
0000
0000
,
0110
0000
0000
0000
,
1001
0000
0000
0000
,
0110
0000
0000
0000
,
1001
0000
0000
0000
;

//---------------dance-single - ----------------
#NOTES:
     dance-single:
     :
     Beginner:
     2:
     0.107,0.182,0.076,0.000,0.000:
0000
0000
0000
0000
,
0000
0000
0000
0000
,
0000
0000
0000
0000
,
0000
0000
0000
0000
,
0001
0000
0000
0000
,
1000
0000
0000
0000
,
0100
0000
0000
0000
,
0010
0000
0000
0000
,
1000
0000
0000
0000
,
0001
0000
0000
0000
,
0100
0000
0000
0000
,
0010
0000
0000
0000
,
1001
0000
0000
0000
,
0000
0000
0000
0000
,
0000
0000
0000
0000
,
0000
0000
0000
0000
,
1000
0000
0000
0000
,
0100
0000
0000
0000
,
0001
0000
0000
0000
,
0100
0000
0000
0000
,
0010
0000
0000
0000
,
1000
0000
0000
0000
,
0100
0000
0000
0000
,
0010
0000
0000
0000
,
1000
0000
0000
0000
,
0001
0000
0000
0000
,
0100
0000
0000
0000
,
0010
0000
0000
0000
,
0100
0000
0000
0000
,
0001
0000
0000
0000
,
0010
0000
0000
0000
,
0100
0000
0000
0000
,
1000
0000
0000
0000
,
0001
0000
0000
0000
,
0100
0000
0000
0000
,
0010
0000
0000
0000
,
1001
0000
0000
0000
,
0100
0000
0000
0000
,
0110
0000
0000
0000
,
0010
0000
0000
0000
,
1001
0000
0000
0000
,
0100
0000
0000
0000
,
0110
0000
0000
0000
,
1000
0000
0000
0000
,
0100
0000
0000
0000
,
0010
0000
0000
0000
,
0001
0000
0000
0000
,
0100
0000
0000
0000
,
1000
0000
0000
0000
,
0001
0000
0000
0000
,
0100
0000
0000
0000
,
0010
0000
0000
0000
,
0100
0000
0000
0000
,
1000
0000
0000
0000
,
0001
0000
0000
0000
,
0010
0000
0000
0000
,
0100
0000
0000
0000
,
1000
0000
0000
0000
,
0001
0000
0000
0000
,
0100
0000
0000
0000
,
1001
0000
0000
0000
,
0001
0000
0000
0000
,
1000
0000
0000
0000
,
0100
0000
0000
0000
,
1001
0000
0000
0000
,
0100
0000
0000
0000
,
0010
0000
0000
0000
,
0100
0000
0000
0000
,
0001
0000
0000
0000
,
1000
0000
0000
0000
,
0001
0000
0000
0000
,
0100
0000
0000
0000
,
0010
0000
0000
0000
,
1000
0000
0000
0000
,
0100
0000
0000
0000
,
0010
0000
0000
0000
,
0001
0000
0000
0000
,
1001
0000
0000
0000
;

//---------------dance-double - ----------------
#NOTES:
     dance-double:
     :
     Medium:
     7:
     0.441,0.659,0.369,0.369,0.185:
00000000
00000000
00000000
00000000
,
00000000
00000000
00000000
00000000
,
00000000
00000000
00000000
00000000
,
00000000
00000000
00000000
00000000
,
10000000
00010000
01000000
00010000
,
00100000
00000000
00000000
00001000
00000000
00010000
00000000
00000000
00000000
00001100
00000000
00000000
,
00000100
00001000
00000010
00001000
,
00000001
00000000
00000000
00000100
00000000
00000010
00000000
00000000
00000000
00001010
00000000
00000000
,
00000100
00010000
00001000
00010000
,
00001000
00000000
00010000
00000000
00000000
00001000
00000000
00000000
00000000
00011000
00000000
00000000
,
00000000
00000000
00100000
00000000
00000000
00010000
00000000
00000000
00000000
00110000
00000000
00000000
,
00000000
00000000
01000000
00000000
00000000
10000000
00000000
00000000
00000000
10010000
00000000
00000000
,
01020000
00000000
01000000
00000000
,
10000000
00000000
00130000
00000000
,
00002000
00000000
00010000
00000000
,
00100000
00000000
00013000
00000000
,
00000100
00001000
00000100
00000010
,
00000001
00000100
00001010
00000000
,
00000100
00010000
00001000
00010000
,
00100000
01000000
01010000
00000000
,
10000000
01000000
00100000
00010000
,
10000000
00000000
01000000
00000000
00000000
01000000
00000000
00000000
00000000
00100000
00000000
00000000
,
00010000
01000000
00100000
10000000
,
00010000
00000000
01000000
00000000
00000000
01000000
00000000
00000000
00000000
00001000
00000000
00000000
,
00011000
00010000
00000100
00001000
,
00000100
00010000
00000100
00001000
,
00000001
00000100
00000001
00001000
,
00000001
00000100
00000001
00001000
,
00000100
00000010
00000001
00001000
,
00000100
00000000
00000010
00000000
00000000
00000010
00000000
00000000
00000000
00000001
00000000
00000000
,
00000100
00000010
00001000
00000001
,
00000100
00000000
00000010
00000000
00000000
00000010
00000000
00000000
00000000
00001000
00000000
00000000
,
00011000
00010000
00001000
00100000
,
00001000
00010000
00001000
00100000
,
00010000
01000000
00010000
00100000
,
00010000
01000000
00010000
00100000
,
00002000
00000000
00003200
00000000
,
00000302
00000000
00000000
00000000
00000000
00000000
00000023
00000000
00000000
00000000
00000030
00002000
,
00000000
00000000
00000000
00023000
,
00230000
00000000
00000000
20300000
00000000
00000000
32000000
00000000
00000000
03020000
00000000
00002000
,
00030000
00000000
00003000
00020000
,
00032000
00000000
00000000
00023000
00000000
00000000
00030200
00000000
00000000
00002300
00000000
00003001
,
00000000
00000101
00000000
00001100
,
00000000
00000000
00000000
00011000
00000000
00000000
00000000
00000000
00000000
00010000
00000000
00001000
,
00000000
00000000
00000000
00001000
00000000
00000000
00010000
00000000
00000000
01000000
00000000
10000000
,
00000000
00000000
00000000
10000000
00000000
00000000
01000000
00000000
00000000
00010000
00000000
00001000
,
00000000
00010000
00000100
00001000
,
00001100
00000000
00000000
00000101
00000000
00000000
00001100
00000000
00000000
00000001
00000000
00000100
,
00000000
00000000
00000000
00000010
00000000
00000000
00001000
00000000
00000000
00000010
00000000
00010000
,
00000000
00000000
00000000
00001000
00000000
00000000
01000000
00000000
00000000
00010000
00000000
00100000
,
00000000
10000000
00010000
00100000
,
11000000
00000000
00000000
01010000
00000000
00000000
11000000
00000000
00000000
00010000
00000000
01000000
,
00000000
00000000
00000000
00010000
00000000
00000000
00100000
00000000
00000000
00001000
00000000
00010000
,
00000000
00000000
00000000
00000010
00000000
00000000
00001000
00000000
00000000
00000010
00000000
00000100
,
00000000
00000010
00001000
00000100
,
00011000
00000000
00000000
00010100
00000000
00000000
00011000
00000000
00000000
00000010
00000000
00001000
,
00000000
00000000
00000000
00000100
00000000
00000000
00000010
00000000
00000000
00000001
00000000
00001000
,
00000000
00000000
00000000
00000001
00000000
00000000
00000100
00000000
00000000
00000010
00000000
00000100
,
00000000
00000010
00010000
00001000
,
00011000
00101000
00011000
00000000
,
00022000
00033000
00202000
00303000
,
00220000
00330000
02200000
03300000
,
22000000
00000000
33000000
00000000
,
10000000
00010000
10000000
00010000
,
02020000
03030000
02002000
03003000
,
00022000
00033000
00020200
00030300
,
00002200
00000000
00003300
00000000
,
00001000
00000100
00001000
00000001
,
00000100
00000001
00000100
00000010
,
00001000
00000000
00000000
00000100
00000000
00001000
00000000
00000000
00000000
00000000
00000000
00000000
,
00010000
00001000
00010000
00000100
,
00010000
00000000
00000000
00001000
00000000
00010000
00000000
00000000
00000000
00000000
00000000
00000000
,
00100000
01000000
00010000
10000000
,
00010000
00000000
00100000
00000000
00000000
00100000
00000000
00000000
00000000
00000000
00000000
00000000
,
00000000
00000000
00011000
00000000
00000000
00011000
00000000
00000000
00000000
00000000
00000000
00000000
,
00000000
00000000
00001100
00000000
00000000
00001100
00000000
00000000
00000000
00000000
00000000
00000000
,
00000001
00000100
00001000
00010000
,
00200000
00300000
00000000
00000000
;

//---------------dance-double - ----------------
#NOTES:
     dance-double:
     :
     Easy:
     3:
     0.250,0.328,0.171,0.218,0.000:
00000000
00000000
00000000
00000000
,
00000000
00000000
00000000
00000000
,
00000000
00000000
00000000
00000000
,
00000000
00000000
00000000
00000000
,
10000000
00000000
00010000
00000000
,
00100000
00000000
00110000
00000000
,
00001000
00000000
00010000
00000000
,
00000100
00000000
00001100
00000000
,
00000001
00000000
00000100
00000000
,
00000020
00000000
00000030
00000000
,
00020000
00000000
00030000
00000000
,
00002000
00000000
00003000
00000000
,
00011000
00000000
00000000
00000000
,
00000000
00000000
00000000
00000000
,
00000000
00000000
00000000
00000000
,
00000000
00000000
00000000
00000000
,
00100000
00000000
00010000
00000000
,
01000000
00000000
10010000
00000000
,
00001000
00000000
00010000
00000000
,
00001000
00000000
00011000
00000000
,
00000100
00000000
00001000
00000000
,
00000010
00000000
00000110
00000000
,
00000001
00000000
00001000
00000000
,
00000100
00000000
00011000
00000000
,
00010000
00000000
00001000
00000000
,
01000000
00000000
00010000
00000000
,
10000000
00000000
01000000
00000000
,
00100000
00000000
00010000
00000000
,
01000000
00000000
00010000
00000000
,
01000000
00000000
01100000
00000000
,
10000000
00000000
00010000
00000000
,
00100000
00000000
00011000
00000000
,
00001000
00000000
00010000
00000000
,
00000100
00000000
00001000
00000000
,
00000010
00000000
00000100
00000000
,
00000001
00000000
00000010
00000000
,
00000200
00000000
00002300
00000000
,
00003200
00000000
00020300
00000000
,
00032000
00000000
00003000
00000000
,
00200000
00000000
00320000
00000000
,
02030000
00000000
03000000
00000000
,
20000000
00000000
30020000
00000000
,
00130000
00000000
00110000
00000000
,
00001000
00000000
00011000
00000000
,
00001000
00000000
00010000
00000000
,
00000010
00000000
00001000
00000000
,
00000100
00000000
00000010
00000000
,
00000001
00000001
00000001
00000001
,
00000100
00000000
00000010
00000000
,
00001000
00000000
00000100
00000000
,
00010000
00000000
00001000
00000000
,
00010000
00010000
00010000
00010000
,
00001000
00000000
01000000
00000000
,
00010000
00000000
00100000
00000000
,
00010000
00000000
10000000
00000000
,
01000000
01000000
01000000
01000000
,
10000000
00000000
01000000
00000000
,
00100000
00000000
00010000
00000000
,
01000000
00000000
00100000
00000000
,
10000000
10000000
10000000
10000000
,
00020000
00000000
00230000
00000000
,
00302000
00000000
00023000
00000000
,
00032000
00000000
00003000
00000000
,
00011000
00000000
00000000
00000000
,
00020000
00000000
00030200
00000000
,
00002300
00000000
00003020
00000000
,
00000230
00000000
00000000
00000300
,
00000001
00000100
00000010
00001000
,
00000100
00000000
00001000
00000000
,
00000100
00000000
00011000
00000000
,
01000000
00000000
00010000
00000000
,
01000000
00000000
00011000
00000000
,
00000010
00000000
00001000
00000000
,
00000010
00000000
00011000
00000000
,
00100000
00000000
00011000
00000000
,
00000100
00000000
00011000
00000000
,
00010000
00001000
00010000
00001000
,
00011000
00000000
00000000
00000000
;
