#TITLE:Megaton Bomb;
#SUBTITLE:;
#ARTIST:Shatter;
#TITLETRANSLIT:;
#SUBTITLETRANSLIT:;
#ARTISTTRANSLIT:;
#GENRE:;
#CREDIT:;
#MENUCOLOR:;
#METERTYPE:DDR;
#BANNER:Megaton Bomb-bn.png;
#BACKGROUND:Megaton Bomb-bg.png;
#LYRICSPATH:;
#CDTITLE:ddrencorecdtitle.png;
#MUSIC:Megaton Bomb.mp3;
#OFFSET:-0.030;
#SAMPLESTART:59.460;
#SAMPLELENGTH:11.780;
#SELECTABLE:YES;
#LISTSORT:;
#BPMS:0.000=160.000,159.000=320.000,416.000=160.000,436.000=320.000;
#STOPS:159.000=0.200
,416.000=0.188
,417.000=0.188
,417.500=0.187
,418.000=0.187
,418.500=0.188
,419.000=0.187
,421.000=0.187
,422.000=0.187
,422.500=0.188
,423.000=0.188
,424.000=0.187
,425.000=0.187
,426.000=0.187
,427.000=0.188
,427.500=0.187
,428.000=0.188
,428.500=0.187
,429.000=0.187
,431.000=0.187
,432.000=0.188
,432.500=0.188
,433.500=0.188
,434.000=0.188
,434.500=0.188
;
#BGCHANGES:;
#ATTACKS:;

//---------------dance-single - ----------------
#NOTES:
     dance-single:
     :
     Hard:
     11:
     0.787,1.000,0.336,0.247,0.034:
0000
0000
0000
0000
,
0000
0000
0000
0000
,
0000
0000
0000
0000
,
0000
0000
0000
0000
,
0000
0000
0000
0000
,
0000
0000
0000
0000
,
0000
0000
0000
0000
,
0000
0000
0000
0000
,
0002
0000
0000
0000
,
0203
0000
0000
0000
,
0320
0000
0000
0000
,
2030
0000
0000
0000
,
3002
0000
0000
0000
,
2003
0000
0000
0000
,
3200
0000
0000
0000
,
0320
0000
0000
0000
,
0031
0000
1001
0001
0100
0000
0110
0010
,
0000
1000
1010
0000
0010
0110
0100
0101
,
0001
0000
1001
1000
0100
0000
0011
0001
,
0000
0000
1000
0000
1010
0000
0000
0000
0010
0000
0100
0001
0100
0000
0001
1000
,
0001
0000
1001
0001
0010
0000
1100
0100
,
0000
1000
1001
0000
0001
0101
0100
0110
,
0010
0000
1010
0010
0100
0000
0101
0001
,
0000
0000
1000
0000
1001
0000
0000
0000
0001
0000
0010
0100
0010
0000
0100
1000
,
0100
1000
0001
0100
0010
0100
0002
0000
,
1003
0100
0010
0001
0100
0001
2000
0000
,
3001
0100
0010
1000
0001
0010
0200
0000
,
1300
0001
0100
0001
1000
0010
0200
0000
,
0301
0100
1000
0100
0010
1000
0200
0000
,
0310
0100
0001
0100
0010
0001
2000
0000
,
3001
0010
1000
0010
0001
0100
0020
0000
,
1030
0000
0000
0001
0000
0000
1000
0000
0000
0001
0000
0000
1000
0000
0001
0000
,
0200
0000
0000
0000
,
0320
0000
0000
0000
,
0230
0000
0000
0000
,
0302
0000
0000
0000
,
1003
0100
0010
0001
,
1000
0100
0010
0001
,
1001
0000
0000
0101
0000
0000
1010
0000
0000
0110
0000
0000
0101
0000
0101
0000
,
1001
0000
0000
0000
0000
0000
0000
0000
1000
0100
0010
0001
1000
0000
0000
0000
,
0101
0000
0001
1000
0000
1000
0100
0000
,
0100
0010
0000
0010
0001
0000
0100
0000
,
0010
0000
0010
0100
0000
0100
0001
0000
,
0001
0010
0000
0010
0100
1000
0100
1000
,
0001
0000
0001
0100
0000
0100
0010
0000
,
0010
1000
0000
1000
0001
0000
1000
0000
,
0100
0000
0100
0010
0000
0010
0001
0000
,
0001
0100
0000
0100
0010
1000
0010
0100
,
0001
0000
0001
1000
0000
1000
0001
0000
,
0001
0010
0000
0010
0100
0000
1000
0000
,
0010
0000
0010
0100
0000
0100
0010
0000
,
0010
1000
0000
1000
0001
0010
0001
1000
,
0001
0000
0100
0010
1000
0000
0010
0100
,
0001
0000
1000
0100
1000
0000
0100
0010
,
0001
1000
0001
1000
0001
1000
0001
1000
,
0010
0100
0010
0100
0001
0010
0100
1000
,
0001
0000
1000
0100
0000
0010
0001
0000
,
0100
0010
0000
0100
0001
1000
0010
0100
,
0001
0000
1000
0100
0000
0010
0001
0000
,
0100
0010
0000
0100
0001
1000
0001
1000
,
0001
0000
0010
0100
0000
1000
0010
0000
,
1000
0001
0000
1000
0100
0010
0001
0010
,
0100
0000
1000
0001
0000
0100
0010
0000
,
0100
0001
0000
1000
0100
0010
0100
0010
,
0100
0000
0010
0001
0000
1000
0010
0000
,
0100
0001
0000
1000
0100
0010
0001
0100
,
0010
0000
0100
0001
0000
1000
0010
0000
,
1000
0001
0000
1000
0001
0100
0001
0100
,
0001
0000
1000
0100
0010
0000
0001
0010
,
0100
0000
1000
0001
1000
0000
0001
0100
,
0010
1000
0010
1000
0010
1000
0010
1000
,
0001
0010
0001
0010
0100
1000
0001
0100
,
0010
0001
0010
0100
,
0001
0010
1100
0110
,
0010
0001
0100
1000
,
0200
0320
2030
3002
,
1003
0100
0001
0100
,
0010
0001
1001
0101
,
0100
0010
1000
0001
,
1000
0001
0100
0000
0110
0000
0000
0000
,
0010
0001
0010
0100
,
0001
0010
1100
0110
,
0010
0001
0100
1000
,
0200
0320
2030
3002
,
1003
0100
0001
0100
,
0010
0001
1001
0101
,
0100
0010
1000
0000
0001
0000
0010
0000
,
1000
0000
0010
0000
0001
1000
0001
0000
,
1001
0001
0100
1000
,
0100
0010
1010
0101
,
0001
0010
1000
0010
,
0002
0203
0320
2030
,
3001
0010
1000
0010
,
0001
0100
0110
1010
,
0010
0001
0010
0100
,
0001
1000
0100
0000
0110
0000
0000
0000
,
0010
1000
0010
0001
,
0100
0010
1010
0110
,
0100
0001
0010
0100
,
2000
3020
0230
0302
,
1003
0010
0100
1000
,
0100
0001
1001
1100
,
1000
0100
1000
0100
0010
0001
0010
0001
,
1000
0010
0100
0001
1000
0001
0010
0100
,
1000
0001
0001
0100
0010
0100
0001
1000
,
0100
0010
0001
1000
1000
0010
1000
0001
,
1000
0100
0100
0010
0011
0001
0001
1000
,
0001
0100
0010
1000
0100
1000
0001
0100
,
0100
0010
1000
0001
1000
0100
0011
0000
,
0001
0000
1000
0010
0000
0100
0001
0000
,
1000
0100
0000
0010
0001
0010
0100
1000
,
0010
0000
0100
0001
0000
1000
0010
0000
,
1000
0001
0000
1000
0100
0010
0001
0010
,
0100
0000
1000
0010
0000
0100
0001
0000
,
1000
0100
0000
0010
0001
0010
0100
0010
,
0001
0000
1000
0010
0000
0100
0001
0000
,
1000
0100
0000
1000
0001
1000
0001
1000
,
0001
0000
0100
0010
0000
1000
0010
0000
,
0100
0001
0000
1000
0100
0010
0100
1000
,
0001
0000
1000
0010
0000
1000
0001
0000
,
0100
0010
0000
0100
0001
1000
0100
1000
,
0001
0000
0100
0010
1000
0000
0010
0100
,
0001
0000
1000
0001
1000
0000
0001
1000
,
0100
0010
0100
0010
0100
0010
0100
0010
,
0100
1000
0100
1000
0001
0100
0010
1000
,
0001
0100
0001
0100
0010
1000
0010
1000
,
0001
0100
0001
0100
0001
0000
1000
0000
,
0100
0010
0100
0010
0001
1000
0001
1000
,
0100
0010
0100
0010
0001
0000
1000
0000
,
0001
0010
0001
0010
0100
1000
0100
1000
,
0001
0010
0001
0010
0100
0000
1000
0000
,
0010
0100
0010
0100
0001
1000
0001
1000
,
0010
0100
0010
0100
0001
0010
0100
1000
,
0001
0000
0100
0000
0110
0000
0010
1000
,
0001
0000
1000
0000
1001
0000
1000
0100
,
0010
0000
0001
0000
0011
0000
0001
1000
,
0010
0000
0100
0000
0110
0000
0100
0001
,
1000
0000
0001
0010
0100
0000
1000
0100
,
0010
0000
0001
1000
0001
0000
1000
0001
,
1000
0010
1000
0010
0100
0001
0100
0001
,
1000
0100
0010
0100
1000
0010
0100
0001
,
2000
0000
0000
0000
,
0000
0000
0000
0000
,
3000
0000
0000
0000
;

//---------------dance-double - ----------------
#NOTES:
     dance-double:
     :
     Hard:
     11:
     0.753,0.884,0.453,0.137,0.051: // measure 1
00000000
00000000
00000000
00000000
,  // measure 2
00000000
00000000
00000000
00000000
,  // measure 3
00000000
00000000
00000000
00000000
,  // measure 4
00000000
00000000
00000000
00000000
,  // measure 5
00000000
00000000
00000000
00000000
,  // measure 6
00000000
00000000
00000000
00000000
,  // measure 7
00000000
00000000
00000000
00000000
,  // measure 8
00000000
00000000
00000000
00000000
,  // measure 9
00002000
00000000
00000000
00000000
,  // measure 10
02003000
00000000
00000000
00000000
,  // measure 11
03020000
00000000
00000000
00000000
,  // measure 12
00230000
00000000
00000000
00000000
,  // measure 13
00302000
00000000
00000000
00000000
,  // measure 14
00023000
00000000
00000000
00000000
,  // measure 15
00030020
00000000
00000000
00000000
,  // measure 16
00000230
00000000
00000000
00000000
,  // measure 17
00000301
00000000
00001100
00000000
00010000
00000000
00001000
00100000
,  // measure 18
00000000
00010000
10000000
00000000
00100000
10000000
00010000
01000000
,  // measure 19
10000000
00000000
01010000
00000000
00001000
00000000
00010000
00000010
,  // measure 20
00000000
00001000
00000001
00000000
00000010
00001100
00000000
00010100
,  // measure 21
00010000
00000000
01001000
00000000
00100000
00000000
10000000
00010000
,  // measure 22
00000000
01000000
00001000
00000000
00010000
00100000
10000000
00100000
,  // measure 23
00001000
00000000
00010100
00000000
00000010
00000000
00000001
00001000
,  // measure 24
00000000
00000100
00010000
00000000
00001000
00110000
00000000
00101000
,  // measure 25
00002000
00010000
00010000
00000000
01000000
00000000
00100000
00103000
,  // measure 26
00020000
10000000
10000000
00000000
01000000
01030000
00001000
00010000
,  // measure 27
00000200
00001000
00001000
00000000
00000010
00000000
00010000
00010300
,  // measure 28
00002000
00100000
00100000
00000000
01000000
01003000
00010000
10000000
,  // measure 29
01000000
10000000
00100000
00010000
00100000
01000000
00020000
00000000
,  // measure 30
00130000
00001000
00010000
01000000
00010000
00001000
00000020
00000000
,  // measure 31
00000031
00001000
00000010
00000001
00000010
00000100
00000002
00000000
,  // measure 32
00001003
00000000
00000000
00000101
00000000
00000000
00000001
00000000
00000000
00001100
00000000
00000000
00010000
00000000
00001000
00000000
,  // measure 33
02000000
00000000
00000000
00010000
00000000
00000000
00001000
00000000
00000000
00010000
00000000
00000000
03100000
00000000
01000000
00000000
,  // measure 34
00002000
00000000
00000000
00010000
00000000
00000000
01000000
00000000
00000000
00010000
00000000
00000000
00103000
00000000
00001000
00000000
,  // measure 35
00020000
00000000
00000000
00001000
00000000
00000000
00000100
00000000
00000000
00001000
00000000
00000000
00030010
00000000
00010000
00000000
,  // measure 36
00000200
00000000
00000000
00001000
00000000
00000000
00010000
00000000
00000000
00001000
00000000
00000000
00000310
00000000
00000100
00000000
,  // measure 37
00001000
00000001
00000100
00001000
,  // measure 38
00010000
00100000
10000000
00010000
,  // measure 39
11000000
00000000
00000000
01100000
00000000
00000000
00110000
00000000
00000000
00011000
00000000
00000000
00001100
00000000
00000110
00000000
,  // measure 40
00000011
00000000
00000000
11000000
,  // measure 41
00010000
01000000
10000000
01000000
,  // measure 42
00100000
00000000
10000000
00000000
00010000
00100000
00010000
01000000
,  // measure 43
00010000
00100000
10000000
00100000
,  // measure 44
00001000
00000000
00010000
00001000
00010000
00000000
00010100
00000000
,  // measure 45
00001000
00000010
00000001
00000010
,  // measure 46
00000100
00000000
00000001
00000000
00001000
00000100
00001000
00000010
,  // measure 47
00001000
00000100
00000001
00000100
,  // measure 48
00001000
00000010
00000100
00000001
00001000
00000010
00000100
00000001
,  // measure 49
00001000
00000010
00000001
00000010
,  // measure 50
00000100
00000000
00000001
00000000
00001000
00000100
00000010
00000100
,  // measure 51
00001000
00000100
00010000
00001000
,  // measure 52
01000000
00000000
00010000
00100000
01000000
00000000
10010000
00000000
,  // measure 53
10000000
00000000
01000000
10000000
00100000
00000000
01000000
00010000
,  // measure 54
00100000
00000000
00001000
00010000
00001000
00000000
01000000
00000000
,  // measure 55
00100000
10000000
00100000
01000000
00010000
00100000
01000000
00100000
,  // measure 56
00001000
00010000
00000100
00001000
00000010
00000100
00000010
00001000
,  // measure 57
00000001
00000000
00000001
00000010
00000000
00000010
00000100
00000000
,  // measure 58
00000100
00001000
00000000
00001000
00000010
00000000
00010000
00000000
,  // measure 59
00001000
00000000
00001000
01000000
00000000
01000000
00010000
00000000
,  // measure 60
00010000
00100000
00000000
00100000
01000000
00000000
10000000
00000000
,  // measure 61
00010000
00000000
00010000
01000000
00000000
01000000
00100000
00000000
,  // measure 62
00100000
10000000
00000000
10000000
00010000
00000000
01000000
00000000
,  // measure 63
00100000
00000000
10000000
00010000
00000000
01000000
00001000
00000000
,  // measure 64
00100000
00010000
00000000
10000000
01000000
00000000
10010000
00000000
,  // measure 65
10000000
00000000
10000000
01000000
00000000
01000000
00100000
00000000
,  // measure 66
00100000
00010000
00000000
00010000
01000000
00000000
00001000
00000000
,  // measure 67
00010000
00000000
00010000
00000100
00000000
00000100
00001000
00000000
,  // measure 68
00001000
00000010
00000000
00000010
00000100
00000000
00000010
00000000
,  // measure 69
00001000
00000000
00000010
00000100
00000001
00000000
00000010
00000100
,  // measure 70
00001000
00000000
00000001
00000100
00000001
00000000
00001000
00000000
,  // measure 71
00000100
00000010
00000100
00001000
00000010
00010000
00000100
00010000
,  // measure 72
00001000
01000000
00100000
10000000
00010000
00100000
00010000
01000000
,  // measure 73
00100000
10000000
00010000
00100000
,  // measure 74
00011000
00010000
00000010
00001001
,  // measure 75
00000001
00000010
00000110
00001000
,  // measure 76
00000100
00010100
00011000
00001000
,  // measure 77
01001000
00010000
00100000
01000000
,  // measure 78
11000000
10000000
00010000
00101000
,  // measure 79
00100000
00010000
01000000
00100000
,  // measure 80
01010000
00000000
01001000
00000000
,  // measure 81
00010100
00001000
00000010
00000100
,  // measure 82
00001001
00000001
00000010
00010100
,  // measure 83
00000100
00001000
00001001
00000100
,  // measure 84
00010000
00011000
00101000
00010000
,  // measure 85
01010000
10000000
00100000
01000000
,  // measure 86
01010000
10000000
00010000
00101000
,  // measure 87
00010000
00001000
00010000
00000000
00000100
00000000
00001000
00000000
,  // measure 88
00001001
00000000
00000001
00000000
00000100
00000010
00001000
00000000
,  // measure 89
00000001
00000001
00001000
00000100
,  // measure 90
00011000
00001000
01000000
10010000
,  // measure 91
10000000
01000000
01100000
00010000
,  // measure 92
00100000
00101000
00011000
00010000
,  // measure 93
00010010
00001000
00000100
00000010
,  // measure 94
00000011
00000001
00001000
00010100
,  // measure 95
00000100
00001000
00000010
00010000
,  // measure 96
00001100
00000000
00010010
00000000
,  // measure 97
00101000
00010000
01000000
00100000
,  // measure 98
10010000
10000000
01000000
00101000
,  // measure 99
00100000
00010000
10010000
00100000
,  // measure 100
00001000
00011000
00010100
00001000
,  // measure 101
00001010
00000001
00000100
00000010
,  // measure 102
00001010
00000001
00001000
00010100
,  // measure 103
00001000
00010000
00001000
00000000
00100000
00000000
00010000
00000000
,  // measure 104
00100000
00000000
10010000
00000000
00100000
00010000
10000000
00000000
,  // measure 105
01010000
10000000
00010000
00100000
00001000
00010000
00000100
00001000
,  // measure 106
00000001
00000100
00000010
00010000
00010000
00001000
01000000
00100000
,  // measure 107
00100000
10000000
00010000
01000000
01100000
10000000
00010000
00100000
,  // measure 108
00001000
00010000
00000100
00001000
00000010
00000100
00000001
00001000
,  // measure 109
00001000
00000000
00000100
00000000
00010000
00001000
00010000
00000000
00001000
00000000
00100000
00000000
01000000
00100000
00010000
10000000
,  // measure 110
01000000
10000000
01000000
00100000
,  // measure 111
00001000
00000000
00010000
00000000
00000100
00001000
00000010
00000100
,  // measure 112
00000001
00000010
00000100
00001000
,  // measure 113
00000100
00010000
00001000
00010000
00000100
00001000
00000010
00000100
,  // measure 114
00000001
00000010
00000100
00001000
,  // measure 115
00000100
00000000
00010000
00000000
00001000
00100000
00010000
01000000
,  // measure 116
00100000
10000000
00010000
00100000
,  // measure 117
01000000
10000000
01000000
00100000
00010000
01000000
00001000
00010000
,  // measure 118
00000100
00001000
00000010
00000100
,  // measure 119
00000001
00000000
00000010
00000000
00000100
00001000
00000100
00010000
,  // measure 120
00001000
01000000
00100000
10000000
,  // measure 121
00010000
00100000
00010000
10000000
01000000
00100000
00001000
00010000
,  // measure 122
00000100
00000000
00010000
00001000
01000000
00000000
00010000
00100000
,  // measure 123
01000000
00000000
00100000
00010000
00100000
00000000
00001000
00000000
,  // measure 124
00010000
00001000
00010000
00000100
00001000
00000010
00000100
00000001
,  // measure 125
00001000
00000100
00010000
00001000
00100000
00001000
01000000
00010000
,  // measure 126
00100000
00000000
00100000
01000000
00000000
01000000
10000000
00000000
,  // measure 127
10000000
00010000
00000000
00010000
01000000
00100000
10000000
00010000
,  // measure 128
01000000
00000000
01000000
00001000
00000000
00001000
00010000
00000000
,  // measure 129
00010000
00000100
00000000
00000100
00001000
00000010
00000100
00000001
,  // measure 130
00000010
00000000
00000010
00000001
00000000
00000001
00001000
00000000
,  // measure 131
00001000
00000100
00000000
00000100
00000010
00000001
00001000
00000100
,  // measure 132
00010000
00000000
00010000
00001000
00000000
00001000
01000000
00000000
,  // measure 133
01000000
00010000
00000000
00010000
00100000
01000000
10000000
00100000
,  // measure 134
01000000
00000000
00100000
10000000
00010000
00000000
00100000
00000000
,  // measure 135
11000000
00000000
00100000
00010000
01000000
00000000
00001000
00000000
,  // measure 136
00011000
00000000
00010000
00000100
00001000
00000000
00000010
00000000
,  // measure 137
00001001
00000000
00000001
00000100
00000010
00000000
00001000
00000000
,  // measure 138
00000001
00000010
00000100
00001000
00000100
00010000
00001000
00100000
,  // measure 139
00010000
10000000
01000000
00100000
00010000
00100000
00001000
00010000
,  // measure 140
00000100
00001000
00000001
00000010
00000001
00000010
00000100
00001000
,  // measure 141
00000100
00001000
00000001
00000100
00000010
00010000
00001000
00010000
,  // measure 142
00000200
00000000
00000000
00000000
,  // measure 143
00000000
00000000
00000000
00000000
,  // measure 144
00000300
00000000
00000000
00000000
;

//---------------dance-single - ----------------
#NOTES:
     dance-single:
     :
     Medium:
     9:
     0.513,0.884,0.213,0.089,0.007:
0000
0000
0000
0000
,
0000
0000
0000
0000
,
0000
0000
0000
0000
,
0000
0000
0000
0000
,
0000
0000
0000
0000
,
0000
0000
0000
0000
,
0000
0000
0000
0000
,
0000
0000
0000
0000
,
2000
0000
0000
0000
,
3020
0000
0000
0000
,
0230
0000
0000
0000
,
0302
0000
0000
0000
,
2003
0000
0000
0000
,
3002
0000
0000
0000
,
0023
0000
0000
0000
,
0230
0000
0000
0000
,
1300
0000
0001
0100
0001
0000
0010
0100
,
0000
0100
1000
0000
0010
0100
0000
0001
,
0000
1000
0010
0000
1000
0000
0001
0010
,
0000
0010
0100
0000
0010
1001
0000
0110
,
0001
0000
1000
0100
1000
0000
0010
0100
,
0000
0100
0001
0000
1000
0010
0000
1000
,
0000
0001
0100
0000
0010
0000
1000
0100
,
0000
0100
0010
0000
0001
0110
0000
1001
,
0100
0000
0100
0000
0100
0000
1000
0010
,
0100
0000
0100
0000
0100
0001
0100
0001
,
0010
0000
0010
0000
0010
0000
0001
0100
,
0010
0000
0010
0000
0010
0100
0010
1000
,
0001
0000
0001
0000
0001
0000
0100
0010
,
1000
0000
1000
0000
1000
0010
0100
0001
,
1000
0000
1000
0000
1000
0000
0010
0100
,
0001
0000
0001
0000
0001
0010
0100
1000
,
0002
0000
0000
0000
,
2003
0000
0000
0000
,
3020
0000
0000
0000
,
0230
0000
0000
0000
,
0301
0100
0010
1000
,
0001
0100
0010
1000
,
0001
0000
0000
0001
0000
0000
1000
0000
0000
1000
0000
0000
0010
0000
0100
0000
,
0001
0000
0000
1001
,
1000
0000
0000
0100
0000
0000
1000
0000
,
0000
0001
0000
0000
0100
0000
0010
0000
,
0001
0000
0000
0100
0000
0000
0001
0000
,
0000
1000
0000
0000
0100
0000
0010
0000
,
1000
0000
0000
0010
0000
0000
1000
0000
,
0000
0001
0000
0000
0010
0000
0100
0000
,
0001
0000
0000
0010
0000
0000
0001
0000
,
0000
1000
0000
0000
0010
0000
0100
0000
,
1000
0000
0000
0010
0000
0000
0001
0000
,
0000
0100
0000
0000
1000
0000
0010
0000
,
0001
0000
0000
0100
0000
0000
1000
0000
,
0000
0010
0000
0000
0001
0000
0010
0000
,
0100
0010
0001
1000
,
0010
0100
1000
0010
,
0101
0000
0101
0000
,
1100
0000
1100
0000
,
0001
0010
0100
0001
,
0100
1000
0010
0010
,
1000
0100
0010
1000
,
0010
0001
0100
0100
,
0001
0100
0010
0001
,
0010
1000
0100
0100
,
1000
0010
0100
1000
,
0100
0001
0010
0010
,
0100
0001
1000
0010
,
0100
1000
0010
0010
,
0100
1000
0001
0010
,
0100
0001
0010
0010
,
0100
1000
0010
0100
,
1000
0001
0010
0100
,
0011
0000
0011
0000
,
1010
0000
1010
0000
,
0001
0100
0010
1000
,
0100
0010
0100
1000
,
0000
1000
0010
0000
,
0100
0001
0100
0001
,
1000
0100
0010
0001
,
0100
0001
0010
0100
,
0000
0100
0010
0000
,
1001
0000
1001
0000
,
0010
0001
0100
0010
,
1000
0100
0010
0001
,
0000
0001
0100
0000
,
0010
1000
0010
1000
,
0100
0010
0001
0100
,
0010
1000
0001
1000
,
0010
0100
0010
0000
1000
0000
0001
0000
,
0010
0000
0100
0000
0010
0100
0010
0000
,
0001
0100
0010
1000
,
0100
0010
0001
1000
,
0000
1000
0010
0100
,
0001
0010
0100
0100
,
0010
0001
0100
0010
,
1000
0000
0001
0100
,
0000
0100
0010
0000
,
1010
0000
0101
0000
,
0001
0010
0100
1000
,
0010
0100
0001
1000
,
0000
1000
0010
1000
,
0100
0010
0001
0001
,
0100
0010
1000
0100
,
0010
0001
1000
0010
,
0100
0010
0100
0000
0001
0000
1000
0000
,
0100
0000
0010
0000
0100
0010
0100
0000
,
1001
1000
1000
0100
0010
0001
1000
0001
,
0100
0010
0010
0100
0100
0001
0010
0100
,
0100
1000
1000
0001
0001
0100
0100
0010
,
1000
0100
0010
0001
0100
0010
0010
0100
,
0100
0001
1000
1000
0100
0010
1001
0000
,
0001
0000
0000
0100
0000
0000
0010
0000
,
0000
1000
0000
0000
0100
0000
1000
0000
,
0010
0000
0000
0100
0000
0000
0001
0000
,
0000
1000
0000
0000
0010
0000
1000
0000
,
0100
0000
0000
0010
0000
0000
0100
0000
,
0000
1000
0000
0000
0001
0000
0100
0000
,
0010
0000
0000
1000
0000
0000
0001
0000
,
0000
0010
0000
0000
0100
0000
1000
0000
,
0010
0000
0000
0100
0000
0000
1000
0000
,
0000
0100
0000
0000
0001
0000
0010
0000
,
0100
0000
0000
0001
0000
0000
0100
0000
,
0000
1000
0000
0000
0010
0000
0100
0000
,
0001
0010
0100
0010
,
0001
1000
0010
0100
,
0101
0000
1100
0000
,
0011
0000
1010
0000
,
1000
0100
0000
0100
1000
0000
0010
0000
,
0000
0100
0000
0000
0001
0000
1000
0000
,
0100
0010
0000
0010
0001
0000
1000
0000
,
0000
0010
0000
0000
0100
0000
0001
0000
,
1000
0010
0000
0010
0100
0000
0001
0000
,
0000
0010
0000
0000
0100
0000
1000
0000
,
0001
0100
0000
0100
0010
0000
1000
0000
,
0000
0001
0000
0000
0100
0000
0010
0000
,
0110
0000
0000
0000
,
1001
0000
0000
0000
,
0101
0000
0000
0000
,
1100
0000
0000
0000
,
0101
0000
0110
0000
,
1010
0000
1001
0000
,
0001
0000
0010
0100
1000
0000
0010
0100
,
0001
0000
1000
0001
0100
0000
0001
1000
,
0020
0000
0000
0000
,
0000
0000
0000
0000
,
0030
0000
0000
0000
;

//---------------dance-single - ----------------
#NOTES:
     dance-single:
     :
     Beginner:
     3:
     0.215,0.390,0.151,0.110,0.000:
0000
0000
0000
0000
,
0000
0000
0000
0000
,
0000
0000
0000
0000
,
0000
0000
0000
0000
,
0000
0000
0000
0000
,
0000
0000
0000
0000
,
0000
0000
0000
0000
,
0000
0000
0000
0000
,
2000
0000
0000
0000
,
3000
0000
0000
0000
,
0002
0000
0000
0000
,
0003
0000
0000
0000
,
0020
0000
0000
0000
,
0030
0000
0000
0000
,
0200
0000
0000
0000
,
0300
0000
0000
0000
,
1000
0000
0100
0000
,
1000
0000
0010
0010
,
0010
0000
0100
0000
,
0001
0000
0010
0010
,
0010
0000
0100
0000
,
1000
0000
0001
0001
,
0001
0000
0100
0000
,
0010
0000
1000
1000
,
2000
0000
3000
0000
,
0001
0000
0010
0000
,
0200
0000
0300
0000
,
0010
0000
0001
0000
,
0020
0000
0030
0000
,
0100
0000
1000
0000
,
0002
0000
0003
0000
,
2000
0000
3000
0000
,
0001
0000
0000
0000
,
1000
0000
0000
0000
,
0010
0000
0000
0000
,
0100
0000
0000
0000
,
0001
0000
0000
0000
,
0100
0000
0000
0000
,
1001
0000
1001
0000
,
0020
0000
0030
0100
,
0100
0000
0000
0000
,
0100
0000
0000
0000
,
0010
0000
0000
0000
,
0010
0000
0000
0000
,
1000
0000
0000
0000
,
1000
0000
0000
0000
,
0001
0000
0000
0000
,
1001
0000
0000
0000
,
0001
0000
0000
0000
,
0001
0000
0000
0000
,
0010
0000
0000
0000
,
0010
0000
0000
0000
,
0110
0000
0000
0000
,
1001
0000
0000
0000
,
0001
0000
0100
0000
,
0010
0000
1000
0000
,
0001
0000
0000
0000
,
0100
0000
0000
0000
,
0001
0000
0000
0000
,
0100
0000
0000
0000
,
0010
0000
0000
0000
,
1000
0000
0000
0000
,
0010
0000
0000
0000
,
1001
0000
0000
0000
,
1000
0000
0000
0000
,
0100
0000
0000
0000
,
0010
0000
0000
0000
,
0001
0000
0000
0000
,
1001
0000
0000
0000
,
0110
0000
0000
0000
,
0010
0000
1000
0000
,
0100
0000
0010
0000
,
0001
0000
0001
0000
,
0001
0000
0000
0000
,
0100
0000
0000
0000
,
0010
0000
0000
0000
,
1000
0000
1000
0000
,
1000
0000
0000
0000
,
0100
0000
0000
0000
,
0110
0000
0110
0000
,
0001
0000
0000
0000
,
0100
0000
0000
0000
,
0010
0000
0000
0000
,
1000
0000
1000
0000
,
1000
0000
0000
0000
,
0100
0000
0000
0000
,
0010
0000
0001
0000
,
0010
0000
0100
0000
,
1000
0000
0000
0000
,
0010
0000
0000
0000
,
0100
0000
0000
0000
,
0001
0000
0001
0000
,
0001
0000
0000
0000
,
0010
0000
0000
0000
,
0100
0000
0000
0000
,
1001
0000
1001
0000
,
0100
0000
0000
0000
,
0010
0000
0000
0000
,
1000
0000
0000
0000
,
0001
0000
0001
0000
,
0001
0000
0000
0000
,
0010
0000
0000
0000
,
0001
0000
0100
0000
,
0010
0000
1000
0000
,
0001
0001
0001
0001
,
0000
1000
1000
1000
,
1000
0000
2002
0000
,
0000
3003
0000
0220
,
0000
0000
0330
0000
,
1000
0000
0000
0000
,
0100
0000
0000
0000
,
1000
0000
0000
0000
,
0010
0000
0000
0000
,
1000
0000
0000
0000
,
0001
0000
0000
0000
,
0100
0000
0000
0000
,
1001
0000
0000
0000
,
0001
0000
0000
0000
,
0010
0000
0000
0000
,
0001
0000
0000
0000
,
0100
0000
0000
0000
,
0110
0000
0000
0000
,
1001
0000
0000
0000
,
1000
0000
0100
0000
,
0010
0000
0001
0000
,
1000
0000
0010
0000
,
0010
0000
0100
0000
,
0001
0000
1000
0000
,
1000
0000
0100
0000
,
0010
0000
0001
0000
,
0001
0000
1000
0000
,
0010
0000
0100
0000
,
0100
0000
0001
0000
,
1001
0000
0000
0000
,
0110
0000
0000
0000
,
1001
0000
0000
0000
,
0110
0000
0000
0000
,
1000
0000
0100
0000
,
0010
0000
0001
0000
,
0010
0000
0100
0000
,
1000
0000
0001
0000
,
2002
0000
0000
0000
,
3003
0000
0000
0000
;

//---------------dance-single - ----------------
#NOTES:
     dance-single:
     :
     Easy:
     6:
     0.334,0.442,0.055,0.124,0.000:
0000
0000
0000
0000
,
0000
0000
0000
0000
,
0000
0000
0000
0000
,
0000
0000
0000
0000
,
0000
0000
0000
0000
,
0000
0000
0000
0000
,
0000
0000
0000
0000
,
0000
0000
0000
0000
,
0020
0000
0000
0000
,
0230
0000
0000
0000
,
0302
0000
0000
0000
,
2003
0000
0000
0000
,
3200
0000
0000
0000
,
0320
0000
0000
0000
,
0032
0000
0000
0000
,
2003
0000
0000
0000
,
3001
0000
0100
0000
,
0001
0000
1000
0010
,
0100
0000
0010
0000
,
1000
0000
0100
0010
,
0001
0000
1000
0000
,
0001
0000
0010
0001
,
0100
0000
0010
0000
,
1000
0000
0001
1000
,
0100
0100
0100
0000
,
0010
0001
0010
0001
,
0100
0100
0100
0000
,
0010
1000
0010
1000
,
0001
0001
0001
0000
,
0010
0100
0010
0100
,
1000
1000
1000
0000
,
0010
1000
0001
0100
,
0020
0000
0000
0000
,
0230
0000
0000
0000
,
0302
0000
0000
0000
,
2003
0000
0000
0000
,
3100
0000
1000
0000
,
0001
0000
0100
0000
,
0010
1000
0100
0001
,
0010
0000
0000
1001
,
0001
0000
0100
0000
,
0010
0000
1000
0100
,
1000
0000
0010
0000
,
0100
0000
0001
1000
,
0001
0000
0010
0000
,
0100
0000
0010
0001
,
1000
0000
0010
0000
,
1000
0100
0010
0001
,
1000
0000
0010
0000
,
1000
0000
0100
0010
,
0001
0000
0100
0000
,
0010
0000
1000
0001
,
0100
0000
0100
0000
,
0010
0000
0010
0000
,
1000
0100
1000
0100
,
0010
0001
0010
0001
,
0100
0000
0010
0000
,
1000
0000
0001
0010
,
0100
0000
1000
0000
,
0010
0000
1000
0100
,
0010
0000
0001
0000
,
0100
0000
0010
1000
,
0001
0000
0010
0000
,
0100
0000
0010
0001
,
1000
0000
0010
0000
,
0100
0000
0001
0100
,
0010
0000
1000
0000
,
0100
0000
0010
0001
,
1000
0000
1000
0000
,
0001
0000
0001
0000
,
0100
0010
0100
0010
,
1000
0001
1000
0001
,
0010
0000
0010
0000
,
0100
0000
0100
0000
,
1000
0001
1000
0000
,
0010
0100
0001
0000
,
1000
0000
1000
0000
,
0001
0000
0001
0000
,
0100
0010
1000
0000
,
1001
0000
1001
0000
,
0010
0000
0010
0000
,
0100
0000
0100
0000
,
0001
1000
0001
0000
,
0010
0001
0100
0000
,
0010
0000
0010
0000
,
0100
0000
0100
0000
,
0001
1000
0100
0000
,
1000
0010
1000
0001
,
0100
0000
0010
0000
,
1000
0000
0100
0000
,
0010
0000
0001
0000
,
0100
0010
1000
0000
,
0100
0000
1000
0000
,
0010
0100
0001
0000
,
1000
0001
0100
0000
,
1001
0000
1001
0000
,
0010
0001
0100
0000
,
0010
0000
1000
0000
,
0001
0000
0010
0000
,
0100
0010
0100
0000
,
1000
0000
0010
0000
,
0100
0000
0001
0000
,
1000
0001
1000
0000
,
0010
0000
1000
0001
,
0100
0000
0000
0000
,
0000
0010
0000
0000
,
0000
0000
2002
0000
,
0000
3003
0000
0220
,
0000
0000
0330
0000
,
0001
0000
1000
0000
,
0100
0000
1000
0000
,
0010
0000
0100
0000
,
0001
0000
0010
0000
,
0100
0000
0010
0000
,
0001
0000
0100
0000
,
0010
0000
1000
0000
,
0100
0000
1000
0000
,
0010
0000
0100
0000
,
0001
0000
1000
0000
,
0100
0000
0010
0000
,
0100
0000
1000
0000
,
0010
0000
0010
0000
,
0100
0000
0100
0000
,
0001
0100
0001
0100
,
0010
1000
0010
1000
,
0100
0000
0010
0000
,
0100
0000
1000
0001
,
0100
0000
0010
0000
,
1000
0000
0010
1000
,
0100
0000
0010
0000
,
0001
0000
0010
0001
,
1000
0000
0010
0000
,
0100
0000
0001
1000
,
0100
0000
0010
0000
,
0100
0000
0010
0000
,
0001
0000
1000
0000
,
0001
0000
1000
0000
,
0010
0000
0100
0000
,
0001
0000
1000
0000
,
0100
1000
0010
0100
,
0001
1000
0100
0000
,
2002
0000
0000
0000
,
0000
0000
0000
0000
,
3003
0000
0000
0000
;

//---------------dance-double - ----------------
#NOTES:
     dance-double:
     :
     Easy:
     5:
     0.236,0.491,0.137,0.220,0.000:
00000000
00000000
00000000
00000000
,
00000000
00000000
00000000
00000000
,
00000000
00000000
00000000
00000000
,
00000000
00000000
00000000
00000000
,
00000000
00000000
00000000
00000000
,
00000000
00000000
00000000
00000000
,
00000000
00000000
00000000
00000000
,
00000000
00000000
00000000
00000000
,
00020000
00000000
00000000
00000000
,
02030000
00000000
00000000
00000000
,
03200000
00000000
00000000
00000000
,
20300000
00000000
00000000
00000000
,
32000000
00000000
00000000
00000000
,
03200000
00000000
00000000
00000000
,
00302000
00000000
00000000
00000000
,
00023000
00000000
00000000
00000000
,
00031000
00000000
00010000
00000000
,
00000010
00000000
00000100
00000000
,
00000001
00000000
00001000
00000000
,
00000100
00000000
00000010
00000000
,
00000100
00000000
00001000
00000000
,
00000001
00000000
00000100
00000000
,
00000010
00000000
00010000
00000000
,
00001000
00000000
01000000
00000000
,
00200000
00000000
00000000
00000000
,
02300000
00000000
00000000
00000000
,
03020000
00000000
00000000
00000000
,
20030000
00000000
00000000
00000000
,
31000000
00000000
01000000
00000000
,
00100000
00000000
00100000
00000000
,
00001000
00000000
00001000
00000000
,
00010000
00000000
00010000
00000000
,
00022000
00000000
00033000
00000000
,
00002200
00000000
00003300
00000000
,
00000220
00000000
00000330
00000000
,
00000022
00000000
00000033
00000000
,
00000001
00000000
00001000
00000000
,
00000010
00000000
00010000
00000000
,
00001000
00010000
00001000
00010000
,
00001000
00000000
00000000
10010000
,
10000000
00000000
01000000
00000000
,
10000000
00000000
00000000
00000000
,
00010000
00000000
01000000
00000000
,
00001000
00000000
00000000
00000000
,
00010000
00000000
00001000
00000000
,
00010000
00000000
00000000
00000000
,
00000010
00000000
00001000
00000000
,
00000001
00000000
00000000
00000000
,
00000010
00000000
00000001
00000000
,
00000010
00000000
00000000
00000000
,
00000001
00000000
00001000
00000000
,
00000100
00000000
00000000
00000000
,
00011000
00000000
00000000
00000000
,
01001000
00000000
00000000
00000000
,
00010000
00000000
10000000
00000000
,
00010000
00000000
10000000
00000000
,
02000000
00000000
00000000
00000000
,
03100000
00000000
00010000
00000000
,
02000000
00000000
00000000
00000000
,
03001000
00000000
00010000
00000000
,
00000200
00000000
00000000
00000000
,
00001300
00000000
00000010
00000000
,
00000200
00000000
00000000
00000000
,
00000301
00000000
00001000
00000000
,
00000002
00000000
00000000
00000000
,
00000103
00000000
00000010
00000000
,
00002000
00000000
00000000
00000000
,
00003010
00000000
00010000
00000000
,
00011000
00000000
00000000
00000000
,
01001000
00000000
00000000
00000000
,
00010000
00000000
10000000
00000000
,
00010000
00000000
10000000
00000000
,
01000000
00000000
00000000
00000000
,
01000000
00000000
00000000
00000000
,
00100000
00000000
00000000
00000000
,
00100000
00000000
00001000
00000000
,
00010000
00000000
00000000
00000000
,
00010000
00000000
00000000
00000000
,
00000010
00000000
00000000
00000000
,
00001001
00000000
00001001
00000000
,
00000100
00000000
00000000
00000000
,
00000100
00000000
00000000
00000000
,
00000010
00000000
00000000
00000000
,
00001000
00000000
00000100
00000000
,
00010000
00000000
00000000
00000000
,
00010000
00000000
00000000
00000000
,
00001000
00000000
01000000
00000000
,
00010000
00000000
00100000
00000000
,
01000000
00000000
00000000
00000000
,
01000000
00000000
00000000
00000000
,
00100000
00000000
00000000
00000000
,
00010000
00000000
10000000
00000000
,
00100000
00000000
00000000
00000000
,
00100000
00000000
00000000
00000000
,
01000000
00000000
00000000
00000000
,
10010000
00000000
10010000
00000000
,
01000000
00000000
00000000
00000000
,
01000000
00000000
00000000
00000000
,
00010000
00000000
00000000
00000000
,
00100000
00000000
00001000
00000000
,
00010000
00000000
00000000
00000000
,
00010000
00000000
00000000
00000000
,
00000010
00000000
00001000
00000000
,
00000001
00000000
00000100
00000000
,
00000010
00000000
00000000
00000000
,
00000000
00010000
00000000
00000000
,
00000000
00000000
20020000
00000000
,
00000000
30030000
00000000
00022000
,
00000000
00000000
00000000
00033000
,
00010000
00000000
00000000
00000000
,
00001000
00000000
00000000
00000000
,
01000000
00000000
00000000
00000000
,
00010000
00000000
00000000
00000000
,
00100000
00000000
00000000
00000000
,
01000000
00000000
00000000
00000000
,
10000000
00000000
00000000
00000000
,
00010000
00000000
00000000
00000000
,
01000000
00000000
00000000
00000000
,
00001000
00000000
00000000
00000000
,
00010000
00000000
00000000
00000000
,
00000010
00000000
00000000
00000000
,
00001000
00000000
00001000
00000000
,
00000001
00000000
00000001
00000000
,
00000010
00000000
00000100
00000000
,
00001000
00000000
00000010
00000000
,
00010000
00000000
00001000
00000000
,
01000000
00000000
00000000
00000000
,
00100000
00000000
10000000
00000000
,
00010000
00000000
00000000
00000000
,
00100000
00000000
00001000
00000000
,
00010000
00000000
00000000
00000000
,
00000010
00000000
00000100
00000000
,
00000001
00000000
00000000
00000000
,
00001100
00000000
00000000
00000000
,
00011000
00000000
00000000
00000000
,
01010000
00000000
00000000
00000000
,
10010000
00000000
00000000
00000000
,
00100000
00000000
01000000
00000000
,
00010000
00000000
00100000
00000000
,
00001000
00000000
00010000
00000000
,
00000010
00000000
00000100
00000000
,
00002002
00000000
00000000
00000000
,
00000000
00000000
00000000
00000000
,
00003003
00000000
00000000
00000000
;

//---------------dance-double - ----------------
#NOTES:
     dance-double:
     :
     Medium:
     8:
     0.438,0.835,0.172,0.124,0.007:
00000000
00000000
00000000
00000000
,
00000000
00000000
00000000
00000000
,
00000000
00000000
00000000
00000000
,
00000000
00000000
00000000
00000000
,
00000000
00000000
00000000
00000000
,
00000000
00000000
00000000
00000000
,
00000000
00000000
00000000
00000000
,
00000000
00000000
00000000
00000000
,
00000200
00000000
00000000
00000000
,
00002300
00000000
00000000
00000000
,
00003020
00000000
00000000
00000000
,
00020030
00000000
00000000
00000000
,
00032000
00000000
00000000
00000000
,
02003000
00000000
00000000
00000000
,
03200000
00000000
00000000
00000000
,
20300000
00000000
00000000
00000000
,
30010000
00000000
01000000
00000000
00100000
00000000
10000000
01000000
,
00000000
01000000
00100000
00000000
00100000
00010000
00000000
10000000
,
00000000
00000000
00010000
00000000
01000000
00000000
00001000
00010000
,
00000000
00000000
00000100
00000000
00001000
00000010
00000000
00001001
,
00000000
00000000
00000100
00000000
00000010
00000000
00010000
00001000
,
00000000
00001000
01000000
00000000
00100000
10000000
00000000
00010000
,
00000000
00000000
00100000
00000000
00001000
00000000
00010000
00000100
,
00000000
00000000
00000010
00000000
00000001
00000100
00000000
00001001
,
00000200
00000000
00000000
00000000
,
00000320
00000000
00000000
00000000
,
00020030
00000000
00000000
00000000
,
00032000
00000000
00000000
00000000
,
02003000
00000000
00000000
00000000
,
03200000
00000000
00000000
00000000
,
20300000
00000000
00000000
00000000
,
30020000
00000000
00000000
00000000
,
00130000
00000000
00100000
00000000
,
00001000
00000000
00001000
00000000
,
00010000
00000000
00010000
00000000
,
00000010
00000000
00000010
00000000
,
00000100
00000001
00000100
00000001
,
00001000
00000100
00001000
00000100
,
00010000
00000000
00000000
00001000
00000000
00000000
00010000
00000000
00000000
00001000
00000000
00000000
00100000
00000000
00001000
00000000
,
00010000
00000000
00000000
10010000
,
10000000
00000000
00000000
01000000
00000000
00000000
10000000
00000000
,
00000000
00010000
00000000
00000000
01000000
00000000
00001000
00000000
,
00010000
00000000
00000000
00001000
00000000
00000000
00010000
00000000
,
00000000
00000010
00000000
00000000
00001000
00000000
00000001
00000000
,
00000100
00000000
00000000
00000010
00000000
00000000
00000100
00000000
,
00000000
00000001
00000000
00000000
00001000
00000000
00000100
00000000
,
00010000
00000000
00000000
00001000
00000000
00000000
01000000
00000000
,
00000000
00010000
00000000
00000000
00100000
00000000
00010000
00000000
,
01000000
00000000
00000000
00100000
00000000
00000000
01000000
00000000
,
00000000
00010000
00000000
00000000
10000000
00000000
01000000
00000000
,
00100000
00000000
00000000
00010000
00000000
00000000
01000000
00000000
,
00000000
00001000
00000000
00000000
00010000
00000000
00000010
00000000
,
00000100
00000001
00001000
00000000
,
00000010
00001000
00000001
00000000
,
00000011
00000000
00001100
00000000
,
00001001
00000000
00000110
00000000
,
00000001
00000100
00000010
00000010
,
00001000
00000100
00010000
00000000
,
00001000
01000000
00010000
00010000
,
00100000
00010000
01000000
00000000
,
00100000
10000000
01000000
01000000
,
10000000
00010000
01000000
00000000
,
00001000
00010000
00000100
00000100
,
00010000
00001000
01000000
00000000
,
00100000
10000000
01000000
00100000
,
00010000
01000000
00001000
00001000
,
00010000
00000010
00000100
00000001
,
00001000
00000100
00000010
00000010
,
00000001
00000000
00001000
00000000
,
00000001
00000000
00000100
00000000
,
00001010
00000000
00001001
00000000
,
00001100
00000000
00010100
00000000
,
00010000
00001000
00000000
00001000
,
01000000
00000000
01000000
00100000
,
00000000
00100000
10000000
00000000
,
00010000
00000000
00100000
00000000
,
01000000
10000000
00000000
10000000
,
00010000
00000000
00010000
01000000
,
00000000
01000000
00001000
00000000
,
00011000
00000000
00011000
00000000
,
00010000
00000010
00000000
00000010
,
00001000
00000000
00001000
00000001
,
00000000
00000001
00000010
00000000
,
00000100
00000010
00000001
00000010
,
00000100
00001000
00000000
00001000
,
00000010
00000000
00000010
00010000
,
00001000
00010000
00001000
00000000
01000000
00000000
00010000
00000000
,
00100000
00000000
00001000
00000000
00010000
00001000
00010000
00000000
,
00000100
00001000
00000000
00001000
,
00000010
00000000
00000010
00000100
,
00000000
00000100
00000001
00000000
,
00000010
00000001
00000100
00000010
,
00001000
00000100
00000000
00000100
,
00010000
00000000
00010000
00001000
,
00000000
00001000
01000000
00000000
,
01100000
00000000
10010000
00000000
,
10000000
00100000
00000000
00100000
,
01000000
00000000
01000000
00010000
,
00000000
00010000
00100000
00000000
,
00001000
00010000
00000010
00001000
,
00000001
00000010
00000000
00000010
,
00000100
00000000
00000100
00001000
,
00000001
00000100
00000001
00000000
00001000
00000000
00000010
00000000
,
00010000
00000000
00001000
00000000
01000000
00010000
01000000
00000000
,
00100000
10000000
10000000
01000000
00100000
00010000
01000000
00001000
,
00010000
00000010
00000010
00000100
00000100
00000001
00001000
00000100
,
00000100
00000010
00000010
00000100
00000100
00001000
00001000
00000001
,
00000100
00000010
00010000
00001000
01000000
00010000
00010000
00100000
,
00100000
01000000
10000000
10000000
00100000
01000000
10010000
00000000
,
10000000
00000000
00000000
01000000
00000000
00000000
00100000
00000000
,
00000000
00010000
00000000
00000000
01000000
00000000
00001000
00000000
,
00010000
00000000
00000000
00000010
00000000
00000000
00001000
00000000
,
00000000
00000100
00000000
00000000
00000010
00000000
00000001
00000000
,
00001000
00000000
00000000
00000010
00000000
00000000
00010000
00000000
,
00000000
00001000
00000000
00000000
01000000
00000000
00010000
00000000
,
00100000
00000000
00000000
01000000
00000000
00000000
10000000
00000000
,
00000000
00010000
00000000
00000000
01000000
00000000
00100000
00000000
,
10000000
00000000
00000000
10000000
00000000
00000000
00010000
00000000
,
00000000
00010000
00000000
00000000
01000000
00000000
00001000
00000000
,
00010000
00000000
00000000
00010000
00000000
00000000
00001000
00000000
,
00000000
00001000
00000000
00000000
00010000
00000000
00000010
00000000
,
00000100
00000000
00000001
00000000
,
00001000
00000000
00000100
00000000
,
00011000
00000000
01001000
00000000
,
00011000
00000000
00010010
00000000
,
00001000
00000100
00001000
00000010
,
00000100
00000001
00001000
00001000
,
00000100
00000010
00000100
00001000
,
00000010
00010000
00001000
00001000
,
01000000
00010000
00100000
01000000
,
10000000
00100000
01000000
01000000
,
00010000
10000000
01000000
00100000
,
00001000
00010000
00001000
00001000
,
00011000
00000000
00000000
00000000
,
00001001
00000000
00000000
00000000
,
00011000
00000000
00000000
00000000
,
10010000
00000000
00000000
00000000
,
00100000
00000000
10000000
00000000
,
00010000
00000000
01000000
00000000
,
00100000
10000000
01000000
00100000
,
00001000
00010000
00000100
00000010
,
00002002
00000000
00000000
00000000
,
00000000
00000000
00000000
00000000
,
00003003
00000000
00000000
00000000
;
