#TITLE:Magical Rainbow;
#SUBTITLE:;
#ARTIST:Darwin;
#TITLETRANSLIT:;
#SUBTITLETRANSLIT:;
#ARTISTTRANSLIT:;
#GENRE:;
#CREDIT:;
#MENUCOLOR:;
#METERTYPE:DDR;
#BANNER:Magical Rainbow.png;
#BACKGROUND:Magical Rainbow-bg.png;
#LYRICSPATH:;
#CDTITLE:ddrencorecdtitle.png;
#MUSIC:Magical Rainbow.mp3;
#OFFSET:-1.158;
#SAMPLESTART:46.040;
#SAMPLELENGTH:12.000;
#SELECTABLE:YES;
#LISTSORT:;
#BPMS:0.000=178.500;
#STOPS:;
#BGCHANGES:;
#ATTACKS:;

//---------------dance-single - ----------------
#NOTES:
     dance-single:
     :
     Beginner:
     2:
     0.227,0.289,0.098,0.087,0.000:
0000
0000
0000
0000
,
0000
0000
0000
0000
,
0000
0000
0000
0000
,
0000
0000
0000
0000
,
1000
1000
1000
0000
,
0001
0001
0001
0000
,
0200
0000
0300
0000
,
0020
0000
0030
0000
,
1000
0000
0100
0000
,
1000
0000
0001
0000
,
0100
0000
0001
0000
,
1001
0000
0100
0100
,
0100
0000
0001
0000
,
1000
0000
0010
0000
,
2000
0000
3000
0000
,
0002
0000
0003
0000
,
1001
0000
0000
0000
,
0110
0000
0110
0000
,
1000
1000
1000
0000
,
0010
0010
0010
0000
,
0100
0100
0100
0000
,
0001
0000
0000
0000
,
0100
0100
0100
0000
,
0010
0010
0010
0000
,
1000
1000
1000
0000
,
0001
0000
0001
0000
,
1000
0000
1000
0000
,
0100
0000
0100
0000
,
0010
0000
0010
0000
,
1001
0000
0000
0000
,
0010
0000
0100
0000
,
0010
0000
0000
0000
,
2002
0000
0000
3003
,
0000
0000
0000
0000
,
0010
0010
0010
0000
,
1000
0000
0100
0000
,
0001
0001
0001
0000
,
0100
0000
0010
0000
,
1000
1000
1000
0000
,
0010
0000
0001
0000
,
0100
0100
0100
0000
,
0001
0000
0010
0000
,
1000
0000
1000
0000
,
0100
0000
0100
0000
,
0010
0000
0010
0000
,
0100
0000
0100
0000
,
0001
0000
0001
0000
,
1000
0000
0010
0000
,
0001
0000
0100
0000
,
0010
0000
1000
0000
,
0100
0000
0001
0000
,
1000
1000
1000
0000
,
0010
0000
0100
0000
,
0001
0000
1000
0000
,
0010
0000
0100
0000
,
0010
0010
0010
0000
,
1000
0000
0100
0000
,
0001
0000
0010
0000
,
0100
0000
0010
0000
,
0001
0000
0100
0000
,
1000
0000
0010
0000
,
0001
0000
0100
0000
,
1000
0000
0001
0000
,
0100
0000
0010
0000
,
0100
0000
0001
0000
,
1001
0000
1001
0000
,
2002
0000
3003
0000
;

//---------------dance-single - ----------------
#NOTES:
     dance-single:
     :
     Hard:
     7:
     0.542,0.650,0.272,0.228,0.000:
2000
0000
0000
0000
3100
0000
0010
0001
,
0000
0100
0000
0100
0010
0000
1000
0000
,
0002
0000
1000
0000
0103
0000
0010
0100
,
0000
0000
0000
0000
0001
0100
0010
0000
,
0020
0000
0000
0000
1030
0000
0100
0010
,
0000
0001
0000
0010
0100
0000
1000
0000
,
0001
0000
0010
0000
0100
0000
1000
0100
,
1000
0000
0000
0000
0001
1000
0100
0000
,
0020
0000
0000
0000
0031
0000
0100
0010
,
0000
1000
0000
0100
1000
0000
0100
0000
,
0020
0000
0100
0000
0130
0000
1000
0001
,
0000
0000
0000
0100
0010
0000
1000
0000
,
0100
0000
0010
0000
0100
1000
0100
1000
,
0000
0020
0000
0000
0130
0000
0001
0010
,
0000
0000
0000
0100
1000
0000
0100
0001
,
0000
0000
0000
0000
,
1001
0000
0000
0000
,
1100
0000
0101
0000
,
1000
0100
1000
0100
,
0010
0000
0001
0000
0010
0001
0010
0000
,
0100
0010
0100
0010
,
0220
0000
0330
0000
,
0001
0100
1000
0100
,
0001
0000
1000
0000
0001
0010
0001
0000
,
1000
0010
0100
0001
,
2200
0000
3300
0000
,
1000
0000
0010
0100
0000
0001
0000
0010
,
0000
0100
1000
0100
0000
0000
0100
0001
,
0010
0000
0010
0100
0000
0100
0000
0002
,
0000
0000
0000
0003
0000
0100
1000
0100
,
0000
0020
0000
0000
0000
0000
0030
0000
,
0000
0000
0000
0000
0000
0001
0100
0001
,
0000
2002
0000
0000
0000
0000
3003
0000
,
0000
0000
0000
1000
0100
1000
0100
1000
,
0020
0000
0000
0000
0130
0000
0001
0010
,
0000
1100
0000
0010
0100
0010
0100
0001
,
2000
0000
0000
0000
3100
0000
0010
0001
,
0000
0000
0000
1000
0100
1000
0100
1000
,
0002
0000
0100
0000
1003
0000
0001
1000
,
0000
0100
0000
0010
0001
0000
0010
0100
,
1000
0000
0001
0000
0100
0000
0010
1000
,
0000
0000
0000
0100
1000
0100
0010
0000
,
1001
1000
1100
0001
,
0101
0000
1000
0000
0010
1000
0010
0000
,
1100
0001
1010
0100
,
0011
0000
1000
0000
0010
0100
0010
0000
,
0001
0100
0010
1100
,
0100
0000
0001
0000
0010
1000
0100
0000
,
1000
1100
0001
0101
,
2002
0000
3003
0000
,
1000
0100
1000
0000
0010
0100
0001
0010
,
0100
1000
0100
0000
1000
0001
1000
0010
,
0100
0001
0100
0000
0010
1000
0100
0010
,
0001
0010
0001
0000
1000
0001
1000
0001
,
0100
0010
0100
0000
0001
0010
0100
1000
,
0001
1000
0001
0000
0010
0100
1000
0100
,
0010
0100
0010
0000
0100
1000
0001
0010
,
0100
1000
0100
0000
1000
0010
0100
0001
,
0101
0000
1000
0000
0001
0100
0010
0100
,
0110
0000
0001
0000
0010
0100
1000
0100
,
1100
0000
0001
0000
1000
0010
0100
0001
,
0101
1100
0011
1010
,
1000
0010
0100
0001
1000
0010
0100
0001
,
0010
0100
1000
0001
0010
0100
1000
0001
,
1000
0010
0100
0001
1000
0001
0010
0100
,
1000
0001
1000
0001
1000
0001
1000
0001
,
2002
0000
3003
0000
;

//---------------dance-single - ----------------
#NOTES:
     dance-single:
     :
     Easy:
     4:
     0.351,0.326,0.120,0.120,0.000:
1000
0000
0001
0100
,
0010
0000
1000
0100
,
1000
0000
0010
0100
,
0001
0000
0010
0100
,
1000
1000
0001
0000
,
0010
0010
0100
0000
,
0001
0000
1000
0000
,
1001
0000
0001
1000
,
0100
0000
1000
0001
,
0100
0000
0010
1000
,
0010
0010
0100
0001
,
0100
0000
0001
0010
,
0100
0000
1000
0010
,
0100
0000
0001
1000
,
0001
0001
0010
0010
,
0100
0000
0000
0000
,
1001
0000
0000
0000
,
1100
0000
0011
0000
,
1000
1000
0010
0100
,
0001
0001
0010
0100
,
0010
0010
0100
1000
,
0001
0000
0000
0000
,
1000
0100
0001
0100
,
1000
0100
1000
0100
,
0001
0100
0001
0100
,
1000
0000
0000
0000
,
0010
0000
0100
0000
,
0010
0000
0100
0000
,
1000
0000
0001
0000
,
1001
0000
0000
0000
,
0200
0000
0000
0300
,
1000
1000
0001
0000
,
0020
0000
0000
0030
,
1001
0000
0110
0000
,
1000
0010
0001
0010
,
1000
0010
1000
0010
,
0001
0010
0001
0010
,
1000
0000
0001
1000
,
0100
0010
0100
0010
,
0100
0001
1000
0010
,
0100
0010
0100
0001
,
1000
0000
0001
0000
,
1000
0100
1100
0000
,
0001
0100
0101
0000
,
0010
1000
1010
0000
,
0001
0010
0011
0000
,
1000
1000
0100
0100
,
0010
0010
0100
0100
,
1000
1000
0001
0001
,
0010
0010
0100
0100
,
2000
0000
0001
3001
,
0200
0000
0010
0310
,
2000
0000
0100
3100
,
0020
0000
0001
0031
,
0200
0000
0010
0310
,
2000
0000
0010
3010
,
0002
0000
0100
0103
,
0020
0000
1000
1030
,
1000
0100
0010
0001
,
1000
0100
1000
0001
,
0010
0100
1000
0001
,
0010
0001
0010
0001
,
1000
0010
0100
0001
,
1000
1000
0100
0100
,
1000
1000
0001
0001
,
0100
0100
0010
0010
,
0200
0000
0000
0300
;

//---------------dance-single - ----------------
#NOTES:
     dance-single:
     :
     Medium:
     6:
     0.449,0.544,0.152,0.120,0.000:
0002
0000
0000
0000
1003
0000
0100
0010
,
0000
1000
0000
0100
0010
0000
0001
0000
,
1000
0000
0100
0000
0010
0000
0100
1000
,
0000
0000
0000
0001
0100
0000
0010
0000
,
1000
0000
0001
0000
0100
0000
0010
1000
,
0000
0100
0000
0010
0001
0000
0010
0000
,
0200
0000
0000
0300
2000
0000
0000
0000
,
3001
0000
0100
0100
,
0020
0000
0000
0000
1030
0000
0100
0010
,
0000
0001
0000
0010
0100
0000
1000
0000
,
0001
0000
0100
0000
0010
0000
1000
0001
,
0000
0000
0000
0100
1000
0000
0001
0000
,
0010
0000
0100
0000
0010
0000
0001
1000
,
0000
0100
0000
0001
1000
0000
0001
0000
,
0020
0000
0032
0000
,
1003
0000
0000
0000
,
1001
0000
0000
0000
,
1001
0000
1001
0000
,
0001
0100
1000
0100
,
0001
0000
1000
0000
0001
1000
0001
0000
,
0010
0100
0010
0100
,
0020
0000
0030
0000
,
1000
0010
1000
0010
,
0100
0010
0100
0100
,
0001
0100
0001
0100
,
0001
0000
0000
0000
,
0000
1000
0000
0100
0000
1000
0000
0001
,
0000
0010
0000
0100
0000
0010
0000
0001
,
0000
1000
0000
0100
0000
0010
0000
0001
,
0000
1000
0000
0001
0000
1000
0000
0010
,
0000
0020
0000
0000
0000
0000
0000
0000
,
0030
0000
0000
0000
0000
0100
0000
0100
,
0000
0200
0000
0000
0000
0000
0000
0000
,
0300
0000
1000
0100
,
2000
0000
0000
0000
3001
0000
0100
0001
,
0000
0010
0000
0100
1000
0000
0100
0000
,
1000
0000
1000
0000
0010
0000
0100
0001
,
0000
0000
0000
1000
0001
0000
1000
0000
,
0010
0010
0100
0001
,
1000
0100
1000
0001
,
0010
0000
0100
0000
,
1001
0000
0010
0100
,
0001
0000
0101
0000
0001
0100
0001
0000
,
1000
0000
1100
0000
1000
0100
1000
0000
,
0010
0000
0110
0000
0100
0001
0100
0000
,
0010
0000
1010
0000
1000
0001
1000
0000
,
0100
1000
0001
0100
,
0001
1000
0100
0010
,
0001
0100
1000
0100
,
0001
1000
0001
1000
,
0010
0100
0010
0000
0001
0000
1000
0000
,
0100
0010
0100
0000
0001
0000
0100
0000
,
1000
0100
1000
0000
0001
0000
0100
0000
,
0010
0001
0010
0000
0100
0000
1000
0000
,
0100
0001
0100
0000
0010
0000
1000
0000
,
0100
0010
0100
0000
0001
0000
1000
0000
,
0100
1000
0100
0000
0001
0000
0100
0000
,
0010
0100
0010
0000
1000
0000
0001
0000
,
0010
0000
1100
0000
0100
0001
0100
0001
,
0100
0000
1010
0000
0100
1000
0100
1000
,
0100
0000
0011
0000
1000
0001
1000
0001
,
1000
0000
0101
0000
0010
1000
0010
1000
,
0010
0000
0011
0000
0100
1000
0100
1000
,
0100
0000
1001
0000
0100
0010
0100
0010
,
0100
0000
0001
0000
1000
0001
1000
0001
,
1000
0000
0010
0000
0100
0001
0100
0001
,
0020
0000
0000
0030
;

//---------------dance-double - ----------------
#NOTES:
     dance-double:
     :
     Easy:
     4:
     0.293,0.326,0.022,0.098,0.000:
00100000
00000000
00100000
10000000
,
01000000
00000000
00010000
00000000
,
01000000
00000000
10000000
01000000
,
00010000
00000000
00001000
00000000
,
00010000
00000000
00001000
00000100
,
00000001
00000000
00000010
00000000
,
00000100
00000000
00001000
00000001
,
00000100
00000000
00001000
00000000
,
00010000
00001000
00010000
00000000
,
00010000
01000000
10000000
00000000
,
00100000
01000000
00010000
00000000
,
01000000
00000000
00001000
00000000
,
00010000
00001000
00010000
00000000
,
00000010
00000000
00001000
00000000
,
00000001
00000100
00000010
00000000
,
00001000
00000000
00000100
00000000
,
00010000
00001000
00010000
00000000
,
00100000
00000000
01000000
00000000
,
10000000
01000000
00100000
00010000
,
00100000
01000000
10000000
00010000
,
01000000
00001000
00010000
00001000
,
00010000
00000000
00000000
00000000
,
00001000
00000100
00000010
00000001
,
00000010
00000100
00001000
00000001
,
00000100
00000010
00010000
00001000
,
00010000
00000000
00000000
00000000
,
00010000
00100000
01000000
00000000
,
10000000
01000000
00100000
00000000
,
00100000
00001000
00010000
00000100
,
00001000
00000000
00000010
00000000
,
00002000
00000000
00000000
00000000
,
00000000
00000000
00003000
00000000
,
00020000
00000000
00000000
00000000
,
00000000
00000000
00000000
00030000
,
01000000
01000000
00100000
00000000
,
00100000
00010000
10000000
00000000
,
10000000
01000000
00100000
00000000
,
00001000
00010000
00000100
00000000
,
00000010
00000001
00001000
00000000
,
00000100
00010000
00001000
00000000
,
00100000
00000000
00010000
00000000
,
10010000
00000000
00000000
00000000
,
10000000
00000000
00010000
00000000
,
00001000
00000100
00000001
00000000
,
00000001
00000000
00001000
00000000
,
00010000
00100000
10000000
00000000
,
10000000
00010000
10000000
00000000
,
00010000
00001000
00000100
00000000
,
00000001
00001000
00000001
00000000
,
00001000
00010000
01000000
00000000
,
20000000
30000000
00010000
01000000
,
00002000
00003000
00000100
00000001
,
00002000
00003000
00000010
00001000
,
00000200
00000300
00010000
00001000
,
02000000
03000000
00100000
10000000
,
01000000
00000000
00010000
01000000
,
00010000
00000000
01000000
00001000
,
00010000
00000000
00010000
00001000
,
00010000
00000000
00000010
00001000
,
00000001
00000000
00001000
00000100
,
00010000
00000000
00001000
00010000
,
00001000
00000000
00010000
00000010
,
00001000
00000000
00000001
00000100
,
00000010
00000000
00001000
00010000
,
01000000
00000000
10000000
00010000
,
00100000
00000000
10000000
00010000
,
20020000
00000000
00000000
30030000
;

//---------------dance-double - ----------------
#NOTES:
     dance-double:
     :
     Medium:
     6:
     0.421,0.470,0.141,0.196,0.000:
00100000
00010000
01000000
00001000
,
00010000
00000100
00001000
00000001
,
00000010
00000100
00010000
00001000
,
00020000
00000000
00031000
01000000
,
00100000
10000000
01000000
00100000
,
01000000
10000000
00010000
01000000
,
00001000
00010000
00001000
00020000
,
00002000
00000000
00033000
00000000
,
00000010
00000100
00000001
00001000
,
00000100
00000010
00000100
00001000
,
00000001
00000100
00001000
00010000
,
01000000
10000000
00010000
10000000
,
00100000
01000000
00010000
10000000
,
01000000
00010000
00001000
00000100
,
00000002
00000000
00000203
00000000
,
00002300
00000000
00003000
00000000
,
00011000
00000000
00000000
00000000
,
01010000
00000000
00011000
00000000
,
00001100
00000001
00000100
00000010
,
00001000
00000001
00000100
00001000
,
00010000
00000000
00001000
00000000
00010000
00001000
00010000
00000000
,
00011000
00000000
00000000
00000000
,
01000000
00100000
10000000
01000000
,
00100000
01000000
10000000
00010000
,
01000000
00000000
00001000
00000000
00010000
00001000
00010000
00000000
,
00011000
00000000
00000000
00000000
,
00002000
00003100
00000010
00000011
,
00000001
00000100
00001000
00010000
,
02000000
13000000
00100000
10100000
,
02000000
00000000
00000000
03000000
,
00000000
00020000
00000000
00000000
00000000
00000000
00000000
00000000
,
00000000
00000000
00000000
00000000
00000000
00000000
00000000
00030000
,
00000000
00002000
00000000
00000000
00000000
00000000
00000000
00000000
,
00000000
00000000
00000000
00000000
00000000
00000000
00000000
00003000
,
00010000
00000000
00000100
00000000
00001000
00000001
00001000
00000000
,
00000010
00000100
00000001
00001000
,
00000100
00000000
00010000
00000000
00001000
00010000
00001000
00000000
,
00200000
00000000
01000000
01300000
,
10000000
00000000
01000000
00000000
00100000
00010000
00100000
00000000
,
01000000
10000000
01000000
00100000
,
00001000
00000000
00010000
00000000
00001000
00010000
00001000
00000000
,
00020000
00000000
00001000
00031000
,
00001000
00010000
00000000
01000000
00000000
00100000
00000000
01000000
,
10000000
01000000
00100000
00010000
,
01000000
00001000
00000000
00010000
00000000
00000100
00000000
00000010
,
00000001
00000010
00000100
00001000
,
00000001
00000100
00000000
00000010
00000000
00010000
00000000
00001000
,
00010000
01000000
10000000
00100000
,
01000000
00001000
00000000
00010000
00000000
00000010
00000000
00000100
,
00000001
00001000
00000100
00000010
,
00000001
00000100
00000001
00000000
00001000
00000000
00000100
00000000
,
00020000
00001000
00001000
00031000
,
00001000
00010000
00001000
00000000
01000000
00000000
00100000
00000000
,
20000000
01000000
01000000
31000000
,
00100000
00010000
00100000
00000000
00001000
00000000
00010000
00000000
,
00000200
00000010
00000010
00000310
,
00000001
00000100
00001000
00010000
,
01000000
11000000
00110000
01001000
,
00011000
00010000
00000100
00001000
,
00000001
00000000
00000100
00000000
00000010
00001000
00000010
00000000
,
00001000
00000100
00010000
00001000
,
01000000
00000000
00100000
00000000
10000000
00010000
10000000
00000000
,
00100000
01000000
00001000
00010000
,
00000100
00000010
00000001
00001000
,
00000100
00010000
00001000
00010000
,
00001000
00010000
00001000
00022000
,
00000000
00000000
00033000
00000000
;

//---------------dance-double - ----------------
#NOTES:
     dance-double:
     :
     Hard:
     9:
     0.667,0.619,0.261,0.087,0.000: // measure 1
00020000
00000000
01030000
00000000
00100000
10000000
00010000
00100000
,  // measure 2
00000000
00001000
00000000
00010000
00001000
00010000
00000100
00000010
,  // measure 3
00000001
00000000
00001000
00000010
00001000
00000100
00010000
00001000
,  // measure 4
00000000
00100000
00001000
00010000
00000100
00000010
00000001
00000100
,  // measure 5
00000010
00000000
00001000
00000100
00010000
00000100
00000010
00000001
,  // measure 6
00000000
00000100
00000010
00001000
00000010
00010000
00000100
00010000
,  // measure 7
00001000
00000000
00100000
00000000
00010000
01000000
00100000
10000000
,  // measure 8
00000000
01000000
10000000
00000000
00010000
01000000
00100000
10000000
,  // measure 9
01000000
00000000
11000000
00000000
10000000
01000000
00010000
00001000
,  // measure 10
00000010
00000000
00000100
00000000
00001000
00000010
00000100
00000001
,  // measure 11
00000010
00000000
00000011
00000000
00000001
00000100
00001000
00010000
,  // measure 12
00100000
00000000
01000000
00010000
01000000
00010000
00100000
01000000
,  // measure 13
10000000
00000000
10010000
00000000
10000000
00100000
00010000
00001000
,  // measure 14
00000000
00000100
00000010
00001000
00000010
00000100
00000001
00000010
,  // measure 15
00000100
00000000
00001001
00000000
00000001
00000100
00001000
00010000
,  // measure 16
00000000
00010000
00001000
00000100
00000010
00001000
00000100
00000010
,  // measure 17
00000022
00000000
00000000
00000033
,  // measure 18
00001100
00000100
00010100
00010000
,  // measure 19
00011000
00000000
00101000
00000000
00010000
00100000
00010000
01000000
,  // measure 20
00100000
01000000
00100000
10000000
01000000
00010000
01000000
00100000
,  // measure 21
00010000
01000000
00001000
00010000
00000100
00001000
00000010
00000100
,  // measure 22
00000001
00001000
00000100
00001000
,  // measure 23
00001010
00000000
00001001
00000000
00000001
00000100
00000001
00001000
,  // measure 24
00000010
00010000
00000100
00001000
00000100
00010000
00001000
00100000
,  // measure 25
00010000
00100000
00001000
01000000
00100000
10000000
01000000
00100000
,  // measure 26
00010000
01000000
00100000
10000000
,  // measure 27
00010000
01000000
00010000
00000000
01000000
00100000
10000000
00000000
,  // measure 28
01000000
00100000
01000000
00000000
00100000
00010000
01000000
00000000
,  // measure 29
00001000
00010000
00001000
00000100
00000010
00001000
00000100
00000010
,  // measure 30
00000100
00000000
00001000
00000000
00000010
00000000
00010000
00000020
,  // measure 31
00000100
00001000
00010000
00001000
,  // measure 32
00000031
00000000
00001000
00000000
00000100
00010000
00001000
00200000
,  // measure 33
00010000
01000000
10000000
00010000
,  // measure 34
00301000
00000000
00011000
01001000
,  // measure 35
00001000
00010000
00001000
01000000
00100000
10000000
01000000
10000000
,  // measure 36
00000000
00010000
00000000
01000000
00100000
01000000
00010000
00100000
,  // measure 37
00001000
00010000
00000100
00010000
00001000
00000010
00000100
00001000
,  // measure 38
00000000
00000010
00000100
00000001
00001000
00000100
00000010
00000001
,  // measure 39
00000100
00000000
00000010
00000000
00001000
00000100
00010000
00001000
,  // measure 40
00000000
00100000
00010000
01000000
00010000
00100000
00001000
01000000
,  // measure 41
00100000
00000000
10000000
00000000
01000000
00100000
00010000
01000000
,  // measure 42
00001000
00000000
00010000
00000000
00001000
00100000
00001000
00010000
,  // measure 43
00000100
00000010
00000001
00000100
,  // measure 44
00000010
00000000
00001000
00000000
00000001
00000100
00001000
00010000
,  // measure 45
00100000
01000000
00010000
00100000
,  // measure 46
01000000
00000000
10000000
00000000
00010000
01000000
00100000
00010000
,  // measure 47
00001000
00100000
00001000
00010000
,  // measure 48
00000100
00000000
00000010
00000000
00000001
00000100
00000010
00010000
,  // measure 49
00000010
00000100
00000001
00001000
,  // measure 50
00000200
00000000
00000000
00000000
00000000
00010000
00000300
00010000
,  // measure 51
00000100
00010000
00001000
00100000
00010000
00000000
01010000
00000000
,  // measure 52
01000000
00100000
10000000
00010000
00100000
00001000
00010000
00000100
,  // measure 53
00010000
00001000
00000010
00000001
00000100
00000000
00000101
00000000
,  // measure 54
00000010
00001000
00000100
00010000
00001000
00100000
00001000
00010000
,  // measure 55
00000100
00010000
00001000
00100000
00010000
01000000
00100000
10000000
,  // measure 56
01000000
00100000
00010000
01000000
00001000
01000000
00001000
00010000
,  // measure 57
00000010
00010000
00000010
00000100
00000001
00000010
00000001
00000100
,  // measure 58
00000010
00001000
00000100
00000010
00000001
00000100
00000010
00001000
,  // measure 59
00000100
00010100
00010000
00000100
,  // measure 60
00010000
00001000
00100000
00010000
00100000
00001000
00010000
00000100
,  // measure 61
00001000
00001010
00000010
00000100
,  // measure 62
00000001
00000010
00000100
00001000
00000010
00010000
00001000
00100000
,  // measure 63
00010000
01010000
01000000
00001000
,  // measure 64
00010000
00001000
01000000
00100000
10000000
01000000
00100000
00010000
,  // measure 65
01000000
10100000
00100000
01000000
,  // measure 66
01010000
01001000
00011000
00010100
,  // measure 67
00022000
00000000
00000000
00000000
,  // measure 68
00033000
00000000
00000000
00000000
;
