#TITLE:Mad World;
#SUBTITLE:;
#ARTIST:Nu-Romantix;
#TITLETRANSLIT:;
#SUBTITLETRANSLIT:;
#ARTISTTRANSLIT:;
#GENRE:;
#CREDIT:;
#MENUCOLOR:;
#METERTYPE:DDR;
#BANNER:Mad World-bn.png;
#BACKGROUND:Mad World-bg.png;
#LYRICSPATH:Mad World.lrc;
#CDTITLE:ddrencorecdtitle.png;
#MUSIC:Mad World.mp3;
#OFFSET:-0.034;
#SAMPLESTART:82.294;
#SAMPLELENGTH:13.696;
#SELECTABLE:YES;
#LISTSORT:;
#BPMS:0.000=139.985;
#STOPS:;
#BGCHANGES:;
#ATTACKS:;

//---------------dance-single - ----------------
#NOTES:
     dance-single:
     :
     Beginner:
     1:
     0.127,0.254,0.053,0.000,0.000:
0000
0000
0000
0000
,
0000
0000
0000
0000
,
0000
0000
0000
0000
,
0000
0000
0000
0000
,
1000
0000
0000
0000
,
1000
0000
0000
0000
,
0001
0000
0000
0000
,
0001
0000
0000
0000
,
1000
0000
0100
0000
,
1000
0000
0100
0000
,
1000
0000
0010
0000
,
1000
0000
0010
0000
,
0100
0000
0100
0000
,
0010
0000
0010
0000
,
1000
0000
1000
0000
,
0001
0000
0010
0000
,
0100
0000
0000
0000
,
0010
0000
0000
0000
,
0001
0000
0000
0000
,
1000
0000
0000
0000
,
0100
0000
1000
0000
,
0001
0000
0000
0000
,
0100
0000
0000
0000
,
0010
0000
0000
0000
,
1000
0000
0010
0000
,
1000
0000
0000
0000
,
0001
0000
0000
0000
,
1000
0000
0000
0000
,
0001
0000
0100
0000
,
0001
0000
0000
0000
,
1000
0000
0000
0000
,
0001
0000
0000
0000
,
1000
0000
0001
0000
,
1000
0000
0000
0000
,
0100
0000
0000
0000
,
0010
0000
0000
0000
,
0001
0000
1000
0000
,
0001
0000
0000
0000
,
0100
0000
0000
0000
,
0010
0000
0000
0000
,
0100
0000
0001
0000
,
1000
0000
0000
0000
,
0001
0000
0000
0000
,
0010
0000
0000
0000
,
1001
0000
0000
0000
,
0110
0000
0000
0000
,
1001
0000
1001
0000
,
0010
0010
0010
0010
,
0010
0000
0100
0000
,
0010
0000
1000
0000
,
0001
0000
0010
0000
,
0001
0000
0100
0100
,
0100
0000
0010
0000
,
1000
0000
0001
0000
,
0010
0000
0001
0000
,
1001
0000
0000
0000
,
1000
0000
0010
0000
,
1000
0000
0010
0000
,
0100
0000
0010
0000
,
0100
0000
0010
0000
,
0100
0000
0001
0000
,
0100
0000
0001
0000
,
0010
0000
0001
0000
,
1000
0000
0010
0000
,
1001
0000
0000
0000
;

//---------------dance-single - ----------------
#NOTES:
     dance-single:
     :
     Easy:
     4:
     0.218,0.373,0.088,0.132,0.000:
0000
0000
0000
0000
,
0000
0000
0000
0000
,
0000
0000
0000
0000
,
0000
0000
0000
0000
,
1000
0000
0010
0000
,
1000
0000
0100
0000
,
1000
0000
0001
0000
,
2002
0000
0000
3003
,
1000
0000
0010
0000
,
0100
0000
0001
0000
,
1000
0000
0010
0000
,
1000
0000
0100
0000
,
0010
0000
0001
1000
,
0100
0000
0010
0000
,
0100
0000
1000
0010
,
0100
0000
0001
0000
,
2000
0000
0000
3100
,
0200
0000
1300
0000
,
0002
0000
0000
0103
,
0200
0000
0301
0000
,
1000
0000
0002
0000
,
0020
0000
0000
0033
,
0000
0010
0000
0001
,
0000
1000
0000
0010
,
0100
0001
0100
0000
,
0001
0000
1000
0000
,
0100
0000
1000
0000
,
0001
0000
0100
0000
,
0001
0100
0001
0000
,
1000
0000
0010
0000
,
0100
0000
0001
0000
,
1000
0000
0100
0000
,
1000
0010
1000
0000
,
0001
0000
0100
0000
,
0010
0000
0100
0000
,
0001
0000
1000
0000
,
0010
0100
0010
0000
,
1000
0000
0001
0000
,
0010
0000
0100
0000
,
1000
0000
0001
0000
,
2000
0000
3010
0100
,
0002
0000
0103
0000
,
2000
0000
3100
0000
,
0002
0000
0013
0000
,
1001
0000
0100
0010
,
1001
0000
0100
0000
,
0101
0000
1100
0000
,
1001
1001
0110
1001
,
0001
0010
0100
1000
,
0001
0100
0010
0000
,
1000
0100
0010
0000
,
0001
1000
0010
0100
,
0010
0100
0001
1000
,
0010
1000
0100
0000
,
0010
0001
0100
0000
,
0001
1000
0200
0000
,
1300
0000
0010
0000
,
1000
0000
0010
0000
,
0100
0000
0001
0000
,
0100
0000
0001
0000
,
1000
0010
1000
0010
,
0100
0001
0100
0001
,
1000
0010
1000
0001
,
0100
0010
1000
0001
,
2002
0000
0000
0000
,
3003
0000
0000
0000
;

//---------------dance-single - ----------------
#NOTES:
     dance-single:
     :
     Medium:
     6:
     0.341,0.373,0.141,0.124,0.000: // measure 1
0000
0000
0000
0000
,  // measure 2
0000
0000
0000
0000
,  // measure 3
0000
0000
0000
0000
,  // measure 4
0000
0000
0000
0000
,  // measure 5
1000
0001
0100
1000
,  // measure 6
0001
1000
0100
0001
,  // measure 7
1000
0001
0010
1000
,  // measure 8
0010
0001
0100
1000
,  // measure 9
0100
0010
0000
1000
0000
0001
0000
0010
,  // measure 10
0000
0100
0000
0010
0000
0001
0000
1000
,  // measure 11
0000
0010
0000
0100
0000
0001
0000
1000
,  // measure 12
0000
0010
0000
1000
0000
0001
0000
0010
,  // measure 13
0002
0000
0013
0100
,  // measure 14
0020
0000
0031
1000
,  // measure 15
0200
0000
1300
0010
,  // measure 16
2000
0000
3001
0100
,  // measure 17
0020
0100
0000
0000
0000
0000
1030
0000
,  // measure 18
0002
0100
0000
0000
0000
0000
0003
1000
,  // measure 19
0020
0100
0000
0000
0000
0000
1030
0000
,  // measure 20
0200
1000
0000
0000
0000
0000
0310
0000
,  // measure 21
0000
1001
0000
0000
0200
0000
0000
0000
,  // measure 22
0020
0000
0000
0330
,  // measure 23
0010
0011
0000
1100
,  // measure 24
0000
1010
0000
0101
,  // measure 25
1000
0010
1000
0001
,  // measure 26
0100
0010
0000
0010
0000
0010
0000
0000
,  // measure 27
1000
0001
0000
0001
0000
0001
0000
0000
,  // measure 28
0010
0100
0000
0100
0000
0100
1000
0100
,  // measure 29
0010
0001
0010
0100
,  // measure 30
1000
0010
0000
0010
0000
0010
0000
0000
,  // measure 31
0100
0001
0000
0001
0000
0001
0000
0000
,  // measure 32
0100
0010
0000
0010
0000
0010
1000
0010
,  // measure 33
0100
0001
1000
0010
,  // measure 34
1000
0001
0000
1000
0000
0001
0000
0000
,  // measure 35
0010
0100
0000
0010
0000
0100
0000
0000
,  // measure 36
1000
0010
0000
0100
0000
0010
1000
0001
,  // measure 37
0100
0010
1000
0001
,  // measure 38
0010
0001
0000
1000
0000
0001
0000
0000
,  // measure 39
0100
0010
0000
1000
0000
0010
0000
0000
,  // measure 40
1000
0100
0000
0010
0000
0100
1000
0001
,  // measure 41
0010
0000
0001
0000
1000
0100
1000
0000
,  // measure 42
0010
0000
0000
0100
0000
0001
0000
0000
,  // measure 43
0010
0000
0000
0100
0000
1000
0000
0000
,  // measure 44
0010
0000
0000
1000
0000
0001
0100
0001
,  // measure 45
1000
0100
0001
0100
,  // measure 46
1000
0010
1000
0001
0000
0100
0000
0000
,  // measure 47
0110
0000
1001
0000
,  // measure 48
0101
1010
1100
0011
,  // measure 49
0001
0000
0100
0000
0010
1000
0010
0000
,  // measure 50
1000
0000
0100
0010
0000
0110
0000
0000
,  // measure 51
0010
0000
0001
1000
0000
1001
0000
0000
,  // measure 52
1000
0000
0010
1000
0000
1000
0001
0100
,  // measure 53
0010
0000
1000
0000
0100
0010
0100
0000
,  // measure 54
1000
0000
0010
0100
0000
0110
0000
0000
,  // measure 55
0100
0000
0001
1000
0000
1001
0000
0000
,  // measure 56
0002
0000
2003
0000
,  // measure 57
3001
0100
0000
0001
0000
1000
0000
0010
,  // measure 58
0000
0100
0000
0010
0000
1000
0000
0001
,  // measure 59
0000
0010
0000
0100
0000
0010
0000
0001
,  // measure 60
0000
1000
0000
0010
0000
1000
0000
0001
,  // measure 61
0100
0000
0010
0000
0100
0001
0100
0000
,  // measure 62
0010
0000
1000
0000
0001
0010
0001
0000
,  // measure 63
0100
0000
0010
0000
1000
0100
0010
0000
,  // measure 64
0001
0000
1000
0000
0010
0100
0001
0000
,  // measure 65
2002
0000
0000
0000
,  // measure 66
3003
0000
0000
0000
;

//---------------dance-single - ----------------
#NOTES:
     dance-single:
     :
     Hard:
     9:
     0.560,0.603,0.212,0.097,0.318:
0000
0000
0000
0000
,
0000
0000
0000
0000
,
0000
0000
0000
0000
,
0000
0000
0000
0000
,
0010
0000
1000
0000
0100
0000
0000
0010
0100
0000
1000
0000
0001
0000
0000
0000
,
0010
0000
0001
0000
0100
0000
0000
0010
0100
0000
0001
0000
1000
0000
0000
0000
,
0010
0000
1000
0000
0001
0000
0000
0010
0001
0000
1000
0000
0100
0000
0000
0000
,
0010
0000
0000
0001
0010
0000
0000
0001
0010
0000
0000
0001
1000
0100
0000
0000
,
1000
0010
0100
0001
0010
0100
1000
0001
,
0100
0010
0100
0001
0100
0010
0100
1000
,
0100
0001
0010
0100
1000
0010
0100
0001
,
0010
0100
0010
0001
0010
0100
0010
1000
,
0010
0001
0000
0000
0100
0000
0000
0010
0000
1000
0000
0000
0001
0000
0000
0010
,
0100
0010
0000
0000
0001
0000
0000
1000
0000
0010
0000
0000
0100
0000
0000
0001
,
0000
1000
0000
0000
0010
0000
0000
1000
0000
0100
0000
0000
1000
0000
0000
0001
,
0100
0001
0000
0000
1000
0000
0000
0010
0000
0100
0000
0000
0001
0000
0000
1000
,
0200
0000
1000
0000
0000
0000
0000
1000
0300
0010
0000
0000
0100
0000
0000
0001
,
2000
0000
0010
0000
0000
0000
0000
0001
3000
0100
0000
0000
0010
0000
1000
0001
,
0000
0001
0100
0000
0010
0000
0000
1000
0000
0001
0000
0000
0100
0000
0000
0010
,
2000
0000
0001
0000
0000
0000
0000
0100
3000
0010
0000
0000
0100
0000
0000
0000
,
1000
0010
0000
0010
0200
0000
0000
0000
,
0002
0000
0000
0303
,
0001
0000
1000
0000
0100
0000
0000
0010
0100
0000
1000
0000
0001
0000
0000
0100
,
0010
0000
1000
0000
0001
0000
0000
0010
0001
0000
0100
0000
0010
0000
0000
0000
,
1001
1000
0010
0100
0001
0010
0100
1000
,
0010
0100
0000
0010
0000
1000
0100
0010
,
0001
1000
0000
0010
0000
0100
0001
1000
,
0010
0100
0000
0001
0000
0010
0001
0100
,
0010
1000
0100
0010
0001
0100
0001
0010
,
0100
1000
0000
0010
0000
0100
0001
1000
,
0010
1000
0000
0001
0000
0010
0100
1000
,
0010
0100
0000
0001
0000
1000
0100
0010
,
0100
1000
0010
0100
0001
1000
0001
0010
,
0100
1000
0000
0001
0000
0100
0010
1000
,
0100
0010
0000
1000
0000
0010
0100
1000
,
0010
0100
0000
0001
0000
0100
0010
1000
,
0001
0010
0100
1000
0001
1000
0010
0100
,
0001
0010
0000
1000
0000
0010
0100
1000
,
0010
0100
0000
1000
0000
0100
0010
1000
,
0001
0010
0000
0100
0000
0010
0001
1000
,
0101
0000
0010
1000
0100
0010
0100
1000
,
0001
0100
0010
1000
0000
0101
0000
0010
,
1000
0100
0010
0001
0000
1100
0000
0010
,
0100
1000
0010
0100
0000
0010
1000
0001
,
1010
0001
0100
0010
1000
0001
0010
0100
,
1100
0010
0001
1000
0010
0100
0001
1000
,
1010
0100
0001
1000
0110
1000
0001
0010
,
0100
0000
0000
1000
0010
0000
0000
1000
0010
0000
0000
1000
0001
0000
0100
0000
,
0001
0000
0010
0000
0100
0000
0010
0001
0010
0001
0010
0100
1000
0000
0010
0000
,
1000
0000
0001
0000
0100
0000
0001
1000
0000
1000
0000
0010
0000
0100
0000
0001
,
1000
0000
0010
0000
0100
0000
0001
0010
0000
0010
0000
0100
0000
1000
0000
0010
,
0100
0000
0001
0000
1000
0000
0010
1000
0000
0001
0000
0100
0000
0010
1000
0010
,
0100
0000
0001
0000
1000
0000
0100
1000
0100
1000
0100
0010
0001
0000
1000
0000
,
0010
0000
0100
0000
0001
0000
1000
0010
0000
0010
0000
0100
0000
0001
0000
1000
,
0010
0000
0100
0000
0001
0000
1000
0001
0000
0001
0000
0100
0000
0010
0000
1000
,
0100
0010
0100
1000
0000
0010
0100
0001
,
2100
0010
0000
0001
0000
3010
0000
0011
,
0000
1100
0000
1010
0000
0101
0000
0010
,
0002
0100
0000
1000
0000
0103
0000
1010
,
0000
0101
0000
0011
0000
0010
0100
1000
,
0020
0001
0000
1000
0000
0130
0000
1010
,
0000
1100
0000
0011
0000
0001
0100
0010
,
0200
1000
0000
0001
0000
0310
0000
1010
,
0000
0101
0000
0011
0000
1100
0000
0010
,
2002
0000
0000
0000
,
3003
0000
0000
0000
;

//---------------dance-double - ----------------
#NOTES:
     dance-double:
     :
     Easy:
     4:
     0.261,0.373,0.088,0.124,0.000:
00000000
00000000
00000000
00000000
,
00000000
00000000
00000000
00000000
,
00000000
00000000
00000000
00000000
,
00000000
00000000
00000000
00000000
,
00010000
01000000
00000000
00001000
,
00000000
00100000
00000000
01000000
,
00000000
10000000
00000000
00010000
,
20020000
00000000
00000000
30030000
,
00010000
01000000
10000000
01000000
,
00100000
10000000
00010000
00100000
,
00001000
00010000
01000000
00010000
,
00001000
00010000
00000100
00001000
,
00000010
00000010
00000010
00001000
,
00000100
00000100
00000100
00010000
,
00000010
00000010
00000010
00001000
,
00000001
00000001
00000001
00000100
,
00000020
00000000
00000000
00001030
,
00002000
00000000
00003100
00010000
,
00002000
00000000
00000000
01003000
,
02000000
00000000
03010000
10000000
,
01000000
00000000
00200000
00000000
,
02000000
00000000
00000000
03300000
,
01000000
10000000
00000000
00010000
,
00000000
01000000
00000000
00100000
,
10000000
01000000
00100000
00001000
,
00010000
00000000
00000100
00000000
,
00010000
00000000
00001000
00000000
,
00010000
00000000
00000010
00000000
,
00001000
00000001
00000100
00000010
,
00001000
00000000
00000100
00000000
,
00001000
00000000
00000001
00000000
,
00001000
00000000
00000010
00000000
,
00000100
00000001
00001000
00000010
,
00010000
00000000
00001000
00000000
,
00010000
00000000
00000100
00000000
,
00010000
00000000
00000010
00000000
,
00001000
00000100
00010000
00001000
,
01000000
00000000
00010000
00000000
,
01000000
00000000
00100000
00000000
,
01000000
00000000
10000000
00000000
,
01000000
00100000
01000000
00100000
,
20000000
00000000
30010000
01000000
,
00200000
00000000
10300000
01000000
,
00200000
00000000
00310000
10000000
,
11000000
00000000
00000000
00000000
,
00011000
00000000
00000000
00000000
,
00000101
00000000
00001100
00000000
,
00001001
00001001
00000110
00001001
,
00000001
00000100
00000010
00001000
,
00000100
00000010
00000001
00000001
,
00001000
00000010
00010000
00010000
,
00001000
01000000
00010000
00100000
,
01000000
10000000
00100000
01000000
,
00010000
10000000
01000000
01000000
,
00100000
00001000
00010000
00010000
,
00000100
00000010
00000002
00000000
,
00001003
00000010
00001000
00000010
,
00000100
00000001
00000100
00000001
,
00001000
00000100
00001000
00000100
,
00000010
00000001
00000010
00000001
,
00001000
00000010
00010000
00001000
,
01000000
00100000
10000000
01000000
,
00100000
00001000
00010000
00000100
,
00000010
00000100
00010000
00001000
,
00022000
00000000
00000000
00000000
,
00033000
00000000
00000000
00000000
;

//---------------dance-double - ----------------
#NOTES:
     dance-double:
     :
     Medium:
     6:
     0.371,0.402,0.221,0.071,0.000:
00000000
00000000
00000000
00000000
,
00000000
00000000
00000000
00000000
,
00000000
00000000
00000000
00000000
,
00000000
00000000
00000000
00000000
,
00100000
01000000
00010000
00000000
00010000
00100000
00001000
00000000
,
00001000
00010000
00000010
00000000
00000010
00001000
00000001
00000000
,
00000001
00000100
00000010
00000000
00000010
00001000
00000100
00000000
,
00010000
00001000
00010000
00011000
,
00001000
01000000
00000000
00100000
00000000
01000000
00000000
00010000
,
00000000
00100000
00000000
01000000
00000000
10000000
00000000
01000000
,
00000000
00100000
00000000
00010000
00000000
10000000
00000000
00100000
,
00000000
01000000
00000000
00010000
00000000
00100000
00000000
00001000
,
00010000
00000000
00001000
00000000
00010000
00000100
00001000
00000000
,
00000010
00000000
00000100
00000000
00000001
00001000
00000100
00000000
,
00000010
00000000
00000100
00000000
00010000
00000010
00001000
00000000
,
00000001
00000000
00000100
00000000
00000010
00001000
00000001
00000000
,
00000200
00000010
00000000
00000000
00000000
00000000
00000301
00000000
,
00002000
00000010
00000000
00000000
00000000
00000000
00003001
00000100
,
00000020
00010000
00000000
00000000
00000000
00000000
00001030
00000000
,
00000200
00001000
00000000
00000000
00000000
00000000
00010300
00000000
,
00001000
01000000
00000000
01000000
00200000
00000000
00000000
00000000
,
02000000
00000000
00000000
03300000
,
00100000
10100000
00000000
01010000
,
00000000
00011000
00000000
00010100
,
00001000
00000000
00000010
00000000
00000100
00000001
00000100
00000000
,
00000010
00001000
00000000
00000100
00000000
00001000
00000000
00000000
,
00000001
00000100
00000000
00000010
00000000
00000100
00000000
00000000
,
00000001
00001000
00000000
00000010
00000000
00010000
00001000
00100000
,
00010000
00000000
01000000
00000000
00100000
10000000
00100000
00000000
,
01000000
00010000
00000000
01000000
00000000
00100000
00000000
00000000
,
10000000
01000000
00000000
00100000
00000000
01000000
00000000
00000000
,
00100000
00001000
00000000
00010000
00000000
00000100
00001000
00000010
,
00000100
00000000
00000010
00000000
00001000
00000010
00000100
00000000
,
00000001
00000010
00000000
00000011
00000000
00001001
00000000
00000000
,
00001000
00000010
00000000
00001010
00000000
00010010
00000000
00000000
,
00010000
00001000
00000000
00011000
00000000
00001000
01000000
00001000
,
00100000
00000000
00010000
00000000
01000000
00100000
10000000
00000000
,
00010000
00100000
00000000
01100000
00000000
11000000
00000000
00000000
,
10000000
00010000
00000000
00110000
00000000
10010000
00000000
00000000
,
10000000
00100000
00000000
01000000
00000000
00001000
00010000
00001000
,
00100000
00000000
00001000
00000000
00010000
00000100
00001000
00000000
,
00000010
00000000
00000100
00000001
00000000
00000101
00000000
00000000
,
00000001
00000000
00001000
00000010
00000000
00001010
00000000
00000000
,
00001000
00000000
00000100
00000010
00000000
00000010
00000001
00000000
,
00000110
00000000
00000000
00000000
,
00011000
00000000
00000000
00000000
,
01100000
00000000
10010000
00000000
,
10100000
10010000
00110000
01100000
,
00100000
00000000
00010000
00000000
00100000
01000000
10000000
00000000
,
00100000
00000000
01000000
00010000
00000000
00100000
00000000
00001000
,
00010000
00000000
00010000
00000010
00000000
00000100
00000000
00000001
,
00001000
00000000
00001000
00000010
00000000
00000100
00000001
00000100
,
00000010
00000000
00001000
00000000
00000100
00000010
00000001
00000000
,
00000010
00000000
00000100
00001000
00000000
00000010
00000000
00000100
,
00000001
00000000
00000001
00001000
00000000
00000010
00000000
00010000
,
00001000
00000000
00001000
00100000
00000000
00010000
00100000
01000000
,
10000000
01000000
00100000
00001000
,
00100000
01000000
10000000
00010000
,
10000000
00100000
01000000
00001000
,
01000000
00100000
10000000
00010000
,
00100000
00001000
00010000
00000100
,
00010000
00000000
00000010
00000000
00010000
00000000
00001000
00100000
,
00010000
01000000
00001000
00010000
,
00000100
00000000
00000010
00000000
00000001
00000000
00001000
00000001
,
00002002
00000000
00000000
00000000
,
00003003
00000000
00000000
00000000
;

//---------------dance-double - ----------------
#NOTES:
     dance-double:
     :
     Hard:
     9:
     0.542,0.603,0.265,0.115,0.309:
00000000
00000000
00000000
00000000
,
00000000
00000000
00000000
00000000
,
00000000
00000000
00000000
00000000
,
00000000
00000000
00000000
00000000
,
00100000
00010000
01000000
00000000
01000000
00010000
00100000
00000000
,
00001000
00010000
00000100
00000000
00000100
00010000
00001000
00000000
,
00010000
00000010
00001000
00000000
00001000
00000010
00010000
00000000
,
00000010
00000000
00000000
00010000
00001000
00000000
00000000
00010000
00001000
00000000
00000000
00100000
00001000
00000000
00000000
00000000
,
00010000
00001000
00020000
00000000
00000000
00000000
00000010
00000000
00000000
00000000
00001000
00000000
00000000
00000000
00030010
00000000
,
00000000
00001010
00000000
00010010
00000000
00011000
00000000
01000000
,
00001000
00010000
00002000
00000000
00000000
00000000
00100000
00000000
00000000
00000000
00010000
00000000
00000000
00000000
00103000
00000000
,
00000000
00110000
00000000
00101000
00000000
00011000
00000000
00001000
,
01000000
00010000
00000000
00000000
10000000
00000000
00000000
01000000
00000000
00100000
00000000
00000000
00010000
00000000
00000000
10000000
,
00100000
10000000
00000000
00000000
00010000
00000000
00000000
00100000
00000000
01000000
00000000
00000000
00100000
00000000
00000000
00001000
,
00000000
00010000
00000000
00000000
00000010
00000000
00000000
00000100
00000000
00000001
00000000
00000000
00001000
00000000
00000000
00000010
,
00000100
00000010
00000000
00000000
00001000
00000000
00000000
00000001
00000000
00000010
00000000
00000000
00000100
00000000
00000000
00000010
,
00000002
00000000
00001000
00000000
00000000
00000000
00000000
00000010
00000003
00000100
00000000
00000000
00001000
00000000
00000000
00000010
,
00000200
00000000
00000001
00000000
00000000
00000000
00000000
00000010
00000300
00001000
00000000
00000000
00000100
00000000
00010000
00001000
,
00000000
00001000
00010000
00000000
00000100
00000000
00000000
00010000
00000000
00001000
00000000
00000000
01000000
00000000
00000000
00100000
,
20000000
00000000
01000000
00000000
00000000
00000000
00000000
00010000
30000000
01000000
00000000
00000000
00100000
00000000
00000000
00000000
,
10000000
01000000
00100000
00010000
02000000
00000000
00000000
00000000
,
00200000
00000000
00000000
03300000
,
01000000
00000000
00100000
00000000
01000000
00000000
00000000
01000000
00010000
00000000
00100000
00000000
00010000
00000000
00000000
00010000
,
00100000
00000000
00001000
00000000
00010000
00000000
00000000
00010000
00000100
00000000
00001000
00000000
00000100
00000000
00000000
00000000
,
00001100
00000000
00001000
00000010
00000100
00000001
00000010
00000100
,
00001000
00000001
00000000
00001000
00000000
00000010
00000100
00000001
,
00001000
00000010
00000000
00010000
00000000
00000010
00001000
00000100
,
00010000
00001000
00000000
01000000
00000000
00100000
10000000
00010000
,
00100000
01000000
10000000
01000000
00100000
00010000
01000000
00001000
,
00100000
00010000
00000000
10000000
00000000
00100000
01000000
00010000
,
00100000
01000000
00000000
00100000
00000000
00010000
01000000
00001000
,
00010000
00000100
00000000
00000010
00000000
00000100
00001000
00000010
,
00000100
00000001
00000010
00001000
00000010
00000001
00000100
00000010
,
00001000
00000010
00000000
00011000
00000000
00010100
00000000
00000100
,
00001000
00000010
00000000
00000101
00000000
00001010
00000000
00001000
,
00000100
00010000
00000000
00011000
00000000
00001000
01000000
00100000
,
10000000
00010000
01000000
10000000
01000000
00010000
00100000
01000000
,
10000000
00100000
00000000
01010000
00000000
01001000
00000000
00001000
,
00100000
00010000
00000000
11000000
00000000
00110000
00000000
00100000
,
00001000
00010000
00000000
00011000
00000000
00010000
00000100
00001000
,
00001001
00000000
00000001
00000100
00001000
00000100
00000010
00010000
,
00001000
00100000
01000000
10000000
00000000
11000000
00000000
10000000
,
00100000
00010000
00100000
01000000
00000000
00011000
00000000
00010000
,
00000010
00000100
00001000
00000100
00000000
00000010
00001000
00000001
,
00000010
00000100
00000100
00000100
00000100
00000100
00000100
00000100
,
00010000
00001000
00001000
00001000
00001000
00001000
00001000
00001000
,
01000000
00010000
00010000
00010000
00100000
01000000
01000000
01000000
,
10000000
00000000
00000000
00010000
01000000
00000000
00000000
00010000
01000000
00000000
00000000
00010000
10000000
00000000
00100000
00000000
,
10000000
00000000
01000000
00000000
00100000
00000000
00010000
10000000
00010000
10000000
00010000
10000000
00010000
00000000
01000000
00000000
,
00001000
00000000
00010000
00000000
00001000
00000000
00100000
00010000
00000000
01000000
00000000
00100000
00000000
10000000
00000000
00010000
,
00100000
00000000
00001000
00000000
00010000
00000000
00000100
00001000
00000000
00000010
00000000
00000100
00000000
00000001
00000000
00001000
,
00000010
00000000
00000100
00000000
00000001
00000000
00001000
00000100
00000000
00000010
00000000
00000100
00000000
00001000
00000100
00000010
,
00000001
00000000
00000100
00000000
00000010
00000000
00001000
00000001
00001000
00000001
00001000
00000001
00001000
00000000
00000010
00000000
,
00010000
00000000
00001000
00000000
00010000
00000000
00000100
00001000
00000000
00000010
00000000
00000100
00000000
00000001
00000000
00001000
,
00000100
00000000
00010000
00000000
00001000
00000000
00100000
00010000
00000000
01000000
00000000
00100000
00000000
10000000
00000000
00010000
,
01000000
00100000
10000000
00010000
00000000
01000000
00100000
10000000
,
01020000
01000000
00000000
10000000
00000000
01030000
00000000
00100000
,
00000000
10000000
00000000
01000000
00000000
00100000
00000000
00001000
,
00020000
00000100
00000000
00001000
00000000
00030100
00000000
00010000
,
00000000
00000010
00000000
00000100
00000000
00000001
00000000
00000010
,
00000200
00000001
00000000
00001000
00000000
00000310
00000000
00000011
,
00000000
00001100
00000000
00010100
00000000
00011000
00000000
00001000
,
00200000
01000000
00000000
10000000
00000000
01300000
00000000
00110000
,
00000000
11000000
00000000
01100000
00000000
00101000
00000000
00010000
,
00022000
00000000
00000000
00000000
,
00033000
00000000
00000000
00000000
;
