#TITLE:Macuilxochitl;
#SUBTITLE:;
#ARTIST:TOMOSUKE;
#TITLETRANSLIT:;
#SUBTITLETRANSLIT:;
#ARTISTTRANSLIT:;
#GENRE:;
#CREDIT:;
#MENUCOLOR:;
#METERTYPE:DDR;
#BANNER:macuilxochitl-bn.png;
#BACKGROUND:macuilxochitl-bg.png;
#LYRICSPATH:;
#CDTITLE:DDREncore2.png;
#MUSIC:Macuilxochitl.mp3;
#OFFSET:-1.317;
#SAMPLESTART:73.688;
#SAMPLELENGTH:12.000;
#SELECTABLE:YES;
#LISTSORT:;
#BPMS:0.000=148.000;
#STOPS:;
#BGCHANGES:;
#ATTACKS:;

//---------------dance-single - ----------------
#NOTES:
     dance-single:
     :
     Challenge:
     10:
     0.771,0.843,0.367,0.104,0.838:
0000
0000
0000
0000
0000
0000
0000
0000
1001
0000
0000
1001
0000
0000
1001
0000
,
0000
0001
0100
0010
0000
1000
0100
0010
,
0001
0010
0100
1000
0000
0001
0100
1000
,
0100
0001
0010
0100
1000
0001
0100
0010
,
0001
0000
1000
0000
0100
0000
0010
0000
1000
0000
0000
0000
0001
0100
0001
0000
,
1000
0100
0010
0001
0010
0100
1000
0001
,
0100
0010
1000
0100
0001
0100
0010
0100
,
1000
0100
0001
1000
0010
0001
0100
0010
,
0000
1001
0000
0101
0000
1010
0000
0000
0101
0000
1001
0000
0000
0000
0000
0000
,
1000
0100
1000
0001
0010
0001
1000
0100
0010
0001
0100
0010
1000
0001
0100
0001
,
0000
1000
0200
0000
0000
0000
0000
0000
0000
0000
0000
0000
0000
0000
0000
0000
,
0300
0000
0000
0000
0110
0000
0000
0000
0000
0000
0000
1000
0000
0001
0000
0100
,
0020
0000
0000
0000
0000
0000
0000
0000
0030
0000
0000
1000
0000
0001
0000
0100
,
0002
0000
0000
0000
0003
0000
1000
0100
0010
0000
0000
0001
0000
0100
0000
0001
,
1000
0100
0010
0001
0100
1000
0100
0001
,
1000
0000
0010
0000
0100
0000
0001
0000
1000
0000
0001
1000
0001
0100
0010
1000
,
0001
0000
0000
1001
0000
0100
0001
0000
1000
0000
0100
0000
0001
0000
0100
0000
,
1000
0010
0000
0100
0000
0101
0000
1001
0000
1100
0000
1001
0000
0101
0000
0000
,
1000
0100
0010
0001
0000
0000
1000
0100
1000
0100
0010
0001
0100
0000
0001
0000
,
1000
0100
0001
0100
0010
0001
1000
0010
,
1000
0010
0100
0001
0010
0000
0000
0000
0000
1001
0000
1000
0001
0100
0010
1000
,
0100
1000
0001
0100
1000
0100
0001
0010
,
0100
1000
0000
0001
0000
0100
0000
1001
0000
0000
0110
0000
0000
0000
0000
0000
,
0000
1001
0000
0101
0000
1010
0000
1000
0001
0000
1001
0000
0000
0000
0000
0000
,
1000
0100
0010
0001
0000
0100
0000
0010
0000
1000
0000
0001
0100
0000
0010
0000
,
0100
0001
1000
0100
0000
0010
0000
0001
0000
1000
0000
0100
0010
0000
0001
0000
,
0100
0010
1000
0100
0000
1000
0000
0001
0000
0010
0000
0001
1000
0000
0100
0000
,
0010
0001
1000
0100
0000
1000
0000
0001
0000
0100
0000
0010
1000
0000
0001
0000
,
1000
0100
0010
0001
1000
0100
0010
0001
1000
0100
0010
0100
0000
0000
0000
0000
,
1000
0001
0100
0010
1000
0001
0100
0010
1000
0001
0100
0010
0000
0000
0000
0000
,
0001
1000
0100
1000
0100
1000
0001
0100
0001
0100
0001
1000
0000
0000
0000
0000
,
0001
1000
0100
0010
0001
1000
0000
0000
1001
0000
0000
1001
0000
0000
0000
0000
,
1000
0001
0000
0110
0000
1001
0000
1001
0000
0000
0001
0100
0010
1000
0100
1000
,
0001
0000
0000
0100
0000
0001
1000
0100
1000
0000
0001
0000
0100
0000
0010
0000
,
1000
0100
0001
0100
1000
0001
0100
1000
,
0100
0001
1000
0100
0010
0001
1000
0010
,
0100
0000
0001
0000
1000
0001
1000
0000
0000
0000
0010
0000
1000
0000
0001
0000
,
1000
0100
0010
0001
1000
0001
0100
0010
,
1000
0000
0100
0000
0010
0000
0100
0000
1001
0000
1001
0000
0001
0100
0010
1000
,
0001
0100
0010
1000
0001
0010
0100
1000
0001
0000
0100
0000
0001
0100
0010
1000
,
0100
0010
0001
1000
0100
0010
0001
1000
0001
0000
1000
0000
0100
0010
0001
1000
,
0010
0100
0001
1000
0010
0100
0001
1000
0100
0000
1000
0000
0001
0100
0010
1000
,
0001
0010
0100
1000
0001
0010
0100
1000
0001
0000
0000
0101
0000
0000
1010
0000
,
0000
1001
0000
0000
0010
0100
0000
0000
1001
0000
0000
1100
0000
0000
0011
0000
,
0000
2002
0000
0000
0000
0000
3003
0000
0000
0000
1000
0100
0020
0000
0000
0000
,
0030
0000
0001
0100
0010
0000
1000
0000
0100
0000
1000
0000
0002
0000
0000
0000
,
0003
0000
0100
0010
2000
0000
0000
0000
3000
0000
0000
0000
0001
0000
0000
0000
,
0000
0001
1000
0010
0100
0000
0000
0000
0001
0000
0000
0000
1000
0000
0000
0000
,
0100
0010
0001
0000
1001
0010
0100
0000
,
0000
0000
1000
0100
0010
0000
0001
0000
0100
0000
0010
0000
2000
0000
0000
0000
,
3000
0000
0010
0100
0002
0000
0000
0000
0003
0000
0000
0000
1000
0000
0000
0000
,
0000
0001
0010
0100
1000
0000
0001
0000
0100
0000
0000
0000
0002
0000
0000
0000
,
1003
0000
0010
0000
0100
0000
0001
0000
1000
0000
0000
0000
0001
0100
0010
0100
,
0000
0001
0000
1000
0000
0001
0100
0000
0010
0000
1000
0000
0001
0000
0010
0000
,
0100
0000
1000
0000
0001
0000
0100
0000
0010
0000
1000
0000
0001
1000
0010
0100
,
0000
0001
0000
1000
0000
0100
1000
0000
0001
0000
0100
0000
1000
0000
0100
0000
,
0001
0000
0010
0000
1000
0000
0010
0000
0001
0000
0100
0000
0010
1000
0100
1000
,
0000
0001
0000
0010
0000
0001
0100
0000
0010
0000
1000
0000
0001
0000
1000
0000
,
0001
0100
0001
0000
1000
0000
0100
0000
0010
0100
0010
0000
0001
1000
0100
1000
,
0000
0001
0000
0100
0000
0001
0010
0000
0100
0000
1000
0000
1000
0000
0100
0000
,
0010
0001
0010
0100
1000
0001
1001
1001
,
0000
1000
0100
0010
0001
0010
0100
1000
0001
0010
0100
1000
0010
0000
0000
0000
;

//---------------dance-single - ----------------
#NOTES:
     dance-single:
     :
     Beginner:
     2:
     0.174,0.262,0.132,0.151,0.000:
0000
0000
0000
0000
,
0000
0000
0000
0000
,
0000
0000
0000
0000
,
0000
0000
0000
0000
,
0000
0000
1001
0000
,
0010
0000
1001
0000
,
0100
0000
1001
0000
,
0001
0000
1000
1000
,
0000
0000
0002
0000
,
2000
0000
0000
0000
,
0000
0000
0000
0000
,
3003
1001
0000
0000
,
0100
0000
0000
0000
,
0100
0000
0010
0000
,
1000
0000
0000
0000
,
0001
0000
0000
0000
,
0010
0000
0001
0000
,
0100
0000
0010
0000
,
0100
0000
0100
0000
,
0001
0000
0000
0000
,
1000
0000
0001
0000
,
0010
0000
0100
0000
,
2002
0000
3003
0000
,
0220
0000
0330
0000
,
0010
0000
0100
0000
,
0001
0000
0100
0000
,
0001
0000
1000
0000
,
0100
0000
1000
0000
,
0010
0000
0010
0000
,
0100
0000
0100
0000
,
0010
0000
1000
0000
,
0100
0000
0010
0000
,
0000
0000
0001
0000
,
0100
0000
0010
0000
,
1000
0000
0100
0000
,
0010
0000
0001
0000
,
0100
0000
0010
0000
,
0100
0000
0001
0000
,
1000
0000
2002
0000
,
3003
0000
2002
0000
,
3003
0000
0220
0000
,
0330
0000
0220
0000
,
0330
0000
1000
0000
,
0000
0000
0001
0000
,
0000
0000
0000
1000
,
0000
0001
0000
0100
,
0000
0001
0000
0010
,
0000
0100
0000
1000
,
0000
0001
0000
0100
,
0000
0001
0000
1000
,
0000
0100
0000
0010
,
0000
0001
0000
0100
,
0000
1000
0000
0010
,
0000
0001
0000
1000
,
1000
1000
0000
0001
,
0000
0100
0000
0001
,
0001
0001
0000
1000
,
0000
0001
0000
0100
,
0000
0110
0000
0001
,
0000
1000
0000
0100
,
0000
0110
0000
2002
,
0000
0000
3003
1001
;

//---------------dance-single - ----------------
#NOTES:
     dance-single:
     :
     Hard:
     8:
     0.416,0.465,0.047,0.122,0.089: // measure 1
0000
0000
0000
0000
,  // measure 2
0000
0000
0000
0000
,  // measure 3
0000
0000
0000
0000
,  // measure 4
0000
0000
0000
0000
,  // measure 5
0000
0000
0000
0000
0100
0010
1000
0100
,  // measure 6
1000
0000
0001
0000
0010
0001
0010
0000
,  // measure 7
0100
0000
1000
0000
0001
0100
0010
0100
,  // measure 8
0001
1000
0100
0010
,  // measure 9
0000
0001
0000
1000
0000
0100
0000
0000
1000
0000
0001
0000
0000
0000
0000
0000
,  // measure 10
0100
0010
1000
0100
1000
0001
0010
0100
,  // measure 11
1000
0002
0000
0000
0000
0000
0000
0000
,  // measure 12
0003
0000
1001
0000
0000
0000
0100
0010
,  // measure 13
1000
0000
0100
0000
0010
0000
0001
0100
,  // measure 14
0001
1000
0010
0100
,  // measure 15
0001
0010
0001
1000
0200
0000
1300
0000
,  // measure 16
0010
0100
0001
0010
0002
0000
1003
0000
,  // measure 17
0100
1000
0001
0010
,  // measure 18
0001
0100
0001
0000
1000
0010
1000
0000
,  // measure 19
0001
0100
0001
0000
0001
0100
0001
1000
,  // measure 20
0200
2300
3020
0230
,  // measure 21
0301
0000
0101
0000
0000
0001
1000
0100
,  // measure 22
1000
0001
0010
0001
,  // measure 23
0000
0010
0000
1000
0000
0001
0000
1000
0000
0000
1010
0000
0000
0000
0000
0000
,  // measure 24
0000
0100
0000
0001
0000
1000
0000
0001
0000
0000
1001
0000
0000
0000
0000
0000
,  // measure 25
0001
0000
1000
0000
0001
0100
0010
0100
,  // measure 26
0001
1000
0100
1000
,  // measure 27
0010
0000
1000
0000
0010
0100
0010
1000
,  // measure 28
0100
1000
0001
0010
,  // measure 29
0001
0100
0001
0000
1000
0000
0010
0000
,  // measure 30
0100
0010
0100
0000
0001
0000
1000
0000
,  // measure 31
0100
1000
0100
0000
1000
0000
0001
0000
,  // measure 32
0010
0000
0000
0000
0001
0000
0000
0000
1000
0000
0000
0100
0000
0000
0000
0000
,  // measure 33
1000
0000
0000
0010
0000
0100
0000
0001
0000
0000
0000
0000
1000
0000
0001
0000
,  // measure 34
1000
0010
0100
0001
,  // measure 35
1000
0000
0100
0000
0010
0000
0001
0100
,  // measure 36
0001
1000
0010
0100
,  // measure 37
0001
1000
0100
0010
0001
0000
0100
0000
,  // measure 38
0010
1000
0010
0000
0100
0000
0001
0000
,  // measure 39
1000
0000
0100
0000
0010
0001
0000
1000
,  // measure 40
0100
0001
0100
1000
0001
1000
0000
0001
,  // measure 41
0100
1000
0100
0001
1000
0001
0000
1000
,  // measure 42
0100
0001
0100
1000
0001
1000
0000
0001
,  // measure 43
0100
0000
1000
0000
0100
0000
0001
0000
1000
0000
0000
0001
0000
0000
0100
0000
,  // measure 44
0000
0010
0000
0000
1000
0000
0000
0000
0001
0000
0000
0010
0000
0000
0100
0000
,  // measure 45
0000
2000
0000
0000
0000
0000
0000
0000
3000
0000
0000
0000
0001
0000
0000
0000
,  // measure 46
0100
0010
1000
0000
0100
0000
0010
0001
,  // measure 47
0010
0100
1000
0000
0001
0000
0100
0000
,  // measure 48
0010
1000
0010
0000
0100
0000
0002
0000
,  // measure 49
0013
0100
1000
0000
0001
1000
0200
0000
,  // measure 50
1300
0000
0010
0100
0010
1000
0001
0000
,  // measure 51
0100
0010
1000
0100
,  // measure 52
0010
0001
0010
0000
0100
0000
1000
0000
,  // measure 53
0001
0000
0100
0000
0010
0000
1000
0100
,  // measure 54
1000
0001
0010
0001
,  // measure 55
1000
0000
0100
0000
1000
0000
0001
1000
,  // measure 56
0001
0100
0001
0002
,  // measure 57
0203
0000
0320
0000
1030
0000
0001
0100
,  // measure 58
0001
1000
0100
0001
,  // measure 59
0100
0000
1000
0000
0010
0000
0100
0001
,  // measure 60
0100
1000
0010
0100
,  // measure 61
0001
0000
1000
0000
0100
0000
1000
1001
,  // measure 62
0000
0001
0100
1000
0100
0001
1000
0000
;

//---------------dance-single - ----------------
#NOTES:
     dance-single:
     :
     Easy:
     4:
     0.301,0.349,0.160,0.207,0.000:
0000
0000
0000
0000
,
0000
0000
0000
0000
,
0000
0000
0000
0000
,
0000
0000
0000
0000
,
0000
0000
1100
0000
,
0001
1000
0100
0001
,
0100
1000
0010
0100
,
0001
2000
3020
0230
,
0302
1003
0110
0000
,
0001
1000
0010
0100
,
2002
0000
0000
3003
,
0000
1001
0000
0000
,
0001
1000
0100
0001
,
0100
1000
0001
0010
,
0001
1000
0100
0010
,
0001
0100
0010
1000
,
0020
0000
0130
0001
,
2000
0000
3001
0010
,
0002
0000
2003
0000
,
3010
0100
0001
1000
,
0100
2200
0000
3300
,
1000
0001
0100
0010
,
0200
0000
0301
0000
,
0002
0000
1003
0000
,
1000
0100
0001
0100
,
1000
0001
1000
0001
,
1000
0010
0001
0010
,
1000
0001
1000
0001
,
0100
0010
0100
0110
,
0001
1000
0001
1001
,
1000
0100
0010
0110
,
2000
0000
3002
0000
,
0103
0010
1000
0100
,
1000
0001
1000
0001
,
0010
0001
0100
0001
,
1000
0010
0100
0010
,
1000
0100
0010
0001
,
1000
0001
1000
0001
,
1000
0010
1010
0000
,
0000
0010
1001
0000
,
0000
1000
0101
0000
,
0000
0001
0110
0000
,
0000
0100
1001
0000
,
0110
0000
1001
0000
,
0220
0000
0330
0001
,
0010
0100
1000
0001
,
1000
0001
0000
1000
,
0100
0010
0001
1000
,
0010
0100
0000
0001
,
0100
0010
1000
0100
,
1000
0001
0000
0100
,
0010
0100
0001
1000
,
0100
0010
0000
0001
,
1000
0200
0000
0300
,
1000
0001
0100
0001
,
1000
0020
0000
0030
,
0100
0001
1000
0100
,
1000
0002
0000
0003
,
0100
0001
0100
0010
,
1000
0020
0000
0030
,
1000
0001
0100
0010
,
1000
0001
0100
0110
;

//---------------dance-single - ----------------
#NOTES:
     dance-single:
     :
     Medium:
     6:
     0.387,0.436,0.094,0.113,0.066:
0000
0000
0000
0000
,
0000
0000
0000
0000
,
0000
0000
0000
0000
,
0000
0000
0000
0000
,
0000
0000
0000
0000
0001
0000
1000
0100
,
1000
0001
0010
0001
,
0100
0000
0010
0000
1000
0000
0001
0100
,
0001
2000
3020
0230
,
0301
0000
1000
0001
0100
0010
0000
0100
,
0002
2003
3200
0320
,
0031
0200
0000
0000
0000
0000
0300
0000
,
0000
1001
0000
0000
,
1000
0000
0001
0100
0001
0000
1000
0000
,
0010
0000
0100
0010
0100
0000
0001
0000
,
1000
0100
0010
0001
,
1000
0000
0001
0000
0100
0010
0100
0001
,
1000
0100
0010
0001
,
1000
0000
0000
0001
0000
0100
0000
0001
0000
0000
0000
0000
1000
0000
0000
0000
,
0001
0010
0001
0000
1000
0100
1000
0000
,
0001
0010
0100
1000
,
0001
0100
0020
0000
0030
0000
1000
0000
,
0001
0010
0100
1000
,
0000
0000
0000
0100
0000
0001
0000
1000
0000
0000
1001
0000
0000
0000
0000
0000
,
0000
0001
0000
1000
0000
0100
0000
0010
0000
0000
0110
0000
0000
0000
0000
0000
,
0001
1000
0001
0000
0100
0000
0010
0000
,
1000
0100
0010
0000
0001
0000
0100
0000
,
0010
1000
0100
0000
1000
0000
0001
0000
,
0010
0001
0100
0000
0001
0000
0010
0000
,
0001
1000
0100
1000
0001
0000
0100
0000
,
0010
0100
0010
1000
0100
0000
1000
0000
,
0001
0010
0001
1000
0100
0000
0010
0000
,
0001
1000
0100
0000
1001
0000
0000
0000
,
0110
0000
0000
1000
0001
0000
0010
0000
,
0001
0100
0001
0000
1000
0000
0010
0000
,
1000
0100
1000
0100
1000
0000
0010
0000
,
0100
0001
0100
0000
0010
0000
1000
0000
,
0001
0010
0001
0000
1000
0000
0001
0000
,
0100
0001
0100
0000
1000
0000
0010
0000
,
0100
0001
1001
0000
,
0100
0010
0100
0000
1001
0000
0000
0000
,
0010
0100
0010
0000
1001
0000
0000
0000
,
0001
1000
0001
0000
0110
0000
0000
0000
,
1000
0000
0001
0000
1000
0000
0000
0000
0001
0000
0000
1000
0000
0000
0100
0000
,
0000
1000
0000
0000
0001
0000
0000
0000
1000
0000
0000
0001
0000
0000
0010
0000
,
0000
0200
0000
0000
0000
0000
0000
0000
0300
0000
0000
0000
0001
0000
0000
0000
,
0100
0000
0010
1000
0010
0100
0001
0000
,
1000
0100
0010
0001
,
1000
0001
1000
0000
0100
0000
0020
0000
,
0031
0002
1003
0010
,
0100
0000
0001
1000
0001
0100
0010
0000
,
1000
0100
0010
0001
,
1000
0100
1000
0000
0010
0000
0100
0000
,
0001
0000
1000
0000
0010
0000
0100
0001
,
0100
0010
1000
0100
,
0001
0000
0100
0000
1000
0000
0001
0010
,
0001
1000
0010
0001
,
0010
0000
1000
0000
0100
0000
1000
0001
,
1000
0001
0010
0001
,
1000
0000
0100
0000
0010
0000
0001
0100
,
0001
1000
0010
0100
,
0001
1000
0010
1001
,
1000
0100
0010
0001
0010
0100
1000
0000
;

//---------------dance-double - ----------------
#NOTES:
     dance-double:
     :
     Hard:
     9:
     0.441,0.494,0.104,0.188,0.113:
00000000
00000000
00000000
00000000
,
00000000
00000000
00000000
00000000
,
00000000
00000000
00000000
00000000
,
00000000
00000000
00000000
00000000
,
00000000
00000000
00000100
00010000
,
00001000
01000000
00010000
00100000
,
01000000
00000000
10000000
01000000
10000000
00000000
00010000
00000000
,
00100000
00020000
02030000
03002000
,
00023000
00000000
00030200
00000000
00001300
00000001
00000000
00000000
,
00001000
00000100
00000010
00000001
00000100
00000010
00001000
00000100
,
00010000
00002000
00000000
00000000
00000000
00000000
00000000
00000000
,
00013000
00000000
00000000
00000000
01010000
00000000
00000000
00000000
00000000
00000000
00000000
10000000
00000000
01000000
00000000
00100000
,
01000000
00000000
00000000
00000000
10000000
00000000
00000000
00000000
00010000
00000000
00000000
01000000
00010000
00000000
10000000
00000000
,
01000000
00000000
00100000
00000000
00001000
00000000
00010000
00000100
,
00001000
00000010
00000001
00000010
,
00001000
00000000
00000100
00000000
00000001
00000100
00000010
00000001
,
00010000
00000000
00001000
00000000
01000000
00010000
10000000
01000000
,
00000000
00010000
01000000
10000000
01000000
00010000
00001000
01000000
,
00010000
00000000
10000000
00000000
01000000
00000000
00100000
00010000
,
00001000
00000100
00000010
00000001
,
00001000
00000100
00000010
00000000
00000001
00000000
00000100
00000000
,
00000010
00001000
00000100
00000010
,
00000001
00001000
00000000
00000100
00000000
00000010
00000000
00000001
00000000
00000000
00000001
00000000
00000000
00000000
00000000
00000000
,
00000000
00001000
00000000
00000100
00000000
00000001
00000000
00000100
00000000
00000000
00001000
00000000
00000000
00000000
00000000
00000000
,
00000001
00000100
00001000
00000000
00000100
00000000
00000010
00000000
,
00001000
01000000
00100000
00000000
00010000
00000000
10000000
00000000
,
00100000
00010000
00001000
00000000
00000100
00000000
00000010
00000000
,
00001000
00000100
00000010
00000000
00000001
00000000
00001000
00000000
,
00000010
00001000
00000100
00000001
00000100
00001000
00000010
00000000
,
00000100
00000001
00000010
00000001
00001000
00000100
00001000
00000000
,
00000100
00010000
00001000
01000000
10000000
01000000
00010000
00000000
,
00100000
00000000
00010000
00000000
10000000
00000000
01000000
00000000
00010000
00000000
00000000
10000000
00000000
00000000
00000000
00000000
,
00010000
01000000
00000000
00100000
00000000
10000000
00000000
00000000
01000000
00000000
00000000
00000000
10000000
00000000
00000000
00000000
,
00010000
00000000
00100000
00000000
00001000
00000000
01000000
00010000
,
00100000
00001000
00010000
00000000
00000100
00000000
00001000
00000000
,
00000010
00000000
00000100
00000000
00000001
00000000
00001000
00000100
,
00000010
00000001
00000010
00000000
00000100
00000000
00001000
00000000
,
00000001
00000000
00000100
00000000
00000010
00000000
00010000
00001000
,
01000000
00010000
00100000
00010000
01000000
01010000
00000000
00000000
,
00001000
00011000
00000000
00000000
00000001
00001001
00000000
00000000
,
00010000
00011000
00000000
00000000
10000000
11000000
00000000
00000000
,
00010000
01010000
00000000
00000000
00000100
00001100
00000000
00000000
,
00000001
00000000
00000101
00000000
00000000
00000000
00000000
00000000
00000010
00000000
00000000
00001000
00000000
00000000
00000100
00000000
,
00000000
00010000
00000000
00000000
00001000
00010000
00000000
00000000
00001000
00000000
00000000
01000000
00000000
00000000
00010000
00000000
,
00000000
00200000
00000000
00000000
00000000
00000000
00000000
00000000
00300000
00000000
00010000
01000000
00020000
00000000
00000000
00000000
,
00030000
00000000
10000000
01000000
10000000
00000000
00100000
00000000
01000000
00000000
00010000
00000000
00200000
00000000
00000000
00000000
,
00000000
00301000
00020000
00000000
00030000
00000000
00000200
00000000
,
00001300
00000010
00000001
00000010
00001000
00000100
00000002
00000000
,
00000203
00000000
00001300
00000010
00010000
01000000
20000000
00000000
,
30000000
00000000
00010000
01000000
00010000
00000000
00100000
00000000
01000000
00000000
00010000
00000000
20000000
00000000
00000000
00000000
,
30100000
00010000
02000000
00000000
03001000
00000000
00010000
00000000
,
00000100
00001000
00000010
00000001
00000010
00001000
00000200
00000000
,
00000302
00002003
00003020
00000031
,
00000100
00000000
00000010
00000001
00000010
00000000
00001000
00000000
,
00010000
01000000
10000000
01000000
,
00100000
00000000
10000000
01000000
10000000
00000000
01000000
00000000
,
00010000
00001000
00000010
00000001
,
00001000
00000000
00000010
00000100
00000010
00000000
00000001
00000000
,
00001000
00000100
00000001
00000100
,
00010000
00000000
00001000
01000000
00001000
00000000
00010000
00000000
,
00000100
00000000
00001000
00000000
00000010
00000000
00011000
00010100
,
00000000
00010000
00000100
00000010
00001000
00010000
01000000
00000000
;

//---------------dance-double - ----------------
#NOTES:
     dance-double:
     :
     Challenge:
     10:
     0.686,0.727,0.245,0.132,0.702:
00000000
00000000
00000000
00000000
00000000
00000000
00000000
00000000
00000101
00000000
00000000
00001010
00000000
00000000
00001001
00000000
,
00000000
00000001
00000010
00001000
00000000
00010000
00001000
00000100
,
00000001
00000000
00001000
00000000
00000010
00000000
00000001
00000000
00000000
00000000
00000000
00001010
00000000
00000000
00010010
00000000
,
00000000
00001000
00100000
01000000
00000000
00010000
00001000
01000000
,
10000000
00000000
00010000
00000000
00100000
00000000
10000000
00000000
11000000
00000000
00000000
00000000
00010000
01000000
00010000
00000000
,
00100000
00001000
01000000
00100000
10000000
10010000
00010000
00100000
,
00001000
00000100
00000010
00001000
00000100
00000010
00000001
00000100
,
00001000
00000100
00000020
00000000
00002030
00000000
00003200
00000000
,
00000300
00001000
00000000
00000101
00000000
00001010
00000000
00000000
00000001
00000000
00000100
00000000
00000000
00000000
00000000
00000001
,
00001000
00000100
00000010
00000001
00001000
00000100
00001000
00000100
00001000
00000001
00000100
00000010
00001000
00000100
00000010
00000001
,
00000000
00010000
00002000
00000000
00000000
00000000
00000000
00000000
00000000
00000000
00000000
00000000
00000000
00000000
00000000
00000000
,
00000000
00000000
00000000
00000000
00013000
00000000
00000000
00000000
00000000
00000000
00000000
00010000
00000000
00001000
00000000
01000000
,
00100000
00000000
00000000
00000000
10000000
00000000
00000000
00000000
01000000
00000000
00000000
00010000
00000000
01000000
00000000
10000000
,
00020000
00000000
00000000
00000000
00030000
00000000
01000000
00100000
01000000
00000000
00010000
00000000
10000000
00000000
00000000
01000000
,
00100000
00010000
01000000
00001000
00000100
00000010
00010000
00001000
,
00000010
00000001
00000100
00000010
00001000
00000001
00001000
00000010
,
00010000
00001000
00000000
00100000
00000000
00010000
00000000
01000000
00000000
00010000
00000000
10000000
00000000
10010000
00000000
00000000
,
00010000
01000000
00000000
00100000
00000000
10000000
00000000
01000000
00000000
00100000
00000000
00001000
00000000
00011000
00000000
00000000
,
00010000
00000100
00001000
00000100
00000000
00000000
00001000
00000100
00001000
00000010
00001000
00000001
00000100
00000000
00000001
00000000
,
00000010
00000100
00001000
00000001
00000100
00001000
00000100
00000001
,
00001000
00000100
00010000
00001000
00020000
00000000
00000000
00000000
00000000
00000000
00031000
00000000
00000000
00100000
00010000
00000000
,
01000000
00100000
10000000
01000000
10000000
00010000
00100000
00010000
,
01000000
00100000
00000000
10000000
00000000
01000000
00000000
11000000
00000000
00000000
00110000
00000000
00000000
00000000
00000000
00000000
,
00000000
00001000
00000000
00010000
00000000
00000100
00000000
00001000
00000010
00000000
00000101
00000000
00000000
00000000
00000000
00000000
,
00001000
00000100
00000010
00000001
00000000
00001000
00000000
00000100
00000000
00001000
00000000
00000010
00000100
00000000
00000001
00000000
,
00001000
00000100
00010000
00001000
00000000
01000000
00000000
00010000
00000000
00100000
00000000
00010000
10000000
00000000
01000000
00000000
,
10000000
01000000
00100000
00010000
00000000
10000000
00000000
00100000
00000000
01000000
00000000
00010000
00100000
00000000
00010000
00000000
,
01000000
00001000
00100000
00010000
00000000
01000000
00000000
00001000
00000000
00010000
00000000
00000100
00001000
00000000
00000000
00000000
,
00000001
00000010
00000100
00001000
00000001
00000010
00000100
00001000
00000001
00001000
00000100
00010000
00000000
00000000
00000000
00000000
,
00001000
00010000
00000100
00001000
00000010
00010000
00001000
01000000
00010000
00100000
00010000
10000000
00000000
00000000
00000000
00000000
,
00010000
01000000
00100000
10000000
00010000
01000000
00100000
10000000
00010000
00100000
01000000
10000000
00000000
00000000
00000000
00000000
,
00010000
00100000
00010000
01000000
00001000
00010000
00001000
00000000
00011000
00000000
00000000
00010100
00000000
00000000
00000000
00000000
,
00010000
00000100
00000000
00001000
00000000
00000010
00000000
00000000
00001000
00000000
00000001
00000100
00000001
00000000
00001000
00000000
,
00000100
00000010
00000001
00000000
00000001
00000100
00001000
00010000
,
00100000
00000000
10000000
00000000
01000000
00000000
10000000
00000000
00010000
00000000
01000000
00010000
01000000
00000000
00100000
00000000
,
10000000
01000000
00010000
00000000
00001000
00000010
00000001
00000100
,
00000010
00000000
00001000
00000000
00000100
00000000
00001000
00000000
00000001
00000000
00000100
00000010
00000100
00000000
00000001
00000000
,
00001000
00000001
00000010
00000000
00000100
00001000
00000010
00000001
,
00000010
00000000
00001000
00000000
00000100
00000000
00010000
00000000
00011000
00000000
00010100
00000000
00000000
00000000
00001000
00100000
,
00010000
01000000
00010000
00000000
10000000
00000000
00010000
00000000
11000000
00000000
10100000
00000000
00000000
00000000
01000000
00010000
,
00100000
00001000
00010000
00000000
00000100
00000000
00001000
00000000
00001010
00000000
00000101
00000000
00000000
00000000
00001000
00000100
,
00010000
00001000
00100000
00000000
00010000
00000000
01000000
00000000
00011000
00000000
00101000
00000000
00000000
00000000
00001000
00010000
,
00000100
00001000
00000010
00000000
00000100
00000000
00000001
00000000
00001000
00000000
00000000
00000100
00000000
00000000
00010000
00000000
,
00000000
00001000
00000000
00000000
00100000
00010000
00000000
00000000
10000000
00000000
00000000
00100000
00000000
00000000
01000000
00000000
,
00000000
20020000
00000000
00000000
00000000
00000000
30030000
00000000
00000000
00000000
10000000
01000000
00200000
00000000
00000000
00000000
,
00300000
00000000
10000000
00100000
01000000
00000000
00010000
00000000
00100000
00000000
00001000
00000000
00020000
00000000
00000000
00000000
,
00030000
00000000
00000100
00001000
00000200
00000000
00000000
00000000
00000300
00000000
00000000
00000000
00001000
00000000
00000000
00000000
,
00000000
00000001
00000100
00000010
00001000
00000000
00000000
00000000
00000100
00000000
00000000
00000000
00000010
00000000
00000000
00000000
,
00000100
00001000
00000001
00000000
00000100
00000001
00002000
00000000
,
00003000
00000000
00000100
00010000
00001000
00000000
00100000
00000000
00010000
00000000
10000000
00000000
02000000
00000000
00000000
00000000
,
03000000
00000000
10000000
01000000
20000000
00000000
00000000
00000000
30000000
00000000
00000000
00000000
00010000
00000000
00000000
00000000
,
00000000
00100000
10000000
01000000
00100000
00000000
00000000
00000000
00010000
00000000
00000000
00000000
10000000
00000000
00000000
00000000
,
00010000
00000000
00100000
00000000
01000000
00000000
00000000
00000000
10000000
00000000
00000000
00000000
00010000
00100000
00010000
01000000
,
00000000
00010000
00000000
00100000
00000000
00001000
00010000
00000000
00000100
00000000
00000000
00000000
00001000
00000000
00000010
00000000
,
00001000
00000000
00000000
00000000
00000001
00000000
00000010
00000000
00000001
00000000
00000000
00000000
00001000
00000100
00000010
00000100
,
00000000
00001000
00000000
00000100
00000000
00010000
00001000
00000000
00010000
00000000
00000000
00000000
00001000
00000000
01000000
00000000
,
00010000
00000000
00000000
00000000
00100000
00000000
00001000
00000000
00010000
00000000
00000000
00000000
00000100
00001000
00000010
00000100
,
00000000
00000001
00000000
00000010
00000000
00000100
00001000
00000000
00000001
00000000
00000000
00000000
00000100
00000000
00000001
00000000
,
00000010
00000000
00000000
00000000
00000100
00000000
00001000
00000000
00000010
00000000
00000000
00000000
00010000
00001000
00010000
00000100
,
00000000
00001000
00000000
00000010
00000000
00000100
00000001
00000000
00001000
00000000
00000000
00000000
00000100
00000000
00010000
00000000
,
00001000
00000000
00100000
00010000
10000000
01000000
10000000
10010000
,
00000000
00010000
01000000
00000000
00100000
00000000
10000000
00000000
01000000
00000000
00100000
00000000
00010000
00000000
00000000
00000000
;

//---------------dance-double - ----------------
#NOTES:
     dance-double:
     :
     Medium:
     7:
     0.398,0.436,0.028,0.160,0.071:
00000000
00000000
00000000
00000000
,
00000000
00000000
00000000
00000000
,
00000000
00000000
00000000
00000000
,
00000000
00000000
00000000
00000000
,
00000000
00000000
00001000
00000001
,
00000010
00000000
00000100
00000000
00001000
00000100
00001000
00000000
,
00000001
00000000
00000010
00000000
00000001
00001000
00000001
00000000
,
00001000
00000200
00020300
00032000
,
00003000
00100000
00000000
00010000
00000000
10000000
00000000
00000000
00010000
00000000
01000000
00000000
00000000
00000000
00100000
00000000
,
10000000
01000000
10000000
00010000
00100000
00010000
01000000
00010000
,
00100000
00002000
00000000
00000000
00000000
00000000
00000000
00000000
,
00003000
00000000
00011000
00000000
00000000
00000000
00001000
00010000
,
00000100
00000000
00001000
00000000
00000010
00000000
00000100
00000001
,
00000100
00000010
00001000
00000100
,
00010000
00000100
00001000
00000000
00000100
00000000
00001000
00000000
,
00000010
00010000
00000100
00001000
,
00000001
00000000
00000010
00000000
00000100
00001000
00000100
00000000
,
00010000
00000000
00001000
00000000
00100000
00010000
00100000
00000000
,
01000000
00000000
10000000
00000000
00020000
00000000
00030000
00100000
,
00002000
00000000
00003000
00010000
00000200
00000000
00002300
00000000
,
00003010
00000100
00000002
00000000
00000000
00000000
00001003
00000100
,
00010000
00001000
00100000
00010000
,
10000000
01000000
10000000
00000000
00100000
00000000
10010000
00000000
,
00000000
01000000
00000000
00001000
00000000
00010000
00000000
00001000
00000000
00000000
00011000
00000000
00000000
00000000
00000000
00000000
,
00000100
00001000
00000100
00000000
00001000
00000000
00000010
00000000
,
00000100
00000001
00000100
00000000
00000010
00000000
00010000
00000000
,
00000100
00001000
00000100
00000000
00010000
00000000
00001000
00000000
,
00100000
00010000
00100000
00000000
00001000
00000000
01000000
00000000
,
00010000
00100000
01000000
10000000
00010000
00000000
01000000
00000000
,
00010000
00100000
00001000
00010000
00001000
00000000
00010000
00000000
,
00000100
00001000
00000010
00000100
00000001
00000000
00001000
00000000
,
00000001
00000000
00000100
00000000
00000010
00000000
00001000
00000000
00000100
00000000
00000000
00010000
00000000
00000000
00000000
00000000
,
00001000
00000000
00000000
00010000
00000000
00001000
00000000
00100000
00000000
00000000
00000000
00000000
00010000
00000000
00000000
00000000
,
01000000
00100000
01000000
00000000
00010000
00000000
00100000
00000000
,
00001000
00010000
00000100
00001000
,
00000010
00000100
00000010
00000000
00001000
00000000
00000100
00000000
,
00010000
00001000
00100000
00010000
,
01000000
00001000
01000000
00000000
00010000
00000000
00100000
00000000
,
00001000
00000000
00010000
00000000
00000100
00000010
00000000
00000000
,
00000001
00000100
00000010
00000000
00010000
00001000
00000000
00000000
,
01000000
00100000
10000000
00000000
00010000
00100000
00000000
00000000
,
00001000
00010000
00000100
00000000
00000010
00000001
00000000
00000000
,
00001000
00000000
00000100
00000000
00010000
00000000
00001000
00000000
00100000
00000000
00000000
00010000
00000000
00000000
01000000
00000000
,
00000000
00001000
00000000
00000000
00100000
00000000
00000000
00000000
00001000
00000000
00000000
00010000
00000000
00000000
00000100
00000000
,
00000000
00002000
00000000
00000000
00000000
00000000
00000000
00000000
00003000
00000000
00000001
00000000
00000010
00000000
00000000
00000000
,
00000000
00000001
00000100
00000010
00010000
00000100
00002000
00000000
,
00003000
00000010
00020000
00000000
00030000
00000000
00000100
00000000
,
00010000
00001000
00010000
00000000
00001000
00000000
00200000
00000000
,
00000000
00000000
00320000
00000000
01030000
00100000
20000000
00000000
,
30000000
00010000
00100000
00001000
01000000
00010000
00200000
00000000
,
00300000
00001000
00020000
00000000
00000000
00000000
00031000
00000000
,
01000000
00001000
01000000
00000000
00010000
00000000
00100000
00000000
,
00001000
00010000
00000100
00000000
00001000
00000000
00000010
00000100
,
00000010
00001000
00000100
00000001
,
00000100
00000000
00001000
00000000
00000010
00000000
00010000
00000010
,
00010000
00001000
01000000
00010000
,
01000000
00000000
00010000
00000000
10000000
00000000
00100000
01000000
,
00100000
01000000
00010000
01000000
,
10000000
00000000
01000000
00000000
00010000
00000000
10000000
00100000
,
10000000
01000000
00100000
00001000
,
00010000
00000000
00000100
00000000
00010000
00000000
00000010
00001000
,
00000000
00000100
00010000
00000010
00000100
00000001
00001000
00000000
;

//---------------dance-double - ----------------
#NOTES:
     dance-double:
     :
     Easy:
     5:
     0.301,0.378,0.132,0.283,0.000:
00000000
00000000
00000000
00000000
,
00000000
00000000
00000000
00000000
,
00000000
00000000
00000000
00000000
,
00000000
00000000
00000000
00000000
,
00000000
00000000
00000100
00000000
,
00000001
00000000
00001000
00000100
,
00000010
00000001
00001000
00000000
,
00000100
00000000
00010000
00001000
,
00010000
00001000
00011000
00000000
,
00020000
00000000
00032000
00000000
,
00000000
02000000
00000000
00000000
00000000
00000000
00000000
00000000
,
03003000
00010000
00000000
00100000
,
10000000
01000000
10000000
00010000
,
00100000
00000000
00001000
00000000
,
00010000
00000100
00001000
00000010
,
00010000
00000100
00001000
00000001
,
00000010
00000011
00000000
00000001
,
00001000
00001100
00000000
00010000
,
00002000
00000000
00203000
00000000
,
00310000
01000000
00100000
10000000
,
00010000
10010000
00000000
00010000
,
20000000
32000000
03200000
00302000
,
00023000
00000000
00031000
00000000
,
00002000
00000000
00013000
00000000
,
00000100
00001000
00000010
00000100
,
00000001
00001000
00000100
00000010
,
00000100
00010000
00001000
01000000
,
00010000
00100000
01000000
10000000
,
00020000
01030000
00010000
01010000
,
02000000
03001000
01000000
01001000
,
00020000
00030100
00010000
00010100
,
00000010
00001000
00000001
00000100
,
00000000
00000110
00000020
00000000
,
00002030
00000000
00003100
00010000
,
00001000
00010000
00002000
00000000
,
00203000
00000000
00310000
01000000
,
00010000
10000000
02000000
00000000
,
03200000
00000000
00301000
00010000
,
00000100
00001000
00001001
00000000
,
00000100
00000000
00011000
00000000
,
01000000
00000000
10010000
00000000
,
00100000
00000000
00011000
00000000
,
00000010
00000000
00000002
00000003
,
00002000
00003000
00020000
00030000
,
20000000
00000000
30000000
00010000
,
00100000
00010000
00100000
00001000
,
00010000
00000200
00000000
00001300
,
00000010
00000100
00000001
00001000
,
00000100
00020000
00000000
00031000
,
01000000
00010000
00100000
00010000
,
01000000
00002000
00000000
00013000
,
00000100
00001000
00000010
00000100
,
00000001
00002000
00000000
00003001
,
00000010
00000100
00001000
00000100
,
00010000
00000100
00001000
00000100
,
00010000
00001000
01000000
00100000
,
10000000
00100000
01000000
00100000
,
10000000
01000000
00100000
00010000
,
00100000
00001000
00100000
00010000
,
01000000
00001000
00010000
00000100
,
00001000
00000100
00010000
00022000
,
00000000
00000000
00033000
00011000
;
