#TITLE:LOVE ♡ SHINE;
#SUBTITLE:(Tropical Mix);
#ARTIST:Riyu Kosaka remixed by Mr. T;
#TITLETRANSLIT:LOVE LOVE SHINE;
#SUBTITLETRANSLIT:;
#ARTISTTRANSLIT:KOSAKA RIYU;
#GENRE:;
#CREDIT:;
#MENUCOLOR:;
#METERTYPE:DDR;
#BANNER:Love Shine (Tropical Mix)-bn.png;
#BACKGROUND:Love Shine (Tropical Mix).png;
#LYRICSPATH:;
#CDTITLE:ddrencorecdtitle.png;
#MUSIC:Love Shine (Tropical Mix).mp3;
#OFFSET:-0.014;
#SAMPLESTART:44.340;
#SAMPLELENGTH:12.000;
#SELECTABLE:YES;
#LISTSORT:24;
#DISPLAYBPM:140.000;
#BPMS:0.000=140.030,164.000=126.950,164.500=140.030;
#STOPS:;
#BGCHANGES:;
#ATTACKS:;

//---------------dance-single - ----------------
#NOTES:
     dance-single:
     :
     Beginner:
     2:
     0.171,0.199,0.088,0.018,0.000:
0000
0000
0000
0000
,
0001
0000
0100
0000
,
0001
0000
0010
0000
,
1000
0000
0100
0000
,
1000
1000
1000
1000
,
1000
0000
0010
0000
,
0001
0000
0100
0000
,
0010
0000
0001
0000
,
1000
0000
0001
0000
,
1001
0000
0000
0000
,
0100
0000
0010
0000
,
0100
0000
0100
0000
,
0001
0000
0001
0000
,
1000
0000
0010
0000
,
1000
0000
0100
0000
,
0001
0000
1000
0000
,
0010
0000
0100
0000
,
0001
0001
0001
0000
,
1001
0000
0100
0000
,
1000
0000
0100
0000
,
0010
0000
0100
0000
,
0001
0000
0100
0000
,
0010
0000
0100
0000
,
0001
0000
1000
0000
,
0010
0000
0100
0000
,
0110
0000
0000
0000
,
1001
0000
0100
0000
,
0010
0010
0010
0000
,
1000
0000
0100
0000
,
0001
0000
0100
0000
,
1001
0000
0010
0000
,
0100
0100
0100
0000
,
0100
0000
0000
0000
,
0000
1000
1000
1000
,
1000
0000
0100
0000
,
0010
0000
0100
0000
,
0001
0000
1000
0000
,
0010
0000
0100
0000
,
1001
0000
0010
0000
,
0100
0000
0001
0000
,
1000
0000
0000
0000
,
0000
0010
0010
0010
,
0010
0000
0100
0000
,
0001
0000
1000
0000
,
0100
0000
0001
0000
,
1000
1000
1000
0000
,
0010
0000
0100
0000
,
0001
0000
1000
0000
,
1001
0000
0000
0000
,
0000
0000
0000
0000
,
1000
0000
0001
0000
,
0010
0000
0100
0000
,
0001
0000
0000
0000
,
1000
0000
0100
0000
,
1001
0000
0000
0000
,
0010
0000
0100
0000
,
0010
0000
1000
0000
,
0001
0000
1000
0000
,
0001
0000
0000
1000
,
1000
0000
0010
0000
,
0100
0000
0001
0000
,
1000
0000
0100
0000
,
0001
0000
1001
0000
,
2002
0000
0000
0000
,
0000
0000
3003
0000
;

//---------------dance-single - ----------------
#NOTES:
     dance-single:
     :
     Easy:
     5:
     0.330,0.454,0.229,0.352,0.000:
0000
0000
0000
0000
,
0000
0000
0000
0000
,
0000
0000
0000
0000
,
0000
0000
0000
0000
,
0000
0000
0000
0000
,
1000
0100
0001
0100
,
1000
0100
0001
0100
,
1000
0001
1000
0001
,
0020
0000
0000
0030
,
1001
0100
0100
0000
,
2000
0100
0010
3100
,
0002
0100
1000
0103
,
0020
0100
1000
0130
,
2000
0001
0100
3001
,
0110
0000
1001
0000
,
0100
1000
0010
1000
,
0001
0100
0010
0100
,
0002
1000
1003
0000
,
1100
0000
0011
0000
,
0100
0010
1000
0001
,
0200
0000
0320
0000
,
1030
0100
1000
0100
,
2000
0000
3002
0000
,
0103
0100
0010
1000
,
0100
1000
0001
0100
,
1001
0000
0010
0010
,
2002
0003
3100
0000
,
2002
3000
0103
0000
,
0020
0100
1000
0130
,
0200
0010
0001
0310
,
2002
0003
3010
0000
,
2002
3000
0013
0000
,
1000
0010
0100
0001
,
1000
0010
0100
0001
,
2000
0100
0020
3000
,
0100
1000
0200
0030
,
0001
0010
1000
0302
,
0100
1000
0103
0000
,
2010
0001
3100
0000
,
0120
1000
0130
0000
,
1000
0001
0100
0001
,
1000
0100
1000
0010
,
0200
0001
0301
0000
,
0020
1000
1030
0000
,
1000
0100
0001
0100
,
1000
0010
0100
0000
,
0002
0010
0013
0000
,
0200
1000
1300
0000
,
1001
0100
0001
1000
,
0010
0100
0001
0000
,
1001
0100
1100
0000
,
0110
0001
0101
0000
,
1000
0001
0100
0010
,
1000
0001
1000
0001
,
0200
0010
0001
1300
,
0200
0001
0010
0301
,
2000
3010
2000
3100
,
1001
0110
1001
0110
,
1002
0010
0100
0103
,
2001
0010
0100
3100
,
0020
0031
0200
0310
,
1000
0001
1000
0010
,
1001
0000
0110
0000
,
2002
0000
0000
0000
,
0000
0000
3003
0000
;

//---------------dance-single - ----------------
#NOTES:
     dance-single:
     :
     Medium:
     6:
     0.384,0.429,0.247,0.308,0.000:
0000
0000
0000
0000
,
0000
0000
0000
0000
,
0000
0000
0000
0000
,
0000
0000
0000
0000
,
0000
0000
0000
0000
,
0010
0010
0100
0001
,
1000
0000
0100
1000
0000
0001
0100
0010
,
0100
0001
1000
0001
,
0220
0000
0000
0330
,
1000
0100
0010
0001
0000
0020
0000
0000
,
2030
0000
3000
0001
0100
0000
0010
0000
,
1000
0000
0001
0000
1000
0001
1000
0000
,
0020
0000
0030
0100
0001
0000
1000
0000
,
0020
0100
1000
0230
,
0302
0000
0003
1000
0100
0000
0010
0000
,
0101
1001
1100
0010
,
1001
0000
0100
0001
0100
0000
0010
1000
,
0010
0000
0100
0001
0000
0000
1000
0000
,
0020
0000
0030
1000
0001
0000
0110
0000
,
0001
1000
0100
0010
0001
1000
0001
0000
,
0200
0000
0300
0010
2000
0000
3002
0000
,
0103
1010
0101
1001
,
2000
0000
3000
0001
0100
0000
0000
0000
,
0001
0000
1000
0000
0001
0010
0100
1000
,
0001
0000
0000
0100
0200
0000
0000
0000
,
0300
1001
1100
0101
,
0020
0000
0030
1000
0100
0000
0000
0010
,
0002
0000
0003
1000
0010
0000
0100
0000
,
0012
1000
0100
1003
,
2100
0001
0100
3001
,
0020
0000
0030
0100
0100
0000
0000
0001
,
1000
0100
0010
0100
,
1000
0001
0000
0100
0000
0010
0000
0100
,
0000
0001
0000
1000
0000
0100
0000
0010
,
0002
0000
0003
1000
0020
0000
0030
0100
,
0002
1000
1003
0000
,
0010
0101
1000
1100
,
0001
0101
1000
1100
,
0020
0000
0030
0100
1000
0000
0000
0010
,
0200
0001
0310
0001
,
1000
0010
0000
0100
0000
0001
0000
2001
,
0000
3001
0010
0100
,
1000
0000
0010
0100
0010
0000
1000
0000
,
0001
0000
0010
0100
0010
0000
0001
0000
,
1000
1100
0001
0101
,
0020
0000
1030
0100
0000
1000
0001
0100
,
0020
0000
0030
1000
0100
0000
0000
0010
,
0002
0100
1003
0100
,
0010
0000
1000
0100
1000
0000
0001
0000
,
0100
0000
0010
1000
0010
0000
0100
0000
,
2001
0000
3100
0000
,
1002
0000
0103
0000
,
0010
0000
1000
0000
0100
1000
0100
0000
,
0010
0000
0001
0000
0100
0001
0100
0000
,
0020
0100
1000
0130
,
0002
0010
1000
0013
,
0100
1001
0010
1001
,
1000
0100
1000
0100
1000
0001
0010
0200
,
0000
0000
0001
0000
1300
0000
1000
0020
,
0000
0030
0000
1001
0000
0000
0000
0000
,
1000
0010
0100
0001
,
1000
0100
0010
0001
,
1001
0000
0000
0110
0000
0000
0010
0020
,
0000
0000
0000
0000
,
0000
0000
0000
0000
,
0030
0000
0000
0000
;

//---------------dance-single - ----------------
#NOTES:
     dance-single:
     :
     Hard:
     7:
     0.502,0.487,0.264,0.308,0.000:
0000
0000
0000
0000
,
0001
0000
0010
0000
0100
1000
0001
1000
,
0000
0000
0010
0200
0000
0301
1000
0100
,
1000
0010
0100
0001
,
0101
0000
0000
1100
0000
1001
0000
0010
,
1000
0000
0100
0000
0010
0001
0010
0100
,
0000
1000
0001
0100
0000
0010
1000
0001
,
0100
0000
0010
0000
1000
0100
1000
0000
,
0020
0000
0030
0000
,
0100
0001
0100
1000
0000
1001
0000
0000
,
2000
0000
3020
0000
0130
0001
0100
1000
,
0200
0000
0320
0000
1030
0100
0001
0100
,
2000
0000
0000
0001
3001
0000
0000
0000
,
1010
0101
1100
0010
,
1000
0020
0001
0000
0130
0000
0001
0200
,
1000
0301
0101
1001
,
0000
0000
0010
0001
1000
0000
0100
1000
,
0001
0000
0100
0020
0000
1000
1030
0000
,
0001
0100
1000
0000
0001
0010
1000
0100
,
0001
0000
0100
0000
1000
0010
1000
0000
,
0001
0100
1000
0100
0010
0000
1000
0100
,
0010
0001
0101
1001
,
1020
0000
0130
0001
0010
0100
1000
0001
,
1000
0000
0010
0100
0001
1000
0001
0100
,
0020
0000
1030
0200
0000
0000
0310
0000
,
0001
0101
1001
1010
,
0200
0000
1000
1000
1300
0000
1010
0000
,
0200
0000
0001
0001
0301
0000
0011
0000
,
1000
0010
1000
0000
0010
0100
0010
0000
,
0100
0001
0100
0010
0000
0100
0001
1000
,
0200
0000
0010
0010
0310
0000
0011
0000
,
2000
0000
0100
0100
3100
0000
1010
0000
,
0100
0001
0100
0002
0000
0013
0100
0020
,
0000
0130
1000
0100
0000
0010
0001
0100
,
0020
0000
1000
1000
1030
0000
1100
0000
,
0002
0000
0010
0010
0013
0000
0101
0000
,
1000
0010
1000
0000
0001
0100
0001
0000
,
0010
0100
0010
0100
0000
0010
0001
1000
,
0002
0000
1000
1000
1003
0000
0110
0000
,
0200
0000
0001
0001
0301
0000
1000
0010
,
1000
0010
0000
0100
0000
0001
0000
1000
,
0220
0000
0330
1001
,
0010
1000
0100
0001
0100
0000
1000
0000
,
0010
0001
0010
1000
0100
0000
1000
0000
,
0001
0010
0001
0100
0010
0100
0001
1000
,
0100
0001
0100
1000
0000
0001
0100
1000
,
0100
0001
0010
0001
0100
0000
0010
0000
,
1000
0100
1000
0010
0100
0000
0001
0000
,
0010
0100
0000
0002
0000
1003
0100
0010
,
0002
0000
0000
1003
0000
0010
0100
0001
,
0200
0000
0000
0310
1000
0000
0100
0001
,
0200
0000
0310
1000
0001
0000
0100
0000
,
0010
1000
0200
0000
0310
0001
0200
0000
,
0310
0100
0001
1000
0100
0010
0001
1000
,
0020
0100
1000
0031
,
1000
0000
1100
0000
0001
0100
0101
0000
,
0010
0000
1010
0000
0001
0010
0011
0000
,
0100
1000
0001
0100
0001
0100
0010
0000
,
2000
0000
0000
0000
0000
0001
0001
3002
,
0000
0103
0010
1000
0000
0100
0010
0000
,
0001
0010
0100
0000
1000
0010
0001
0000
,
1000
0100
0001
0010
1000
0100
1000
0000
,
0110
0000
0000
1001
0000
0000
0100
0020
,
0000
0000
0000
0000
,
0000
0000
0000
0000
,
0030
0000
0000
0000
;

//---------------dance-double - ----------------
#NOTES:
     dance-double:
     :
     Easy:
     4:
     0.291,0.312,0.106,0.282,0.000:
00000000
00000000
00000000
00000000
,
10000000
00100000
01000000
00010000
,
02000000
00000000
03002000
00000000
,
00013000
00000100
00001000
00000010
,
00000100
00001001
00000000
00000110
,
00000100
00000001
00001000
00000100
,
00000010
00000001
00000100
00000001
,
00001000
00000100
00010000
00001000
,
00020000
00000000
00000000
00030000
,
00001000
01000000
00100000
01100000
,
10000000
01000000
20000000
00000000
,
30100000
01000000
00010000
01000000
,
00001000
00010000
00002000
00000000
,
00013000
00000100
00001000
00000010
,
00000200
00000000
00000302
00000000
,
00001003
00000100
00001000
00000010
,
00010000
00001000
01000000
00010000
,
00100000
01000000
10000000
00000000
,
10010000
01000000
00010000
01000000
,
00001000
00010000
00000100
00001000
,
00000010
00000100
00000002
00000000
,
00001003
00000100
00001000
00000010
,
00020000
00000000
00032000
00000000
,
01003000
00010000
00100000
00010000
,
01000000
00001000
00010000
00001000
,
00011000
00000000
00001100
00001001
,
00000200
00000000
00000310
00000000
,
00002000
00000000
00003100
00000000
,
00010000
00010000
00001000
00001000
,
01000000
00010000
01000000
00000000
,
00200000
00000000
10300000
00000000
,
02000000
00000000
03100000
00000000
,
20020000
00000000
00000000
30030000
,
00000000
10000000
00100000
01000000
,
00002000
00000000
00013000
00000000
,
00000200
00000000
00001300
00000000
,
00000010
00000100
00000001
00001000
,
00000100
00001000
00000001
00000000
,
00000200
00000000
00000310
00000000
,
00002000
00000000
00003100
00000000
,
00010000
00001000
01000000
00010000
,
00200000
00000000
00300000
00000000
,
02000000
00000000
13000000
00000000
,
00200000
00000000
00310000
00000000
,
01000000
00001000
00010000
00001000
,
00010000
00000100
00001000
00000000
,
00000020
00000000
00000130
00000000
,
00000002
00000000
00001003
00000000
,
00001100
00000000
00000100
00000000
,
00010000
00001000
00010000
00000000
,
00002000
01000000
01003000
00000000
,
00020000
00000100
00030100
00000000
,
00011000
00000000
01010000
00000000
,
00100000
10000000
00100000
00000000
,
01000000
00010000
00100000
01000000
,
10000000
00010000
01000000
00001000
,
00010000
00000100
00001000
00000010
,
00000200
00000001
00000001
00000301
,
00002000
00000000
00003100
00000010
,
00000002
00000000
00000203
00000000
,
00000310
00010000
00001000
01000000
,
00010000
00100000
00001000
00010000
,
00000100
00000000
00000000
00010000
00000000
00000000
00021000
00000000
,
00000000
00000000
00000000
00000000
,
00000000
00000000
00030000
00000000
;

//---------------dance-double - ----------------
#NOTES:
     dance-double:
     :
     Medium:
     5:
     0.335,0.398,0.114,0.326,0.000:
00000000
00000000
00000000
00000000
,
00000001
00000000
00000100
00000000
00000010
00001000
00000010
00000000
,
00000100
00000001
00001000
00000100
,
00010000
00001000
00010000
00000000
00001000
00000000
01000000
00000000
,
00100000
10000000
00000000
00010000
00000000
01000000
00000000
00001000
,
00010000
00000100
00001000
00000010
,
00000100
00000000
00000001
00001000
00000001
00000000
00000010
00000000
,
00000100
00001000
00000100
00010000
,
00022000
00000000
00000000
00033000
,
00001000
01000000
00001000
01000000
00000000
00000000
00010000
00000000
,
20000000
00000000
00000000
31000000
00200000
00000000
00000000
00000000
,
00310000
01000000
00010000
00100000
,
00002000
00000000
00000000
00013000
00000200
00000000
00000000
00000000
,
00001300
00000010
00000100
00000001
,
00002000
00000000
00000000
00003100
00000020
00000000
00000000
00000000
,
00000031
00001000
00000100
00010000
,
00001000
00000000
00100000
00010000
00100000
00000000
01000000
00000000
,
10000000
00000000
00010000
01000000
00000000
00000000
00000000
00000000
,
00200000
00000000
00000000
01300000
00020000
00000000
00000000
00000000
,
10030000
01000000
00100000
00010000
,
02000000
00000000
00000000
03001000
00020000
00000000
00000000
00000000
,
00030100
00001000
00001000
00000010
,
00000200
00000000
00000000
00000301
00000020
00000000
00000000
00000000
,
00000130
00001000
00000001
00000100
,
00000010
00000000
00001000
00000000
00000100
00010000
00001000
00010000
,
00000000
00011000
01001000
01010000
,
00200000
00000000
10300000
00000000
,
00020000
00000000
01030000
00000000
,
00021000
00001000
00030100
00000100
,
00002010
00000001
00000100
00003100
,
00000020
00000000
00000130
00000000
,
00000002
00000000
00001003
00000000
,
00000010
00001000
00000100
00010000
,
00022000
00000000
00000000
00033000
,
00002000
00000000
01003000
00000000
,
00020000
00000000
00130000
00000000
,
01000000
10000000
00010000
01000000
,
00100000
01000000
01000000
00000000
,
00020000
00000000
00130000
00000000
,
02000000
00000000
03001000
00000000
,
00010000
00000100
00001000
00000010
,
00000200
00000000
00000300
00000000
,
00000020
00000000
00001030
00000000
,
00000200
00010000
00010300
00000000
,
00001000
01000000
00010000
00100000
,
01000000
10000000
01000000
00000000
,
00200000
00000000
00301000
00000000
,
00020000
00000000
00031000
00000000
,
00000100
00001000
00000010
00000100
,
00000020
00001000
00001000
00001030
,
00000002
00000000
00000000
00000103
00000020
00000000
00000000
00001030
,
00000100
00000000
00010000
00000000
00001000
00000000
00100000
00010000
,
00100000
00010000
00000000
00000000
01000000
00000000
01000000
00000000
,
00100000
10000000
01000000
10000000
,
00100000
01000000
00010000
00100000
,
00001000
00011000
00010000
00011000
,
00000100
00001100
00001000
00001100
,
00000010
00001000
00000010
00001000
00000010
00001000
00000010
00000200
,
00000000
00000000
00000001
00000301
,
00000020
00000000
00000130
00000000
,
00001000
00000100
00010000
00001000
,
01000000
00000000
00010000
00000000
00100000
00010000
00100000
00000000
,
00011000
00000000
00000000
00001100
00000000
00000000
00000010
00000200
,
00000000
00000000
00000000
00000000
,
00000000
00000000
00000300
00000000
;

//---------------dance-double - ----------------
#NOTES:
     dance-double:
     :
     Hard:
     7:
     0.472,0.458,0.159,0.282,0.004: // measure 1
00000000
00000000
00000000
00000000
,  // measure 2
00000001
00000000
00001100
00000000
00000010
00000100
00000001
00002000
,  // measure 3
00000000
00003000
00000100
00020000
00000000
00030000
00001000
00000000
,  // measure 4
00100000
00010000
01000000
00010000
,  // measure 5
01000000
00100000
01000000
00020000
00000000
10030000
01000000
00000000
,  // measure 6
10010000
00000000
00100000
00000000
10000000
00010000
01000000
00002000
,  // measure 7
00000000
00003000
00010000
00000020
00000000
00000030
00000100
00000000
,  // measure 8
00000001
00000010
00000100
00001000
,  // measure 9
00000010
00001000
00000100
00000010
00000100
00010000
00001000
00000100
,  // measure 10
00000010
00001000
00000100
00010000
00000000
00011000
00000000
00000000
,  // measure 11
00002000
00000000
00003000
01000000
00200000
00000000
00000000
00300000
,  // measure 12
10000000
00000000
00010000
01000000
00010000
00000000
10000000
00000000
00010000
00000000
01000000
00000000
00100000
00000000
01000000
00000000
,  // measure 13
00002000
00000000
00000000
00103000
00020000
00000000
10000000
00030000
,  // measure 14
01000000
11000000
10020000
01030000
,  // measure 15
01002000
00000000
00000000
00013000
00010000
00000000
00000100
00000000
,  // measure 16
00001000
00000010
00000110
00000101
,  // measure 17
00001000
00000000
00000100
00010000
00000100
00000000
00001000
00000010
,  // measure 18
00001000
00000100
00010000
00002000
00000000
00000000
00013000
00000000
,  // measure 19
00000100
00000000
00001000
00000000
00000010
00000100
00000010
00000000
,  // measure 20
00001000
00000100
00001000
00000001
00000100
00001000
00010000
01000000
,  // measure 21
20000000
00000000
00000000
30100000
00200000
00000000
00000000
00300000
,  // measure 22
01000000
10010000
10100000
01000000
,  // measure 23
00010000
01000000
00000000
00001000
00010000
00000000
00000100
00000000
,  // measure 24
00001000
00000010
00000001
00000010
00001000
00000100
00010000
00001000
,  // measure 25
00010000
00000000
00000100
00001000
00000000
00000010
00010000
00000000
,  // measure 26
00011000
00000000
00001000
01000000
00100000
00000000
10000000
01000000
,  // measure 27
00200000
00000000
00000000
00010000
00310000
00000000
01000000
00001000
,  // measure 28
00020000
00000000
00000000
00001000
00031000
00000000
00011000
00000000
,  // measure 29
00000100
00001000
00000010
00000100
,  // measure 30
00000001
00001000
00000100
00001000
00000000
00000010
00000100
00000001
,  // measure 31
00000200
00000000
00000000
00000010
00000310
00000000
00010000
00001000
,  // measure 32
00200000
00010000
01000000
10300000
,  // measure 33
00100000
00010000
00000000
01000000
00000000
00010000
00000000
00100000
,  // measure 34
00000000
00001000
00010000
00000010
00000100
00000001
00000010
00000100
,  // measure 35
00002000
00000000
00000000
00003100
00020000
00000000
00000000
00030000
,  // measure 36
00001000
00000000
01000000
00000000
00100000
10000000
00100000
00000000
,  // measure 37
01000000
00010000
00100000
00000000
01000000
10000000
00010000
00100000
,  // measure 38
00002000
00000000
00013000
00010000
00000000
00000100
00001000
00000010
,  // measure 39
00000001
00000000
00000010
00001000
00000100
00000000
00001000
00000000
,  // measure 40
00000001
00000000
00000010
00000100
00001000
00000000
00000100
00000000
,  // measure 41
00010000
00001000
01000000
00020000
00000000
00130000
01000000
20000000
,  // measure 42
00000000
30010000
01000000
00011000
,  // measure 43
00000100
00000000
00001000
00000010
00000100
00000000
00000001
00000000
,  // measure 44
00000101
00000000
00000010
00001000
00000100
00000000
00001000
00000000
,  // measure 45
00000100
00010000
00001000
00000000
00100000
00010000
01000000
00000000
,  // measure 46
00010000
10000000
00100000
01000000
00000000
00000000
01000000
00010000
,  // measure 47
00100000
01000000
00010000
00000000
00000100
00001000
00000010
00000000
,  // measure 48
00000100
00000001
00000010
00000100
00001000
00000000
00000001
00000100
,  // measure 49
00000002
00000000
00000013
00000000
00000100
00000000
00001000
00000100
,  // measure 50
00020000
00000000
00031000
00000000
00010000
00000000
00000100
00001000
,  // measure 51
00000010
00000000
00000100
00000001
00001000
00000000
00000100
00010000
,  // measure 52
00001000
00000000
01000000
00000000
01010000
00000000
00100000
10000000
,  // measure 53
01000000
10000000
00100000
01000000
,  // measure 54
00001000
00010000
00001000
00000000
00000100
00000010
00001000
00000100
,  // measure 55
00000010
00000001
00001100
00000010
,  // measure 56
00000001
00000100
00000002
00000000
00001003
00000100
00002000
00000000
,  // measure 57
00003100
00010000
00002000
00000000
00013000
00001000
02000000
00000000
,  // measure 58
03100000
10000000
01000000
10000000
00010000
01000000
00010000
00200000
,  // measure 59
00000000
00000000
00010000
00000000
01300000
01000000
01000000
00000000
,  // measure 60
10000000
00000000
00100000
01000000
00000000
00010000
00100000
00000000
,  // measure 61
00001000
00010000
00000100
00001000
,  // measure 62
00000010
00000100
00000001
00000000
00001000
00000100
00010000
00001000
,  // measure 63
00011000
00000000
00000000
01010000
00000000
00000000
00200000
20000000
,  // measure 64
00000000
00000000
00000000
00000000
,  // measure 65
00000000
00000000
00000000
00000000
,  // measure 66
30300000
00000000
00000000
00000000
;
