#TITLE:Lost Forever;
#SUBTITLE:;
#ARTIST:Van Canto;
#TITLETRANSLIT:;
#SUBTITLETRANSLIT:;
#ARTISTTRANSLIT:;
#GENRE:;
#CREDIT:;
#MENUCOLOR:;
#METERTYPE:DDR;
#BANNER:Lost Forever-bn.png;
#BACKGROUND:Lost Forever-bg.png;
#LYRICSPATH:Lost Forever.lrc;
#CDTITLE:currentcdtitle.png;
#MUSIC:Lost Forever.mp3;
#OFFSET:-0.022;
#SAMPLESTART:91.220;
#SAMPLELENGTH:13.320;
#SELECTABLE:YES;
#LISTSORT:;
#DISPLAYBPM:120.000:142.000;
#BPMS:0.000=142.150,20.000=141.950,36.000=142.017,52.000=142.099,68.000=141.850,84.000=142.100,100.000=142.146,115.000=142.194,119.000=141.334,124.000=142.000,129.000=145.260,130.000=141.580,132.000=141.812,147.000=126.250,148.000=120.062,164.000=120.105,180.000=142.128,196.000=141.809,210.000=144.000,212.000=142.010,228.000=142.042,244.000=141.968,260.000=142.029,276.000=142.288,277.000=141.000,279.000=140.000,282.000=142.000;
#STOPS:23.000=0.002
;
#BGCHANGES:;
#ATTACKS:;

//---------------dance-single - ----------------
#NOTES:
     dance-single:
     :
     Hard:
     9:
     0.592,0.709,0.467,0.346,0.298:
0000
0000
0000
0000
,
0000
0000
0000
0000
,
0000
0000
0000
0000
,
0000
0000
0000
0000
,
0000
0000
0000
0000
,
2100
0000
3000
0000
,
0002
1000
0000
0000
0003
0000
0000
0000
,
1020
0000
0030
0000
,
0201
0000
0000
0000
0310
1000
0001
0000
,
2001
0000
0000
0000
0010
0000
3000
0010
0100
0000
0001
0000
0000
0000
0100
0000
,
1001
0000
0001
1000
0000
1000
0001
0000
0100
0000
0001
0000
1000
0001
0000
0000
,
2000
0000
3100
0200
0000
0310
0020
0000
,
0031
1000
0001
1000
0000
0001
0100
0001
0100
0001
0000
0000
1000
0100
1000
0100
,
0010
0000
0000
0001
0000
0000
0100
0000
0010
0000
0000
0001
0000
0000
0010
0000
,
1000
0000
0001
0010
0001
0010
0000
0010
0100
0010
0100
0010
0001
0000
1000
0001
,
1000
0000
0000
0010
0000
0000
0100
0000
0001
0000
0000
1000
0000
0000
0010
0000
,
0001
0000
0000
0010
0000
0000
1000
0000
0100
0000
0000
0000
0100
0010
0100
0010
,
0100
0000
0000
1000
0000
0000
0010
0000
0100
0000
0000
1000
0000
0000
0100
0000
,
0001
0000
1000
0100
1000
0100
0000
0100
0010
0100
0010
0100
1000
0000
0001
1000
,
0001
0000
0000
0100
0000
0000
0010
0000
1000
0000
0000
0001
0000
0000
0100
0000
,
0110
0000
0000
1010
0000
0000
0011
0000
1001
0000
0000
0000
0100
0000
0000
0000
,
0001
0000
0000
0011
0000
0000
1000
0000
0010
0000
0000
1001
0000
0000
0100
0000
,
0020
1000
0100
0031
,
1000
0000
0000
0100
0000
0000
0010
0000
1000
0000
0000
0010
0000
0000
0001
0000
,
0100
0000
0000
0010
0000
0000
0001
0000
0010
0000
0000
0000
0110
0000
1000
0001
,
1000
0000
0000
1100
0000
0000
0001
0000
0100
0000
0000
1001
0000
0000
0100
0000
,
0020
0001
0100
1030
,
0001
0000
0000
0010
0000
0000
0100
0000
0001
0000
0000
0100
0000
0000
1000
0000
,
0010
0000
0000
0000
0100
0010
0100
0010
0100
0000
0010
0000
1000
0001
0000
0000
,
0100
0001
0010
0100
0012
0000
0003
0001
,
0020
0000
0130
2000
0000
3001
0100
0100
,
0001
1000
0010
0100
1001
0100
0000
0100
,
0001
0000
0001
0000
1010
0101
0000
0000
,
0010
1000
0100
0010
2100
0000
3000
1000
,
0020
0000
0130
0002
0000
2003
0000
3000
,
0001
1000
0010
0010
1000
0001
0100
0100
,
0001
0010
1000
0001
0100
1000
0001
1000
,
0010
0000
0000
0010
0000
0000
1000
0000
0101
0000
0000
1001
0000
0000
0011
0000
,
0220
0000
0000
0000
0330
0000
1100
0000
1001
0000
0000
1001
0000
0000
0001
0000
,
0010
0000
0000
0010
0000
0000
0001
0000
1100
0000
0000
1001
0000
0000
1010
0000
,
0210
0000
0000
0000
0301
0000
0000
0000
1000
0001
1000
0000
1001
0000
0000
0000
,
0001
0100
0020
1000
0030
0100
0020
0001
,
0030
1000
0020
1000
0130
0001
0020
0100
,
0030
0100
0020
0001
0030
0001
0020
0100
,
0032
0000
0000
0000
1000
0000
0000
0000
0013
0000
0001
0000
1000
0100
1000
0100
,
2000
0100
3001
1000
,
0012
1000
0013
0001
,
1020
0100
1030
0010
,
0210
0000
0000
0000
0310
1000
0001
0000
,
1002
0000
0000
0000
0010
0000
0003
0010
0100
0000
1000
0000
0000
0000
0010
0000
,
1001
0000
0001
1000
0000
1000
0001
0000
0010
0000
0001
0000
1000
0001
0000
0000
,
0200
0000
0300
0000
,
0020
0000
0000
0000
0130
0001
0010
0001
,
1100
0010
0100
1000
0010
0100
0001
1000
,
0101
0010
1000
0001
0010
0100
0010
0001
,
0110
0001
1000
0100
0001
0100
1000
0001
,
0201
0000
0001
0000
0310
1000
0100
1000
,
0011
0100
0010
0001
0100
0010
1000
0001
,
1010
0100
0001
1000
0100
0010
0100
1000
,
0110
1000
0001
0010
1000
0010
0001
1000
,
1100
0000
0000
1001
0000
0000
0101
0000
0110
0000
0100
0000
0001
1000
0001
1000
,
0010
1000
0010
0001
0010
0100
1010
0000
,
0100
1000
0100
0001
0100
0010
0011
0000
,
1020
0000
0100
0030
0021
0000
0100
0030
,
2002
0000
0000
3003
0001
0010
0100
1000
,
0010
0000
0000
0010
0100
0000
0000
0100
0001
0000
1000
0000
0001
0000
0000
0000
,
0010
0000
0000
0010
0100
0000
0000
0100
1000
0000
0000
0000
1010
0000
0000
0000
,
0201
0000
0010
0300
1200
0000
0010
0300
,
1000
0001
1000
0001
1000
0000
0001
0100
0001
0100
0001
0000
0010
0100
0010
0000
,
0001
0000
1000
0001
1000
0001
0100
0000
0110
0000
0000
0000
1010
0000
0000
0000
,
2002
0000
3003
0000
;

//---------------dance-single - ----------------
#NOTES:
     dance-single:
     :
     Medium:
     6:
     0.358,0.425,0.241,0.290,0.020:
0000
0000
0000
0000
,
0000
0000
0000
0000
,
0000
0000
0000
0000
,
0000
0000
0000
0000
,
0000
0000
0000
0000
,
1002
0000
0003
0000
,
0020
0000
0030
0000
,
2001
0000
3000
0000
,
0201
0000
0000
0000
0301
0010
0100
1000
,
0010
0010
0100
0001
,
1000
0000
0100
0000
1000
0100
0010
0001
,
0200
0320
2030
3002
,
0023
0000
0000
0030
,
0001
0100
0001
1000
,
0200
0000
0000
0300
,
1000
0000
1000
0001
0100
0000
0100
0010
,
0100
0000
0100
0001
1000
0000
0000
0000
,
1000
0010
1000
0001
,
0200
0000
0000
0300
,
0001
0000
0001
1000
0010
0000
0010
0100
,
0010
1001
0110
0000
,
0001
0000
0010
0001
0100
0000
0100
0001
,
0020
0100
0000
0130
,
1000
0000
1000
0010
0100
0000
0100
0001
,
0010
0000
0010
0001
1000
0000
0000
0000
,
1000
0000
0100
1000
0010
0000
0010
1000
,
0200
0010
0000
0310
,
0001
0000
0001
0100
0010
0000
0010
1000
,
0001
0000
0001
1000
0001
0000
0100
0000
,
0020
0000
0230
0000
,
0310
1000
0100
0010
,
0200
0000
0320
0000
,
0031
1000
0010
0100
,
0002
0000
2003
0000
,
3010
1000
0010
0100
,
0001
0010
0001
0000
1000
0010
1000
0000
,
0001
1000
0001
0010
0100
1000
0001
0000
,
1000
0000
0000
1000
0000
0000
1000
0000
0010
0000
0000
0010
0000
0000
0010
0000
,
0100
0000
0000
0000
0000
0000
0010
0000
1000
0000
0000
1000
0000
0000
1000
0000
,
0001
0000
0000
0001
0000
0000
0001
0000
0100
0000
0000
0100
0000
0000
0100
0000
,
0010
0000
1000
0000
0001
1000
0001
0000
,
1000
1100
0000
0101
,
0000
0110
0010
0110
,
0000
1010
0000
0011
,
2002
0000
3003
0000
,
2001
0000
3000
0000
,
0020
0000
0030
0000
,
1002
0000
0003
0000
,
0200
0000
0300
0000
,
1000
0000
0010
0000
1000
0100
1000
0100
,
1000
0000
0001
0000
0100
0000
0001
0010
,
0002
0000
0003
0000
,
2000
0000
0000
0000
3001
0100
0010
1000
,
0100
0010
0110
1001
,
0010
0001
0100
0010
,
2000
0000
3001
1000
,
0002
0000
0000
0000
1003
0100
0010
0001
,
0100
0010
0110
1001
,
0010
1000
0100
0010
,
0002
0000
1003
0001
,
2000
0000
0000
0000
3001
0100
0001
1000
,
0100
0010
1100
0011
,
0100
0010
0101
1010
,
0100
0100
0010
0010
,
0002
0000
0000
0000
1003
0100
1000
0001
,
0100
0010
0101
1010
,
0110
1001
0110
1000
,
0002
0000
2003
0000
,
3001
0010
0100
0010
0001
1000
0010
0100
,
0001
0000
0110
1010
,
2002
0000
3003
0000
;

//---------------dance-single - ----------------
#NOTES:
     dance-single:
     :
     Beginner:
     1:
     0.080,0.141,0.040,0.000,0.000:
0000
0000
0000
0000
,
0000
0000
0000
0000
,
0000
0000
0000
0000
,
0000
0000
0000
0000
,
0000
0000
0000
0000
,
0001
0000
0000
0000
,
1000
0000
0000
0000
,
0001
0000
0000
0000
,
1000
0000
0000
0000
,
0100
0000
0000
0000
,
0010
0000
0000
0000
,
0100
0000
0000
0000
,
0100
0000
0000
0000
,
1000
0000
0000
0000
,
0000
0000
0000
0000
,
0001
0000
0000
0000
,
0100
0000
0000
0000
,
0001
0000
0000
0000
,
0000
0000
0000
0000
,
1000
0000
0000
0000
,
0010
0000
0000
0000
,
0100
0000
0000
0000
,
0100
0000
0000
0000
,
0010
0000
0000
0000
,
1000
0000
0000
0000
,
0100
0000
0000
0000
,
0100
0000
0000
0000
,
0010
0000
0000
0000
,
0001
0000
0000
0000
,
1001
0000
0000
0000
,
0000
0000
0000
0000
,
1001
0000
0000
0000
,
0000
0000
0000
0000
,
0110
0000
0000
0000
,
0000
0000
0000
0000
,
0110
0000
0000
0000
,
0000
0000
0000
0000
,
1000
0000
0100
0000
,
0100
0000
0000
0000
,
0001
0000
0100
0000
,
0100
0000
0000
0000
,
0000
0001
0000
0001
,
0000
0001
0000
0000
,
0000
1000
0000
1000
,
1000
0000
0000
0000
,
1000
0000
0000
0000
,
0001
0000
0000
0000
,
1000
0000
0000
0000
,
0001
0000
0000
0000
,
0100
0000
0000
0000
,
0010
0000
0000
0000
,
0100
0000
0000
0000
,
0100
0000
0000
0000
,
0001
0000
0000
0000
,
0001
0000
0000
0000
,
1000
0000
0000
0000
,
0100
0000
0000
0000
,
1000
0000
0000
0000
,
1000
0000
0000
0000
,
0001
0000
0000
0000
,
0100
0000
0000
0000
,
0010
0000
0000
0000
,
0010
0000
0000
0000
,
0010
0000
0000
0000
,
1000
0000
0000
0000
,
0100
0000
0000
0000
,
0100
0000
0000
0000
,
0100
0000
0000
0000
,
1001
0000
0000
0000
,
0000
0000
0010
0010
,
0010
0000
0000
0000
;

//---------------dance-double - ----------------
#NOTES:
     dance-double:
     :
     Easy:
     3:
     0.215,0.255,0.097,0.233,0.000:
00000000
00000000
00000000
00000000
,
00000000
00000000
00000000
00000000
,
00000000
00000000
00000000
00000000
,
00000000
00000000
00000000
00000000
,
00000000
00000000
00000000
00000000
,
10020000
00000000
00030000
00000000
,
02000000
00000000
03000000
00000000
,
20010000
00000000
30000000
00000000
,
00200000
00000000
01300000
01000000
,
00010000
00000000
01000000
00000000
,
00001000
00000000
00010000
00010000
,
00000100
00000000
00001000
00000000
,
00000020
00000000
00000030
00000000
,
00001000
00000000
00000100
00000000
,
00000010
00000000
00000000
00000000
,
00000100
00001000
00000001
00000000
,
00000010
00000001
00001000
00000000
,
00000001
00000000
00000100
00000000
,
00000010
00000000
00000000
00000000
,
00000100
00000001
00001000
00000000
,
00000110
00000000
00001001
00000000
,
00000001
00000100
00000010
00010000
,
00001000
00000000
00000000
00000000
,
01000000
00010000
10000000
00000000
,
00100000
10000000
00010000
00000000
,
10000000
01000000
00100000
00001000
,
00010000
00000000
00000000
00000000
,
01000000
10000000
00010000
00000000
,
01000000
00000000
00100000
00000000
,
20000000
00000000
31000000
00000000
,
10000000
00000000
00010000
00000000
,
00200000
00000000
01300000
00000000
,
00100000
00000000
00001000
00000000
,
00000020
00000000
00000031
00000000
,
00001000
00000000
00000010
00000000
,
00000200
00000000
00000310
00000000
,
00002002
00000000
00000000
00003003
,
00000001
00000000
00000011
00000000
,
00001000
00000000
00001010
00000000
,
00010000
00000000
00011000
00000000
,
00200000
00000000
00000000
00300000
,
00000000
10000000
00000000
10000000
,
00000000
10000000
00010000
01000000
,
00000000
00010000
00000000
00010000
,
00200000
00000000
00000000
00300000
,
20010000
00000000
30000000
00000000
,
00200000
00000000
00300000
00000000
,
10020000
00000000
00030000
00000000
,
02000000
00000000
03010000
00000000
,
10000000
01000000
00100000
00000000
,
00100000
00001000
00010000
00000000
,
00000020
00000000
00000130
00000000
,
00002002
00000000
00003003
00000000
,
00000001
00000010
00000100
00000000
,
00000100
00000010
00000001
00000000
,
00002000
00000000
00003000
00010000
,
20000000
00000000
30010000
00010000
,
10000000
01000000
00100000
00000000
,
00100000
01000000
10000000
00000000
,
00020000
00000000
00030000
00001000
,
00000002
00000000
00001003
00001000
,
00000001
00000100
00000010
00000000
,
00000010
00001000
00000100
00000000
,
00010000
00000100
00010000
00001000
,
02000000
00000000
03010000
00010000
,
10000000
00000000
01000000
01000000
,
10000000
00010000
00100000
00001000
,
00020000
00000000
00032000
00000000
,
01003000
00000000
00100000
00000000
,
10000000
00000000
00010000
10000000
,
20020000
00000000
30030000
00000000
;

//---------------dance-double - ----------------
#NOTES:
     dance-double:
     :
     Medium:
     5:
     0.323,0.397,0.105,0.274,0.008:
00000000
00000000
00000000
00000000
,
00000000
00000000
00000000
00000000
,
00000000
00000000
00000000
00000000
,
00000000
00000000
00000000
00000000
,
00000000
00000000
00000000
00000000
,
00002010
00000000
00003000
00000000
,
00000020
00000100
00000000
00000000
00000030
00000000
00000000
00000000
,
00000102
00000000
00000003
00000000
,
00000210
00000000
00000000
00000000
00000301
00001000
00000001
00000000
,
00001000
00000001
00001000
00001000
,
00000010
00000000
00010000
00000000
00001000
00010000
00001000
00000000
,
00020000
00000000
00230000
00000000
,
20300000
00000000
30000000
00000000
,
00010000
00100000
01000000
10000000
,
00020000
00000000
00000000
00030000
,
10000000
01000000
00010000
00001000
,
00000010
00000001
00001000
00000000
,
00001000
00000010
00000100
00000001
,
00002000
00000000
00000000
00003000
,
00000001
00000010
00001000
00010000
,
01000000
00000000
00000000
00100000
00000000
00000000
00010000
00000000
10000000
00000000
00000000
00000000
00000000
00000000
00000000
00000000
,
00100000
10000000
00100000
01000000
,
00020000
00100000
00000000
00130000
,
00001000
00000000
00010000
00001000
00010000
00000000
00000010
00000000
,
00001000
00000000
00000100
00000010
00000100
00000000
00000000
00000000
,
00000010
00000001
00000010
00000100
,
00002000
00000010
00000000
00003010
,
00010000
00000000
00001000
00010000
00001000
00000000
01000000
00000000
,
00020000
00000000
20030000
00000000
,
30010000
00100000
01000000
00100000
00010000
00000000
00000000
00000000
,
01000000
00001000
00010000
00000010
,
00001000
00000100
00000010
00000100
00001000
00000000
00000000
00000000
,
00000010
00001000
00000010
00000100
,
00000001
00001000
00000010
00001000
00000001
00000000
00000000
00000000
,
00000100
00001000
00010000
00100000
,
10000000
01000000
10000000
00000000
00010000
01000000
00010000
00000000
,
20000000
00000000
00000000
30000000
,
01000000
01000000
10000000
10000000
,
00200000
00000000
00000000
00000000
00000000
00000000
01000000
00000000
01300000
00000000
00000000
01000000
00000000
00000000
01000000
00000000
,
00001000
00001000
00010000
00010000
,
00000200
00000000
00000000
00000000
00000310
00000001
00000100
00000000
,
00000000
00000100
00000010
00000100
00000000
00000100
00000001
00000100
,
00000000
00000100
00000010
00000000
00010000
00000000
00001000
00100000
,
00000000
00100000
01000000
00100000
00000000
00100000
00010000
00000000
,
20000000
00000000
00000000
30000000
,
01020000
00000000
00030000
00000000
,
12000000
00000000
03000000
00000000
,
20100000
00000000
30000000
00000000
,
00210000
00000000
00000000
00000000
00310000
10000000
00010000
00000000
,
01000000
00000000
00010000
00000000
10000000
01000000
10000000
00000000
,
01000000
00010000
00001000
00000010
,
00000002
00000000
00002003
00000000
,
00003020
00000000
00000000
00000000
00001030
00000001
00001000
00000000
,
00000001
00000100
00000010
00000010
,
00010000
00001000
00100000
00100000
,
02000000
00000000
03100000
00010000
,
02000000
00000000
00000000
00000000
03100000
10000000
00100000
00000000
,
10000000
01000000
00100000
00100000
,
00001000
00010000
00000010
00000010
,
00000200
00000000
00000310
00001000
,
00000200
00000000
00000000
00000000
00001300
00000001
00001000
00000001
,
00000100
00000010
00010000
00011000
,
00001000
00100000
01000000
11000000
,
00020000
01000000
01030000
00100000
,
20000000
00000000
00000000
00000000
30010000
10000000
00010000
10000000
,
01000000
00100000
00001000
00011000
,
00010000
00000010
00000100
00000001
,
00002000
00000000
00003002
00000000
,
00000103
00000010
00000100
00000001
00001000
00000001
00000010
00000000
,
00000100
00000000
00001001
00000110
,
00002002
00000000
00003003
00000000
;

//---------------dance-double - ----------------
#NOTES:
     dance-double:
     :
     Hard:
     9:
     0.560,0.709,0.370,0.394,0.157: // measure 1
00000000
00000000
00000000
00000000
,  // measure 2
00000000
00000000
00000000
00000000
,  // measure 3
00000000
00000000
00000000
00000000
,  // measure 4
00000000
00000000
00000000
00000000
,  // measure 5
00000000
00000000
00000000
00000000
00010000
00100000
01000000
00100000
,  // measure 6
10020000
01000000
01000000
01030000
,  // measure 7
02001000
00000000
00001000
00000000
03001000
00010000
00000100
00000010
,  // measure 8
00002001
00000100
00000100
00003010
,  // measure 9
00010020
00000000
00000000
00000000
00001030
00000100
00000010
00000100
,  // measure 10
00002001
00000010
00000010
00003010
,  // measure 11
00000120
00000000
00010000
00000000
00010030
00001000
00010000
00000100
,  // measure 12
00002100
00000010
00003010
00001000
,  // measure 13
00022000
00000000
00000000
00033000
,  // measure 14
00010000
00000000
00000000
00100000
00000000
00000000
10000000
00000000
01000000
00000000
00000000
00100000
00000000
00000000
00010000
00000000
,  // measure 15
02000000
00100000
00010000
03100000
,  // measure 16
10000000
00000000
00000000
01010000
00000000
00000000
00100000
00000000
00001000
00000000
00000000
00110000
00000000
00000000
00001000
00000000
,  // measure 17
00010000
00000000
00000000
00001100
00000000
00000000
00010000
00000000
00000010
00000000
00000000
00000000
00001000
00010000
00001000
00010000
,  // measure 18
00001000
00000000
00000000
00000010
00000000
00000000
00000001
00000000
00000100
00000000
00000000
00000010
00000000
00000000
00001000
00000000
,  // measure 19
00000200
00000010
00001000
00000310
,  // measure 20
00000001
00000000
00000000
00001010
00000000
00000000
00000100
00000000
00010000
00000000
00000000
00001100
00000000
00000000
00010000
00000000
,  // measure 21
00011000
00000000
00000000
00010100
00000000
00000000
00001100
00000000
00002002
00000000
00000000
00000000
00003003
00000000
00000000
00000000
,  // measure 22
00000001
00000000
00000000
00000100
00000000
00000000
00000010
00000000
00010000
00000000
00000000
00001000
00000000
00000000
00100000
00000000
,  // measure 23
01000000
00000000
00110000
00000000
01000000
00100000
01000000
00000000
,  // measure 24
00100000
00000000
00000000
00001000
00000000
00000000
00010000
00000000
00000010
00000000
00000000
00000100
00000000
00000000
00001000
00000000
,  // measure 25
00010000
00000000
00000000
01000000
00000000
00000000
10000000
00000000
00100000
00000000
00000000
00000000
10010000
00000000
10000000
00010000
,  // measure 26
10000000
00000000
00000000
00100000
00000000
00000000
01000000
00000000
00001000
00000000
00000000
00010000
00000000
00000000
00000100
00000000
,  // measure 27
00000010
00000000
00001100
00000000
00000010
00000100
00000010
00000000
,  // measure 28
00000100
00000000
00000000
00010000
00000000
00000000
00001000
00000000
01000000
00000000
00000000
00100000
00000000
00000000
00010000
00000000
,  // measure 29
00001000
00000000
00000000
00000000
00000000
00000000
00000010
00000001
00000010
00000000
00000000
00000000
00000001
00000000
00000000
00000000
,  // measure 30
00000100
00000010
00001000
00000001
00000021
00000000
00000030
00000100
,  // measure 31
00002000
00000000
00003010
00020000
00000000
00031000
00000010
00000001
,  // measure 32
00000100
00001000
00010000
00100000
10000000
00020000
00000000
00130000
,  // measure 33
00002000
00000000
00023000
00000000
02030000
10000000
03000000
00000000
,  // measure 34
00100000
01000000
00010000
10000000
12000000
00000000
03100000
00010000
,  // measure 35
02000000
00000000
03001000
00020000
00000000
00000000
00230000
00000000
,  // measure 36
10300000
01000000
00100000
00001000
00010000
00000100
00000010
00000001
,  // measure 37
00000100
00000010
00010000
00001000
01000000
00100000
10000000
00010000
,  // measure 38
00100000
00000000
00000000
00100000
00000000
00000000
00001000
00000000
00110000
00000000
00000000
00101000
00000000
00000000
00011000
00000000
,  // measure 39
00010010
00000000
00000000
00000000
00001001
00000000
00000001
00000000
00001000
00000000
00000000
00000101
00000000
00000000
00000010
00000000
,  // measure 40
00000100
00000000
00000000
00000100
00000000
00000000
00010000
00000000
00001100
00000000
00000000
00010100
00000000
00000000
00011000
00000000
,  // measure 41
01002000
00000000
00000000
00000000
00013000
00000000
00000000
00000000
00001000
00000100
00000001
00000000
00000101
00000000
00000000
00000000
,  // measure 42
00000000
00000001
00000100
00001000
00000000
00001000
00010000
00100000
,  // measure 43
00000000
00100000
10000000
00010000
00100000
00010000
01000000
00010000
,  // measure 44
00000000
10000000
01000000
00010000
00000000
00010000
00001000
00000010
,  // measure 45
00000002
00000000
00000000
00000000
00001000
00000000
00000000
00000000
00000103
00000000
00000100
00000000
00000001
00001000
00000001
00001000
,  // measure 46
00000001
00000010
00000100
00001000
00000200
00000000
00020300
00000000
,  // measure 47
00030100
00001000
00000001
00000010
00000200
00000000
00002300
00000000
,  // measure 48
00003100
00010000
00000100
00001000
00000002
00000000
00000023
00000000
,  // measure 49
00000230
00000000
00000300
00000000
00010000
00001000
00100000
01000000
,  // measure 50
20000000
00000000
30020000
00000000
00130000
01000000
10000000
00010000
,  // measure 51
00200000
00000000
00302000
00000000
00023000
00000000
00031000
00100000
,  // measure 52
02000000
00000000
00100000
03000000
00002000
00000000
00010000
00003000
,  // measure 53
00200000
00000000
00000000
00300000
00001000
00010000
00001000
00001000
,  // measure 54
00010000
00100000
01000000
00001000
00010000
01000000
00100000
00100000
,  // measure 55
00001000
00000010
00000100
00010000
00001000
00000100
00000010
00000010
,  // measure 56
00010000
01000000
10000000
01000000
00010000
00000010
00000001
00001000
,  // measure 57
00000020
00000000
00000000
00000000
00010030
00001000
00010000
00010000
,  // measure 58
00001000
00000100
00000010
00010000
00001000
00000010
00000100
00000100
,  // measure 59
00010000
01000000
00100000
00001000
00010000
00100000
01000000
01000000
,  // measure 60
00001000
00000010
00000001
00000010
00001000
01000000
10000000
00010000
,  // measure 61
02010000
03000000
00000000
00000000
00000000
00000000
00000000
00000000
00000000
00000000
00000000
00000000
00000000
00000000
00000000
00000000
00000000
00000000
00000000
00000000
00000000
00000000
00000000
00000000
00000000
00000000
00000000
00000000
00000000
00000000
00000000
00000000
00000000
00000000
00000000
00000000
11000000
00000000
00000000
00000000
00000000
00000000
00000000
00000000
00000000
00000000
00000000
00000000
00000000
00000000
00000000
00000000
00000000
00000000
00000000
00000000
00000000
00000000
00000000
00000000
00000000
00000000
00000000
00000000
00000000
00000000
00000000
00000000
00000000
00000000
00000000
00000000
01100000
00000000
00000000
00000000
00000000
00000000
00000000
00000000
00000000
00000000
00000000
00000000
00000000
00000000
00000000
00000000
00000000
00000000
00000000
00000000
00000000
00000000
00000000
00000000
00010000
00000000
00000000
00000000
00000000
00000000
00000000
00000000
00000000
00000000
00000000
00000000
00000000
00000000
00000000
00000000
00000000
00000000
00000000
00000000
00000000
00000000
00000000
00000000
00010000
00000000
00000000
00000000
00000000
00000000
00000000
00000000
00000000
00000000
00000000
00000000
00000000
00000000
00000000
00000000
00000000
00000000
00000000
00000000
00000000
00000000
00000000
00000000
00010000
00000000
00000000
00000000
00000000
00000000
00000000
00000000
00000000
00000000
00000000
00000000
00000000
00000000
00000000
00000000
00000000
00000000
00000000
00000000
00000000
00000000
00000000
00000000
00010000
00000000
00000000
00000000
00000000
00000000
00000000
00000000
00000000
00000000
00000000
00000000
00000000
00000000
00000000
00000000
00000000
00000000
00000000
00000000
00000000
00000000
00000000
00000000
,  // measure 62
10000000
00100000
00010000
00001000
00000010
00000001
00001000
00000000
,  // measure 63
00000001
00000100
00001000
00010000
01000000
10000000
00010000
00000000
,  // measure 64
11000000
10010000
00011000
10010000
,  // measure 65
01010000
00000000
00100000
00000000
01000000
00001000
00010000
01000000
,  // measure 66
10000000
00000000
00100000
00010000
00001000
00000010
00000001
00001000
,  // measure 67
00000010
00000000
00000100
00001000
00010000
00000000
00001000
00000000
,  // measure 68
00000202
00000303
00002020
00003030
,  // measure 69
00000001
00000100
00000001
00000100
00000010
00000000
00001000
00000001
00001000
00000001
00000100
00000000
00000010
00000100
00000010
00000000
,  // measure 70
00010000
00000000
00001000
00010000
00001000
00010000
01000000
00000000
11000000
00000000
00000000
00000000
01100000
00000000
00000000
00000000
,  // measure 71
20020000
00000000
30030000
00000000
;

//---------------dance-single - ----------------
#NOTES:
     dance-single:
     :
     Easy:
     3:
     0.215,0.255,0.072,0.241,0.000:
0000
0000
0000
0000
,
0000
0000
0000
0000
,
0000
0000
0000
0000
,
0000
0000
0000
0000
,
0000
0000
0000
0000
,
1002
0000
0003
0000
,
0200
0000
0300
0000
,
2001
0000
3000
0000
,
0020
0000
0030
0000
,
1000
1000
0100
0100
,
0010
0001
1000
1000
,
0002
0000
1003
0001
,
2000
0000
3000
0000
,
0001
0000
0010
0000
,
0100
0000
0000
0000
,
0010
0000
0010
0000
,
0001
0010
0100
0000
,
1000
0000
0010
0000
,
0100
0000
0000
0000
,
0010
0000
0010
0000
,
0110
0000
1001
0000
,
1000
0010
1000
0010
,
1000
0000
0001
0000
,
0010
0000
0010
0100
,
0010
0000
0010
0000
,
0001
0100
0001
0100
,
0001
0000
1000
0000
,
0100
0000
0100
0010
,
0100
0000
1000
0000
,
0002
0000
0203
0000
,
0301
1000
0001
1000
,
0020
0000
0130
0000
,
0010
0000
1000
0001
,
2000
0000
3200
0000
,
1300
0000
0001
0000
,
2000
0000
3001
0000
,
0200
0000
0300
0000
,
0101
0000
0010
0000
,
1000
0000
0001
0000
,
1100
0000
0010
0000
,
0200
0000
0300
0000
,
0000
1000
0000
0010
,
0000
0100
0001
1000
,
0000
0001
0000
0010
,
0020
0000
0030
0000
,
1002
0000
0003
0000
,
0200
0000
0300
0000
,
2001
0000
3000
0000
,
0020
0000
0030
0000
,
1000
0010
1000
0000
,
0001
0010
0001
0000
,
0200
0000
0300
0000
,
0020
0000
0030
0000
,
1000
0100
1000
1000
,
0001
0100
0001
0001
,
2000
0000
3000
1000
,
0002
0000
0103
0000
,
0001
0010
0001
0001
,
1000
0010
1000
1000
,
0002
0000
0003
0001
,
2000
0000
3000
0000
,
0001
0000
1000
0001
,
0100
0000
0001
1000
,
0010
1000
0100
0010
,
0002
0000
0003
0000
,
1000
0000
0001
0001
,
0100
0010
0010
1000
,
0002
0000
2003
0000
,
3100
0000
0000
0100
0000
0000
1000
0000
,
0001
0000
0001
1000
,
2002
0000
3003
0000
;
