#TITLE:Loneliness;
#SUBTITLE:[Ring The Alarm];
#ARTIST:E-Type;
#TITLETRANSLIT:;
#SUBTITLETRANSLIT:;
#ARTISTTRANSLIT:;
#GENRE:;
#CREDIT:;
#MENUCOLOR:;
#METERTYPE:DDR;
#BANNER:Loneliness [Ring The Alarm]-bn.png;
#BACKGROUND:Loneliness [Ring The Alarm]-bg.png;
#LYRICSPATH:Loneliness [Ring The Alarm].lrc;
#CDTITLE:ddrencorecdtitle.png;
#MUSIC:Loneliness [Ring The Alarm].mp3;
#OFFSET:-0.033;
#SAMPLESTART:38.787;
#SAMPLELENGTH:14.505;
#SELECTABLE:YES;
#LISTSORT:;
#DISPLAYBPM:99.000;
#BPMS:0.000=99.020;
#STOPS:;
#BGCHANGES:;
#ATTACKS:;

//---------------dance-single - ----------------
#NOTES:
     dance-single:
     :
     Beginner:
     1:
     0.092,0.117,0.019,0.019,0.000:
0000
0000
0000
0000
,
0000
0000
0000
0000
,
0000
0000
0000
0000
,
0000
0000
0000
0000
,
0001
0000
1000
0000
,
0100
0000
0000
0000
,
0100
0000
0000
0000
,
0100
0000
0000
0000
,
1000
0000
0000
0001
,
0001
0000
0000
0100
,
0100
0000
0010
0000
,
0100
0100
0000
0001
,
0001
0000
0010
0000
,
0001
0000
0100
0000
,
0010
0000
0010
0000
,
0010
0000
0000
1000
,
1000
0000
0100
0000
,
0010
0000
0001
0001
,
0001
0000
0100
0000
,
0010
0000
1000
0000
,
2002
0000
3003
0000
,
0001
0000
0000
0000
,
1000
0000
0000
0000
,
0100
0000
0000
0000
,
0010
0000
0000
0000
,
0001
0000
0000
0000
,
0100
0000
0000
0000
,
1000
0000
0000
0000
,
0100
0000
0001
0000
,
0010
0000
0001
0000
,
1000
0000
0100
0100
,
0100
0000
0000
0000
,
0100
0000
0000
0000
,
0010
0000
0001
0000
,
0100
0000
0010
0010
,
0010
0000
1000
0000
,
0001
0000
0010
0000
,
0001
0000
1000
0000
,
0010
0000
0000
0000
,
0010
0000
0000
0000
,
0010
0000
0000
1001
;

//---------------dance-single - ----------------
#NOTES:
     dance-single:
     :
     Easy:
     3:
     0.156,0.180,0.019,0.058,0.000:
0000
0000
0000
0000
,
0000
0000
0000
0000
,
0000
0000
0000
0000
,
0000
0000
0000
0000
,
1000
0100
1000
0100
,
0010
0010
0000
0001
,
1000
1000
0000
0010
,
0100
0001
0000
1000
,
0100
0010
0000
0200
,
1300
0010
0000
0200
,
0301
0010
0100
1000
,
0010
0010
0000
0100
,
0001
1000
0100
0100
,
1000
0010
0100
0100
,
0001
0000
1000
0000
,
0100
0010
0000
0000
,
0001
1000
0010
0000
,
0100
0000
0001
1000
,
0100
0000
0100
0000
,
0010
0000
0010
0000
,
2002
0000
0000
3003
,
1000
0100
1000
0000
,
0001
0100
0001
0000
,
1000
0010
1000
0000
,
0001
0010
0001
0000
,
1000
0010
0100
0000
,
0100
0001
0010
0000
,
0010
0100
1000
0000
,
0001
0001
1000
1000
,
0001
0000
0100
0000
,
0010
1000
0001
0000
,
0010
0000
0010
0000
,
0100
0000
0100
0000
,
1000
0010
0100
0000
,
0001
0000
1000
0100
,
0010
0000
0001
0000
,
1000
0000
0001
0000
,
0001
0100
0001
0100
,
0010
0010
0000
1000
,
0100
0100
0000
0010
,
0001
1000
0000
2002
,
0000
0000
0000
3003
;

//---------------dance-single - ----------------
#NOTES:
     dance-single:
     :
     Medium:
     5:
     0.266,0.280,0.153,0.086,0.010:
0000
0000
0000
0000
,
0000
0000
0000
0000
,
0000
0000
0000
0000
,
0000
0000
0000
0000
,
0001
0000
0100
0000
0010
1000
0001
0000
,
0010
0000
0110
0000
0000
1000
0001
0000
,
0100
0000
0110
0000
0000
0001
1000
0000
,
0100
0110
0000
1001
,
0001
0000
0100
0000
0010
1000
0200
0000
,
0310
0000
0100
0000
1000
0001
0200
0000
,
0310
0000
1000
0000
0100
0010
0001
0000
,
1000
0001
0100
0001
0000
0000
1100
0000
,
1000
0000
0010
0000
0100
0001
0010
0000
,
0001
0000
0010
0000
0100
1000
0010
0000
,
1000
0001
0200
0000
0301
1000
0020
0000
,
0130
0000
0001
1000
0000
0000
0101
0000
,
0001
0010
0002
0000
,
1003
0100
0010
0000
0001
1000
1001
0000
,
1000
0000
0010
0000
0100
0001
0100
0000
,
0010
0000
1000
0000
0100
0000
0000
0000
0010
0000
0000
0001
0000
0000
1000
0000
,
0200
0000
0000
0300
,
1000
0000
0010
0000
0100
0000
0100
0001
,
0010
0001
0100
0100
,
0010
0000
1000
0000
0100
0000
0100
0010
,
0001
0000
1000
0000
0001
0010
0100
1000
,
0001
0000
0100
0000
0010
0000
0010
1000
,
0100
0000
1000
0000
0010
0000
0010
0100
,
0001
0000
0010
0000
0100
0000
1000
0001
,
1001
0101
1001
1010
,
0010
0100
0000
0001
0000
1000
0000
0100
,
0000
0010
0000
0100
0000
1000
0000
0001
,
0100
0010
1000
0100
,
0010
0001
0000
0001
0010
0000
0100
0000
,
1000
0010
0200
0000
,
0310
1000
0001
0000
0010
0100
0110
0000
,
0100
0000
1000
0000
0010
1000
0010
0000
,
0100
0000
0000
0000
0001
0000
0000
0000
0010
0000
0000
0001
0000
0000
1000
0000
,
0100
0000
1000
0000
0010
0100
0001
0000
,
1000
0000
1001
0000
0000
0100
0010
0000
,
1000
0000
1001
0000
0000
0100
0010
0000
,
0001
1001
0000
0220
,
0000
0000
0000
0330
;

//---------------dance-single - ----------------
#NOTES:
     dance-single:
     :
     Hard:
     8:
     0.404,0.420,0.192,0.096,0.364:
0000
0000
0000
0000
,
0000
0000
0000
0000
,
0000
0000
0000
0000
,
0000
0000
0000
0000
,
0001
0100
0001
0010
1000
0100
1000
0010
,
0001
0000
0000
0001
0100
0000
0000
0000
0010
0000
1000
0000
1100
0000
0000
0100
,
1000
0000
0000
1000
0010
0000
0000
0000
0100
0000
0001
0000
0010
0000
0000
0010
,
0100
0000
0000
0100
1000
0000
0000
0000
0001
1000
0000
0001
0200
0000
0000
0000
,
0310
1000
0100
0001
0010
1000
0200
0000
,
0310
0001
0100
1000
0010
0001
0200
0000
,
0301
0100
1000
0100
0001
0010
0110
1000
,
0001
0100
0000
0001
1000
0000
0100
0000
0000
0000
0000
0000
0011
0000
0000
0000
,
0100
0000
0010
0000
0001
0000
0100
0000
1000
0100
0001
0000
0010
0000
0001
0000
,
0100
0000
0010
0000
1000
0000
0100
0000
0001
0100
1000
0000
0010
0000
0000
0000
,
1000
0000
1000
0100
2000
0000
0000
0000
3001
0000
0001
0100
0002
0000
0010
0000
,
0013
0100
0000
1000
0010
0100
0001
0000
0000
0000
0000
0000
1100
0000
1000
0000
,
0010
0000
0000
0100
0000
0001
0000
0010
0000
0000
0000
0000
0110
0000
0100
1000
,
0000
0010
0000
0100
0001
0000
0000
0000
1100
0000
0101
0000
1200
0000
0000
0000
,
1300
0010
0001
0100
1000
0010
0100
0000
,
0001
0000
0010
0000
1000
0000
0010
0000
0001
0000
0000
1000
0000
0010
0100
0000
,
0020
0000
0000
0030
,
1000
0000
0000
0100
0000
0000
0001
0000
0000
0100
0000
1000
0001
0000
0010
0000
,
0001
0000
0000
0100
0000
0000
1000
0000
0000
0100
0000
0001
0010
0000
0000
0010
,
0100
0000
0000
1000
0000
0000
0001
0000
0000
0100
0000
0010
1000
0000
0001
0000
,
0011
0000
0000
0010
0000
0000
0001
0000
0000
0100
0000
0010
1000
0000
0001
0100
,
0010
0000
0000
1000
0000
0000
0100
0000
0000
0010
0000
0001
0100
0000
0001
0100
,
0010
0000
0000
1000
0000
0000
0001
0000
0000
0100
0000
0010
1000
0000
0010
0100
,
0001
0000
0000
1000
0000
0000
0010
0000
0000
0100
0000
0010
1000
0000
0001
0000
,
0011
0000
1001
0000
1100
0000
1001
0001
,
0010
0000
0000
0100
0000
1000
0000
0010
0000
0000
0000
0000
0100
0000
0001
0010
,
0000
0100
0000
1000
0010
0000
0000
0010
0100
0000
0001
1000
0100
0000
0000
0000
,
1000
0010
0000
1000
0000
0101
0000
1001
,
0001
0010
0000
0010
0100
0000
0100
1000
0000
1000
0001
0000
0100
0000
0001
0000
,
0010
0000
0000
0100
0000
1000
0000
0010
0000
0000
0000
0000
0110
0000
0100
0001
,
0000
1000
0000
0010
0100
0000
0000
0000
0101
0000
1100
0000
0201
0000
0000
0000
,
0301
0010
1000
0100
0001
0010
0100
0000
,
1000
0000
0100
0000
0001
0000
0100
0000
1000
0000
0000
0001
0000
0100
0010
0000
,
1000
0100
1000
0010
0001
0100
0001
0010
,
1000
0000
0000
1000
0100
0000
0000
0000
0010
0000
0001
0000
0101
0000
0000
0100
,
0001
0000
0000
0001
0010
0000
0000
0000
0100
0000
1000
0000
0010
0000
0000
0010
,
0100
0000
0000
0100
0001
0000
0000
0000
1000
0001
0000
1000
0020
0000
0200
0000
,
0000
0000
0000
0330
;

//---------------dance-double - ----------------
#NOTES:
     dance-double:
     :
     Easy:
     4:
     0.200,0.220,0.173,0.058,0.000:
00000000
00000000
00000000
00000000
,
00000000
00000000
00000000
00000000
,
00000000
00000000
00000000
00000000
,
00000000
00000000
00000000
00000000
,
00010000
00100000
01000000
10000000
,
01000000
01000000
00000000
00100000
,
00010000
00010000
00000000
00100000
,
00001000
00010000
00000000
00011000
,
00010000
00000100
00001000
00000002
,
00000103
00000010
00001000
00000200
,
00000310
00000100
00001000
00000010
,
00010000
00001000
00000000
00011000
,
00001000
00100000
00010000
00010000
,
01000000
00100000
10000000
10000000
,
00010000
00000000
01000000
00000000
,
00001000
00010000
00000000
00011000
,
00010000
00000100
00000010
00000000
,
00000001
00001000
00000110
00001001
,
00000001
00000000
00000100
00000000
,
00000010
00000000
00010000
00001000
,
00022000
00000000
00000000
00033000
,
00010000
01000000
10000000
11000000
,
10000000
00100000
00010000
00110000
,
00100000
01000000
00001000
01001000
,
00001000
00010000
00000100
00010100
,
00001000
00000010
00000100
00001001
,
00000001
00000010
00000100
00001001
,
00001000
00000100
00010000
00001100
,
00000100
00000100
00000100
00000100
,
00001000
00000001
00000100
00000000
,
00000010
00001000
00000110
00001001
,
00001000
00000000
00000010
00000000
,
00010000
00000000
00001000
00000000
,
00100000
00010000
01000000
00000000
,
00100000
10000000
10010000
01100000
,
00010000
00000000
00100000
00000000
,
01000000
00000000
10000000
00010000
,
01000000
00010000
00100000
01000000
,
10000000
10000000
00000000
01000000
,
00100000
00100000
00000000
01000000
,
00100000
00001000
00000000
00022000
,
00000000
00000000
00000000
00033000
;

//---------------dance-double - ----------------
#NOTES:
     dance-double:
     :
     Medium:
     5:
     0.259,0.280,0.173,0.096,0.000:
00000000
00000000
00000000
00000000
,
00000000
00000000
00000000
00000000
,
00000000
00000000
00000000
00000000
,
00000000
00000000
00000000
00000000
,
10000000
00100000
01000000
00001000
,
00010000
00011000
00000000
00010000
,
00000100
00001100
00000000
00001000
,
00000010
00000110
00000000
00001001
,
00000001
00000000
00000100
00000000
00000010
00001000
00000200
00000000
,
00000310
00000000
00000001
00000000
00001000
00000010
00000200
00000000
,
00000310
00000000
00001000
00000000
00000100
00001000
00000001
00000000
,
00000010
00000100
00001000
00000100
00000000
00000000
00011000
00000000
,
00100000
00000000
00010000
00000000
01000000
00100000
10000000
00000000
,
10000000
00000000
00010000
00000000
01000000
00100000
10000000
00000000
,
00010000
01000000
00020000
00000000
10030000
01000000
20000000
00000000
,
31000000
00000000
00100000
00001000
00000000
00000000
00011000
00000000
,
00001000
00100000
00020000
00000000
,
00130000
01000000
10000000
00000000
10000000
00010000
10010000
00000000
,
00010000
01000000
00001000
00010000
,
00000100
00001000
00000010
00000100
00000001
00000000
00001000
00000000
,
00002002
00000000
00000000
00003003
,
00000001
00000000
00000100
00000000
00000010
00000000
00000010
00001000
,
00000100
00010000
00001000
00001000
,
00100000
00000000
00010000
00000000
01000000
00000000
01000000
00100000
,
10000000
00000000
00010000
00000000
00100000
00010000
00100000
01000000
,
10000000
00000000
00010000
00000000
01000000
00000000
01000000
00001000
,
00010000
00000000
00000100
00000000
00010000
00000000
00010000
00001000
,
00100000
00010000
01000000
01000000
,
01100000
01010000
01100000
10100000
,
10000000
01000000
00100000
00000000
,
00100000
00001000
00010000
00000000
00001000
00010000
00011000
00000000
,
00010000
00000100
00001000
00000010
,
00000100
00000000
00000001
00000000
00001000
00000100
00000010
00000000
,
00000001
00000100
00000020
00000000
,
00001030
00000100
00000010
00000000
00000001
00001000
00001001
00000000
,
00000001
00000100
00000001
00001000
,
00000100
00000010
00000001
00001000
00000100
00000000
00010000
00000000
,
00001000
00100000
00010000
01000000
,
00100000
10100000
00000000
10000000
,
00010000
01010000
00000000
01000000
,
00001000
00011000
00000000
00022000
,
00000000
00000000
00000000
00033000
;

//---------------dance-double - ----------------
#NOTES:
     dance-double:
     :
     Hard:
     8:
     0.397,0.400,0.144,0.125,0.350: // measure 1
00000000
00000000
00000000
00000000
,  // measure 2
00000000
00000000
00000000
00000000
,  // measure 3
00000000
00000000
00000000
00000000
,  // measure 4
00000000
00000000
00000000
00000000
,  // measure 5
00001000
00100000
01000000
00100000
00010000
01000000
10000000
01000000
,  // measure 6
00010000
00000000
00000000
00010000
00100000
00000000
00000000
00000000
01000000
00000000
10000000
00000000
10100000
00000000
00000000
00100000
,  // measure 7
00010000
00000000
00000000
00010000
00001000
00000000
00000000
00000000
00010000
00000000
00000100
00000000
00001000
00000000
00000000
00001000
,  // measure 8
00000010
00000000
00000000
00000010
00000100
00000000
00000000
00000000
00000001
00000010
00000000
00000001
00002000
00000000
00000000
00000000
,  // measure 9
00003100
00000010
00000001
00000010
00000100
00010000
00002000
00000000
,  // measure 10
01003000
00010000
00100000
01000000
10000000
01000000
00200000
00000000
,  // measure 11
00310000
01000000
00100000
10000000
00100000
01000000
00001000
00010000
,  // measure 12
00000100
00000010
00000001
00000010
00000000
00000000
00001100
00000000
,  // measure 13
00000010
00000001
00000100
00001000
00000100
00000010
00001000
00000000
,  // measure 14
00000100
00010000
00001000
00100000
00010000
00100000
01000000
00000000
,  // measure 15
00100000
00000000
00001000
00100000
00002000
00000000
00000000
00000000
00013000
00000000
00000100
00010000
00000200
00000000
00000000
00000000
,  // measure 16
00001300
00000010
00000000
00001000
00000010
00000100
00000001
00000000
00000000
00000000
00000000
00000000
00001001
00000000
00000001
00000000
,  // measure 17
00000020
00000000
00000000
00000100
00000000
00000100
00000000
00000100
00000030
00000000
00000000
00000000
00001100
00000000
00000100
00010000
,  // measure 18
00000000
00001000
00000000
00001000
00010000
00000000
00000000
00010000
01000000
00000000
01000000
00100000
00010000
00000000
00000000
00000000
,  // measure 19
10000000
01000000
00010000
00001000
00000010
00000001
00000100
00000000
,  // measure 20
00000001
00000000
00000100
00000000
00001000
00000000
00010000
00000000
00100000
00000000
00000000
10000000
00000000
01000000
00100000
00000000
,  // measure 21
20020000
00000000
00000000
30030000
,  // measure 22
00010000
00000000
00000000
00100000
00000000
00000000
00010000
00000000
00000000
10000000
00000000
00100000
10000000
00000000
00010000
00000000
,  // measure 23
01000000
00000000
00000000
00001000
00000000
00000000
01000000
00000000
00000000
00010000
00000000
00100000
00010000
00000000
00000000
00100000
,  // measure 24
00001000
00000000
00000000
00010000
00000000
00000000
00000100
00000000
00000000
00001000
00000000
00000010
00000100
00000000
00000010
00001000
,  // measure 25
00000001
00000000
00000000
00000010
00000000
00000000
00000001
00000000
00001000
00000100
00000000
00000100
00000010
00000000
00000001
00001000
,  // measure 26
00000100
00000000
00000000
00000010
00000000
00000000
00000100
00000000
00000000
00001000
00000000
00000010
00000100
00000000
00000001
00000000
,  // measure 27
00000100
00000000
00000000
00000010
00000000
00000000
00001000
00000000
00000000
00000100
00000000
00010000
00001000
00000000
00100000
00001000
,  // measure 28
00010000
00000000
00000000
01000000
00000000
00000000
10000000
00000000
00000000
00100000
00000000
01000000
00010000
00000000
00100000
00000000
,  // measure 29
01100000
00000000
11000000
00000000
10010000
00000000
00110000
00100000
,  // measure 30
02000000
00000000
00000000
00100000
00000000
00100000
00000000
00100000
03000000
00000000
00000000
00000000
00100000
00000000
00010000
10000000
,  // measure 31
00000000
00100000
00000000
00100000
01000000
00000000
00000000
00000000
01010000
00000000
11000000
00000000
02010000
00000000
00000000
00000000
,  // measure 32
03010000
00100000
00000000
01000000
00000000
00100000
00000000
00001000
,  // measure 33
00010000
00001000
00000000
00000000
00011000
00000000
00010000
00000100
00000000
00000100
00000010
00000000
00000001
00000000
00001000
00000000
,  // measure 34
00000020
00000000
00000000
00000100
00000000
00000100
00000000
00000100
00000030
00000000
00000000
00000000
00000110
00000000
00000010
00001000
,  // measure 35
00000000
00000001
00000000
00000001
00000100
00000000
00000000
00000100
00000010
00000000
00001000
00000100
00000001
00000000
00000000
00000000
,  // measure 36
00000100
00001000
00000010
00010000
00001000
01000000
00100000
00000000
,  // measure 37
10000000
00000000
01000000
00000000
00010000
00000000
00001000
00000000
00000010
00000000
00000000
00000001
00000000
00001000
00000010
00000000
,  // measure 38
00000100
00000001
00001000
00000010
00010000
00001000
00000100
00001000
,  // measure 39
00010000
00000000
00000000
00010000
01000000
00000000
00000000
00000000
10000000
00000000
00100000
00000000
10100000
00000000
00000000
10000000
,  // measure 40
00010000
00000000
00000000
00010000
01000000
00000000
00000000
00000000
00010000
00000000
00100000
00000000
00001000
00000000
00000000
00001000
,  // measure 41
00010000
00000000
00000000
00010000
00000100
00000000
00000000
00000000
00000010
00000100
00000000
00000010
00000002
00000000
00002000
00000000
,  // measure 42
00000000
00000000
00000000
00003003
;
