#TITLE:Listen To Your Heart;
#SUBTITLE:(Rob Mayth Radio Mix);
#ARTIST:D.H.T.;
#TITLETRANSLIT:;
#SUBTITLETRANSLIT:;
#ARTISTTRANSLIT:;
#GENRE:;
#CREDIT:;
#MENUCOLOR:;
#METERTYPE:DDR;
#BANNER:Listen To Your Heart (Rob Mayth Radio Mix)-bn.png;
#BACKGROUND:Listen To Your Heart (Rob Mayth Radio Mix)-bg.png;
#LYRICSPATH:Listen To Your Heart (Rob Mayth Radio Mix).lrc;
#CDTITLE:ddrencorecdtitle.png;
#MUSIC:Listen To Your Heart (Rob Mayth Radio Mix).mp3;
#OFFSET:-0.037;
#SAMPLESTART:37.183;
#SAMPLELENGTH:13.521;
#SELECTABLE:YES;
#LISTSORT:;
#BPMS:0.000=142.000,164.000=71.000,166.000=142.000,180.000=71.000,180.750=35.500,181.125=17.750,181.313=8.875,181.438=71.000,191.000=142.000;
#STOPS:181.438=0.210
;
#BGCHANGES:;
#ATTACKS:;

//---------------dance-single - ----------------
#NOTES:
     dance-single:
     :
     Beginner:
     1:
     0.116,0.136,0.010,0.019,0.000:
0000
0000
0000
0000
,
0000
0000
0000
0000
,
1000
0000
0001
0000
,
1000
0000
0001
0000
,
0100
0000
0010
0000
,
0100
0000
0010
0000
,
1000
0000
0100
0000
,
1000
0000
0010
0000
,
1000
0000
0000
0000
,
0001
0000
0000
0000
,
1000
0000
0100
0000
,
0000
0000
0000
0000
,
0001
0000
0100
0000
,
0000
0000
0000
0000
,
1000
0000
0000
0000
,
0001
0000
0000
0000
,
0100
0000
0100
0000
,
0100
0000
0000
0000
,
0010
0000
1000
0000
,
0001
0000
0000
0000
,
0010
0000
0001
0000
,
1000
0000
0000
0000
,
0001
0000
0100
0000
,
0010
0000
0000
0000
,
1000
0000
0001
0000
,
0010
0000
0000
0000
,
0001
0000
1000
0000
,
0100
0000
0100
0000
,
1000
0000
0001
0000
,
0010
0000
0010
0000
,
0001
0000
1000
0000
,
0001
0000
0001
0000
,
1000
0000
0001
0000
,
1000
0000
0000
0000
,
0001
0000
0000
0000
,
1000
0000
0000
0000
,
0001
0000
0000
0000
,
1000
0000
0000
0000
,
0001
0000
0100
0000
,
0000
0000
0010
0000
,
0000
0000
1000
0000
,
0000
0000
0001
0000
,
0000
0000
1000
0000
,
0000
0000
0001
0000
,
0100
0000
0010
0010
,
0010
0000
0000
0100
,
0000
0100
0000
0010
,
0000
0010
0000
1000
,
0000
0000
0000
0001
,
0000
0100
0000
0010
,
0000
0000
0000
0100
,
0000
0001
0000
1000
,
0000
0000
0000
0100
,
0000
1000
0000
0001
,
0000
0000
0000
0100
,
0000
0001
0000
2002
,
0000
0000
0000
0000
,
0000
3003
0000
0000
;

//---------------dance-single - ----------------
#NOTES:
     dance-single:
     :
     Easy:
     3:
     0.210,0.246,0.029,0.076,0.000:
0000
0000
0000
0000
,
0000
0000
0000
0000
,
1000
0000
0001
0000
,
0100
0000
0001
0000
,
0010
0000
0001
0000
,
1000
0000
0100
0000
,
0010
0000
1001
0000
,
0100
0000
1001
0000
,
1000
0001
1000
0001
,
0100
0000
0020
0000
,
0130
0001
0100
0000
,
0010
1000
0002
0000
,
0013
0100
0010
0000
,
0001
1000
0020
0000
,
0130
0010
0100
0100
,
0001
1000
0001
0001
,
0010
0000
0001
0000
,
1000
0000
0000
1001
,
0001
0100
0010
0000
,
0010
1000
0001
0000
,
0001
0010
0100
0000
,
0100
1000
0001
0000
,
1000
0010
0100
0000
,
0100
0001
1000
0000
,
1000
0001
0010
0000
,
0010
0100
1000
0000
,
0001
0000
1000
0000
,
0010
1000
0001
0000
,
1000
0000
0001
0000
,
0010
0001
1000
0000
,
0010
0000
0100
0000
,
0010
1000
0001
0000
,
0010
0000
0100
0000
,
0010
0001
1000
0000
,
0001
0000
1000
0000
,
0001
0000
0100
0000
,
0001
0000
0010
0000
,
0001
0000
0001
0000
,
1000
0000
0200
0000
,
1300
0000
0002
0000
,
1003
0000
0020
0000
,
1030
0001
1000
0000
,
0100
0000
0010
0000
,
0001
0000
0100
0010
,
0100
0010
1000
0001
,
0100
0000
0000
0100
,
0010
0100
0100
0001
,
1000
0100
0100
1000
,
0000
0100
0000
1000
,
0001
0100
0000
0001
,
0000
1000
0000
0100
,
0010
0001
0000
1000
,
0000
0001
0000
0010
,
0001
0100
0000
0001
,
0000
1000
0000
0010
,
1000
0001
2000
0200
,
0000
0000
0000
0000
,
0000
3300
0000
0000
;

//---------------dance-single - ----------------
#NOTES:
     dance-single:
     :
     Medium:
     6:
     0.309,0.300,0.057,0.076,0.000:
0000
0000
0000
0000
,
0000
0000
0000
0000
,
1000
0000
0001
0000
,
1000
0000
0010
0000
,
0001
0000
1000
0000
,
0001
0000
0100
0000
,
1000
0000
0110
0000
,
0001
0000
0110
0000
,
1000
0100
0010
0001
,
1001
0000
0000
0000
1000
0001
1000
0001
,
0200
0000
0000
0310
0100
0000
0000
0000
,
0010
1000
0001
0100
0001
0000
0000
0000
,
0002
0000
0000
1003
0001
0000
0000
0000
,
0010
0001
1000
0100
1000
0000
0000
0000
,
1000
0000
0010
0000
1000
0010
1000
0000
,
0001
0000
0100
0000
0001
0100
0001
0000
,
1000
1000
0001
0001
,
0100
0000
0000
1001
,
1000
0010
0100
0001
,
0010
0001
0000
0001
1000
0000
0001
0000
,
0100
0001
0010
0100
,
1000
0010
0000
0010
0100
0000
0001
0000
,
1000
0010
1000
0001
,
0010
0100
0000
0100
1000
0000
0001
0000
,
1000
0010
0100
0001
,
1000
0100
0000
0100
0020
0000
0000
0000
,
0031
0000
1000
0100
0010
0000
0000
0000
,
0001
1000
0001
1000
0001
0000
0000
0000
,
1000
0000
0001
0100
0010
0000
0000
0000
,
1000
0001
1000
0001
1000
0000
0000
0000
,
0010
0000
1000
0001
0100
0000
0000
0000
,
0010
1000
0010
1000
0010
0000
0000
0000
,
0100
0000
0001
1000
0100
0000
0000
0000
,
0010
0001
0010
0001
0010
0000
0000
0000
,
0001
0100
1000
0100
,
0001
0010
1000
0010
,
0001
1000
0010
0100
,
0001
1000
0100
0010
,
0001
0100
0020
0000
,
1030
0001
0200
0000
,
0310
1000
0002
0000
,
1003
0001
0100
0010
,
0100
0010
1000
0001
,
0010
0000
0100
0000
1000
0100
1000
0100
,
0010
0001
0010
0001
1000
0000
0001
0000
,
1000
0000
0000
0001
,
0001
1000
1000
0010
,
0010
0000
0100
0000
0100
0001
1000
0000
,
0000
1000
0100
0000
0000
0000
0010
0100
,
1000
0100
0010
0000
0000
0000
0001
0000
,
0000
0100
0001
0000
0000
0000
0100
0010
,
1000
0010
0100
0000
0000
0000
0010
0000
,
1000
0000
1001
0000
0000
0000
0010
0001
,
1000
0100
0010
0000
0000
0000
0001
0000
,
1000
0000
0101
0000
0000
0000
1000
0001
,
0100
0010
1000
0000
0002
0000
0200
0000
,
0000
0000
0000
0000
,
0000
0303
0000
0000
;

//---------------dance-single - ----------------
#NOTES:
     dance-single:
     :
     Hard:
     9:
     0.503,0.600,0.162,0.038,0.224: // measure 1
0000
0000
0000
0000
,  // measure 2
0000
0000
0000
0000
,  // measure 3
1000
0000
0001
0000
,  // measure 4
0100
0000
1000
0000
,  // measure 5
0001
0000
0010
0000
,  // measure 6
1000
0000
0001
0000
,  // measure 7
1100
0000
0010
0000
,  // measure 8
0001
0000
1000
0000
,  // measure 9
0010
0100
0001
0010
1000
0010
0001
0100
,  // measure 10
0020
0000
0000
0000
1030
0001
1000
0001
,  // measure 11
1100
0000
1000
0001
1000
0000
0001
0000
0101
0000
0000
0000
0000
0000
0000
0000
,  // measure 12
1000
0010
0001
0010
1000
0100
0000
0000
,  // measure 13
0110
0000
0100
1000
0100
0000
1000
0000
1001
0000
0000
0000
0000
0000
0000
0000
,  // measure 14
0001
0100
1000
0100
0001
0000
0000
0000
,  // measure 15
0011
0010
0001
1000
0010
0100
0001
0000
,  // measure 16
1010
0000
1001
0000
0011
0100
1000
0000
,  // measure 17
0001
0100
0010
1000
0010
0100
0001
1000
,  // measure 18
0010
0000
0000
1001
,  // measure 19
0001
0000
0000
0100
0010
0000
1000
0000
0100
0000
0000
0000
1000
0000
0001
0010
,  // measure 20
0000
0000
0001
0000
0000
0000
0100
0000
0010
0000
0000
1000
0001
0000
0100
0000
,  // measure 21
0010
0000
0000
1000
0010
0000
0100
0000
0001
0000
0000
0000
1000
0000
0100
0010
,  // measure 22
0000
0000
0100
0000
0000
0000
1000
0000
0010
0000
1000
0001
1000
0000
0010
0000
,  // measure 23
0101
0000
0000
0010
1000
0000
0001
0000
0010
0000
0000
0000
0001
0000
1000
0100
,  // measure 24
0000
0000
1000
0000
0000
0000
0100
0000
0010
0000
0000
0100
1000
0000
0001
0000
,  // measure 25
0100
0000
0000
0010
1000
0000
0001
0000
0100
0000
0000
0000
0001
0000
1000
0010
,  // measure 26
0000
0000
0100
0000
0000
0000
0010
0000
1000
0000
0000
0000
0001
1000
0000
0000
,  // measure 27
0010
0000
1000
0001
1000
0000
0100
0000
0010
0000
0000
0000
1100
0000
0000
0000
,  // measure 28
0010
0001
0100
1000
0100
0000
0010
0000
,  // measure 29
0100
0000
0001
1000
0001
0000
0010
0000
0100
0000
0000
0000
0011
0000
0000
0000
,  // measure 30
0100
0000
1000
0000
0010
0000
0001
0000
0010
0000
0000
1000
0001
0000
0100
0000
,  // measure 31
0010
0000
1000
0100
1000
0000
0001
0000
0010
0000
0000
0000
1100
0000
0000
0000
,  // measure 32
0010
1000
0100
0001
0100
0000
1000
0000
,  // measure 33
0100
0000
0010
0001
0010
0000
0100
0000
1000
0000
0000
0000
0101
0000
0000
0000
,  // measure 34
1000
0100
0010
0001
2000
0010
3010
0000
,  // measure 35
0010
1000
0010
1000
0001
0100
0010
1000
,  // measure 36
0001
0010
0001
0010
0100
1000
0010
1000
,  // measure 37
0100
0010
0100
0010
0001
1000
0010
0100
,  // measure 38
0001
1000
0001
1000
0010
0100
0001
0000
,  // measure 39
0110
0000
0001
0000
0100
0000
0001
0000
1000
0010
0000
0100
0010
0100
0010
0000
,  // measure 40
1000
0000
0100
0000
1000
0000
0100
0000
0010
0001
0000
1000
0001
1000
0001
0000
,  // measure 41
0010
0000
0100
0000
0010
0000
0100
0000
1000
0010
0000
0100
0010
0100
0010
0000
,  // measure 42
1000
0100
0010
0001
0000
0000
0001
0010
0100
1000
0000
0000
0001
0000
0000
0100
0000
0000
0000
0000
0000
1000
0000
0000
,  // measure 43
0000
0100
0000
0001
0000
0010
0000
1000
,  // measure 44
0000
0010
0001
0010
0100
0001
0100
1000
,  // measure 45
0010
0100
1000
0100
0001
0000
1000
0001
,  // measure 46
0100
0000
0000
0000
0000
0000
0000
0000
0000
0000
0000
0000
0000
0000
0000
0000
0000
0000
0000
0000
0000
0000
0000
0000
0000
0000
0000
0000
0000
0000
0000
0000
0000
0000
0000
0000
0001
0000
0000
0000
0000
0000
0000
0000
0000
0000
0000
0000
0000
0000
0000
0000
0000
0000
1000
0000
0000
0000
0000
0000
0000
0000
0000
0001
0000
0000
0000
1000
0000
0000
0000
0000
0000
0000
0000
0000
0000
0000
0000
0000
0000
0000
0000
0000
0000
0000
0000
0000
0000
0000
0000
0000
0000
0000
0000
0000
0100
0000
0000
0000
0000
0000
0000
0000
0000
0000
0000
0000
1000
0000
0000
0000
0000
0000
0000
0000
0000
0000
0000
0000
0100
0000
0000
0000
0000
0000
0000
0000
0000
0000
0000
0000
1000
0000
0000
0000
0000
0000
0000
0000
0000
0000
0000
0000
0001
0000
0000
0000
0000
0000
0000
0000
0000
0000
0000
0000
0000
0000
0000
0000
0000
0000
0000
0000
0000
0000
0000
0000
0100
0000
0000
0000
0000
0000
0000
0000
0000
0000
0000
0000
0000
0000
0000
0000
0000
0000
0000
0000
0000
0000
0000
0000
,  // measure 47
0001
1000
0010
0100
0001
0000
0100
0001
,  // measure 48
1000
0000
0100
0000
0010
0000
0100
0000
1000
0001
1000
0001
0010
0000
0000
0000
,  // measure 49
0001
0000
0100
0000
0010
0000
0000
0000
1000
0000
0001
0010
0000
0000
0001
0000
,  // measure 50
0000
0000
0100
0000
0010
0000
0000
1000
0001
0000
1000
0000
0010
0000
0000
0000
,  // measure 51
0100
0000
0001
0000
1000
0000
0000
0000
0010
0000
0100
0001
0000
0000
0100
0000
,  // measure 52
0000
0000
0010
0000
1000
0000
0000
0010
0100
0000
0001
0000
1100
0000
0000
0000
,  // measure 53
0001
0000
1000
0000
0010
0000
0000
0000
0100
0000
0001
1000
0000
0000
0010
0000
,  // measure 54
0000
0000
1000
0000
0100
0000
0000
1000
0010
0000
0100
0000
0001
0000
0000
0000
,  // measure 55
1000
0000
0010
0000
0100
0000
0000
0000
0001
0000
0010
0001
0000
0000
0100
0000
,  // measure 56
0000
0010
1000
0000
0002
0000
0200
0000
,  // measure 57
0000
0000
0000
0000
,  // measure 58
0000
0303
0000
0000
;

//---------------dance-double - ----------------
#NOTES:
     dance-double:
     :
     Easy:
     5:
     0.268,0.328,0.153,0.048,0.000:
00000000
00000000
00000000
00000000
,
00000000
00000000
00000000
00000000
,
00000001
00000000
00001000
00000000
,
00000100
00000000
00000010
00000000
,
00000100
00000000
00010000
00000000
,
00001000
00000000
01000000
00000000
,
10010000
00000000
00100000
00000000
,
10010000
00000000
01000000
00000000
,
00100000
10000000
01000000
00100000
,
00002000
00000000
00013000
00001000
,
00011000
00000000
00010100
00000000
,
00000100
00001000
00000010
00000000
,
00000101
00000000
00001001
00000000
,
00001000
00000010
00010000
00000000
,
00001000
00100000
00010000
00010000
,
01000000
00100000
01000000
01000000
,
00010000
00100000
00001000
00010000
,
00000100
00000000
00000000
00011000
,
00010000
00001000
01000000
00100000
,
10000000
01000000
00100000
00000000
,
00100000
00010000
01000000
00100000
,
01000000
00010000
00100000
00001000
,
00011000
00000100
00001000
00000010
,
00000100
00000001
00001000
00000000
,
00000001
00001000
00000010
00000100
,
00000001
00001000
00000100
00000000
,
00000010
00000000
00000001
00000000
,
00001000
00000100
00010000
00000000
,
00001000
00000000
00100000
00000000
,
00001000
01000000
00010000
00000000
,
00100000
00000000
01000000
00000000
,
00100000
00010000
10000000
00000000
,
00100000
00000000
10000000
00000000
,
20020000
00000000
00000000
30030000
,
10000000
01000000
00100000
00001000
,
00010000
00000100
00000010
00000001
,
00000001
00000100
00000010
00010000
,
00001000
01000000
00100000
10000000
,
01000000
00100000
00010000
10010000
,
00010000
01000000
00001000
00011000
,
00010000
00000100
00001000
00001001
,
00000001
00001000
00000001
00001000
00000100
00000000
00000010
00000000
,
00000001
00000010
00000100
00001000
,
00000100
00010000
00001000
00001000
,
01000000
00100000
10100000
10010000
,
01010000
00000000
00000000
00001000
,
00010000
00000100
00000100
00001000
,
00000010
00010000
00010000
00001000
,
01000000
00010000
00100000
01000000
,
10000000
01000000
00000000
00100000
,
00010000
00100000
01000000
10000000
,
00100000
01000000
00001000
00011000
,
00010000
00000100
00001000
00000010
,
00000100
00000001
00000000
00001000
,
00000001
00000100
00000010
00010000
,
00001000
00100000
00002000
00020000
,
00000000
00000000
00000000
00000000
,
00000000
00033000
00000000
00000000
;

//---------------dance-double - ----------------
#NOTES:
     dance-double:
     :
     Medium:
     6:
     0.326,0.355,0.057,0.114,0.000:
00000000
00000000
00000000
00000000
,
00000000
00000000
00000000
00000000
,
01000000
00000000
00010000
00000000
,
00100000
00000000
00001000
00000000
,
01000000
00000000
00010000
00000000
,
01000000
00000000
00001000
00000000
,
00011000
00000000
01000000
00000000
,
00011000
00000000
00000100
00000000
,
00001000
00000010
00000100
00000001
,
00002000
00000000
00000000
00000000
00003001
00000100
00000001
00000100
,
00000020
00000000
00000000
00001030
00000010
00000000
00000000
00000000
,
00000100
00000001
00001100
00000000
,
00000200
00000000
00000000
00010300
00001000
00000000
00000000
00000000
,
01000000
00010000
11000000
00000000
,
01000000
00000000
00100000
00000000
00001000
00010000
00001000
00000000
,
01000000
00000000
00100000
00000000
10000000
00010000
10000000
00000000
,
01000000
01000000
00100000
00100000
,
00001000
00000000
00000000
00011000
,
00010000
00000100
00001000
00000010
,
00000100
00000001
00000100
00000001
00000100
00000000
00000010
00000000
,
00001000
00000100
00010000
00001000
,
00100000
00010000
00100000
00010000
00100000
00000000
00001000
00000000
,
01000000
00010000
00100000
01000000
,
10000000
01000000
00100000
00010000
10000000
00000000
00010000
00000000
,
01000000
00001000
00010000
00000100
,
00001000
00000010
00000100
00000001
00001000
00000000
00000000
00000000
,
00000002
00000000
00000000
00001003
00000100
00000000
00001000
00000000
,
00000100
00001000
00000000
00001000
00000010
00000000
00000000
00000000
,
00020000
00000000
00000000
00031000
00100000
00000000
00000000
00000000
,
00010000
01000000
00000000
01000000
00100000
00000000
10000000
00000000
,
02000000
00000000
00000000
13000000
00010000
00000000
00000000
00000000
,
01000000
00010000
00000000
00010000
00100000
00000000
00001000
00000000
,
00020000
00000000
00000000
00030100
00001000
00000000
00000000
00000000
,
00000100
00000010
00000100
00000010
00000100
00000000
00000000
00000000
,
00001000
00000100
00000010
00000001
,
00000010
00000100
00001000
00000100
,
00010000
00001000
01000000
00010000
,
00100000
01000000
10000000
01000000
,
00100000
00010000
02000000
00100000
,
03100000
10000000
00020000
00100000
,
00130000
00001000
00020000
00001000
,
00031000
00010000
00001000
00010000
00000100
00001000
00000000
00000100
,
00000000
00000010
00000000
00000001
00000000
00001000
00000000
00000010
,
00000000
00000100
00000000
00000001
00001000
00000000
00000010
00000000
,
00000100
00000000
00000001
00000000
00001000
00000000
00000100
00010000
,
00001000
00000000
00000000
00000000
00000000
00000000
10000000
01000000
,
10000000
00000000
00010000
01000000
00010000
00000000
00100000
00010000
,
00100000
00000000
00001000
00010000
00001000
00010000
00000100
00000000
,
00001000
00000000
00000010
00000000
00000100
00000000
00000001
00000100
,
00000000
00000100
00000010
00000000
00001000
00000000
00000100
00000000
,
00010000
00000000
00001000
00000000
01000000
00000000
00100000
10000000
,
00000000
10000000
00010000
00000000
10000000
00000000
10010000
00000000
,
00010000
00000000
00100000
00000000
00001000
00000000
00010000
00000100
,
00010000
00000100
00001000
00000000
00000010
00000000
00000100
00000000
,
00000001
00000000
00001000
00000000
00000010
00000000
00010000
00001000
,
00010000
00001000
00100000
00000000
00020000
00000000
02000000
00000000
,
00000000
00000000
00000000
00000000
,
00000000
03030000
00000000
00000000
;

//---------------dance-double - ----------------
#NOTES:
     dance-double:
     :
     Hard:
     9:
     0.509,0.573,0.219,0.038,0.238:
00000000
00000000
00000000
00000000
,
00000000
00000000
00000000
00000000
,
00000000
00000000
00000000
00000000
,
01000000
00000000
00100000
00000000
,
10000000
00000000
00010000
00000000
,
01000000
00000000
00010000
00000000
,
00101000
00000000
00001000
00000000
,
00010010
00000000
00010000
00000000
,
00000010
00000000
00001000
00000000
00000010
00000100
00000001
00001000
,
00000200
00000000
00000000
00000000
00000310
00000001
00001000
00000100
,
00010000
00000000
00001000
00010000
00001000
00000000
00100000
00000000
00110000
00000000
00000000
00000000
00000000
00000000
00000000
00000000
,
00010000
00100000
01000000
00010000
00001000
00000000
00000000
00000000
,
00000010
00000000
00000100
00001000
00000100
00000000
00000010
00000000
00000011
00000000
00000000
00000000
00000000
00000000
00000000
00000000
,
00001000
00000100
00000010
00001000
00010000
00000000
00000000
00000000
,
11000000
00000000
10010000
00010000
01000000
00100000
10000000
00000000
,
01010000
00000000
01001000
00000000
00011000
00010000
00000100
00000000
,
00001100
00010100
00011000
01001000
,
01010000
00000000
00000000
10010000
,
10000000
00000000
00000000
00010000
01000000
00000000
00001000
00000000
00100000
00000000
00000000
00000000
00010000
00000000
10000000
01000000
,
10000000
00000000
00100000
00000000
00000000
00000000
01000000
00000000
00010000
00000000
00000000
00100000
00010000
00000000
01000000
00000000
,
00001000
00000000
00000000
00010000
00000100
00000000
00001000
00000000
00000010
00000000
00000000
00000000
00000100
00000000
00000001
00001000
,
00000001
00000000
00000100
00000000
00000000
00000000
00000010
00000000
00001000
00000000
00000001
00000100
00000010
00000000
00001000
00000000
,
00000101
00000000
00000000
00000100
00000010
00000000
00001000
00000000
00000100
00000000
00000000
00000000
00010000
00000000
00000100
00001000
,
00000100
00000000
00010000
00000000
00000000
00000000
00001000
00000000
01000000
00000000
00000000
00010000
01000000
00000000
00100000
00000000
,
10000000
00000000
00000000
01000000
10000000
00000000
00100000
00000000
01000000
00000000
00000000
00000000
00010000
00000000
00100000
00010000
,
00100000
00000000
01000000
00000000
00000000
00000000
00100000
00000000
00001000
00000000
00000000
00000000
00010000
00001000
00000000
00000000
,
00010000
00000000
00000100
00001000
00000100
00000000
00001000
00000000
00000010
00000000
00000000
00000000
00000100
00000000
00000000
00000000
,
00000100
00000010
00001000
00000010
00010000
00000000
00001000
00000000
,
00100000
00000000
00010000
01000000
00010000
00000000
01000000
00000000
00100000
00000000
00000000
00000000
10000000
00000000
00000000
00000000
,
01000000
00100000
00010000
00100000
01000000
00000000
10010000
00000000
,
10000000
00000000
00010000
01000000
00010000
00000000
01000000
00000000
00001000
00000000
00000000
00000000
00010000
00000000
00000000
00000000
,
00001000
00100000
00010000
01000000
00001000
00000000
00010000
00000000
,
00000100
00000000
00010000
00001000
00010000
00000000
00000010
00000000
00001000
00000000
00000000
00000000
00000001
00000000
00000000
00000000
,
00001000
00000100
00000001
00000100
00002000
00000010
00003010
00000000
,
00000100
00000001
00000100
00000001
00000010
00001000
00000100
00010000
,
00001000
00100000
00001000
00100000
00010000
01000000
00100000
10000000
,
00010000
00100000
00010000
00100000
01000000
10000000
01000000
00100000
,
00001000
00010000
00001000
00010000
00000100
00001000
00000010
00000000
,
00001010
00000000
00001000
00000000
00000001
00000000
00000100
00000000
00000010
00001000
00000000
00000100
00000000
00001000
00000100
00000000
,
00010000
00000000
00001000
00000000
01000000
00000000
00010000
00000000
00100000
00010000
00000000
01000000
00000000
00100000
10000000
00000000
,
00100000
00000000
01000000
00000000
00001000
00000000
00010000
00000000
00000100
00001000
00000000
00000010
00000000
00000100
00000001
00000000
,
00000001
00000100
00000010
00010000
00000000
00000000
00001000
01000000
00100000
10000000
00000000
00000000
00010000
00000000
00000000
00100000
00000000
00000000
00000000
00000000
00000000
11000000
00000000
00000000
,
00000000
01100000
00000000
00110000
00000000
00001000
00000000
00011000
,
00000000
00010000
00000100
00001000
00000010
00000001
00000010
00000100
,
00000001
00001000
00000100
00000010
00000001
00000000
00001000
00000001
,
00000100
00000000
00000000
00000000
00000000
00000000
00000000
00000000
00000000
00000000
00000000
00000000
00000000
00000000
00000000
00000000
00000000
00000000
00000000
00000000
00000000
00000000
00000000
00000000
00000000
00000000
00000000
00000000
00000000
00000000
00000000
00000000
00000000
00000000
00000000
00000000
00000010
00000000
00000000
00000000
00000000
00000000
00000000
00000000
00000000
00000000
00000000
00000000
00000000
00000000
00000000
00000000
00000000
00000000
00010000
00000000
00000000
00000000
00000000
00000000
00000000
00000000
00000000
00001000
00000000
00000000
00000000
01000000
00000000
00000000
00000000
00000000
00000000
00000000
00000000
00000000
00000000
00000000
00000000
00000000
00000000
00000000
00000000
00000000
00000000
00000000
00000000
00000000
00000000
00000000
00000000
00000000
00000000
00000000
00000000
00000000
00100000
00000000
00000000
00000000
00000000
00000000
00000000
00000000
00000000
00000000
00000000
00000000
01000000
00000000
00000000
00000000
00000000
00000000
00000000
00000000
00000000
00000000
00000000
00000000
00100000
00000000
00000000
00000000
00000000
00000000
00000000
00000000
00000000
00000000
00000000
00000000
01000000
00000000
00000000
00000000
00000000
00000000
00000000
00000000
00000000
00000000
00000000
00000000
00010000
00000000
00000000
00000000
00000000
00000000
00000000
00000000
00000000
00000000
00000000
00000000
00000000
00000000
00000000
00000000
00000000
00000000
00000000
00000000
00000000
00000000
00000000
00000000
10000000
00000000
00000000
00000000
00000000
00000000
00000000
00000000
00000000
00000000
00000000
00000000
00000000
00000000
00000000
00000000
00000000
00000000
00000000
00000000
00000000
00000000
00000000
00000000
,
01000000
00100000
00010000
00100000
00001000
00010000
00000100
00010000
,
00000010
00000000
00001000
00000000
00000010
00000000
00000100
00000000
00000001
00000100
00000001
00000100
00000010
00000000
00000000
00000010
,
00001000
00000000
00000001
00000000
00000100
00000000
00000000
00000000
00000010
00000000
00000100
00000001
00000100
00000000
00000010
00000000
,
00000000
00000000
00001000
00000000
00000100
00000000
00000000
00010000
00001000
00000000
00010000
00000000
00001000
00000000
00000000
01000000
,
00010000
00000000
00100000
00000000
01000000
00000000
00000000
00000000
10000000
00000000
00010000
01000000
00010000
00000000
10000000
00000000
,
00000000
00000000
00100000
00000000
10000000
00000000
00010000
01000000
00100000
00000000
10000000
00000000
01010000
00000000
00000000
00010000
,
00100000
00000000
00001000
00000000
00010000
00000000
00000000
00000000
00001000
00000000
00100000
00010000
00100000
00000000
00001000
00000000
,
00000000
00000000
00010000
00000000
00000100
00000000
00000000
00001000
00000010
00000000
00000100
00000000
00000001
00000000
00000000
00001000
,
00000100
00000000
00010000
00000000
00001000
00000000
00000000
00000000
00100000
00000000
00001000
00010000
00001000
00000000
01000000
00000000
,
00000000
00100000
10000000
00000000
02000000
00000000
00200000
00000000
,
00000000
00000000
00000000
00000000
,
00000000
03300000
00000000
00000000
;
