#TITLE:Lay All Your Love On Me;
#SUBTITLE:(Millenium Mix);
#ARTIST:Abbacadabra;
#TITLETRANSLIT:;
#SUBTITLETRANSLIT:;
#ARTISTTRANSLIT:;
#GENRE:;
#CREDIT:;
#MENUCOLOR:;
#METERTYPE:DDR;
#BANNER:Lay All Your Love On Me (Millenium Mix).png;
#BACKGROUND:Lay All Your Love On Me (Millenium Mix)-bg.png;
#LYRICSPATH:;
#CDTITLE:ddrencorecdtitle.png;
#MUSIC:Lay All Your Love On Me (Millenium Mix).mp3;
#OFFSET:-0.045;
#SAMPLESTART:64.282;
#SAMPLELENGTH:14.500;
#SELECTABLE:YES;
#LISTSORT:;
#BPMS:0.000=134.000;
#STOPS:;
#BGCHANGES:;
#ATTACKS:;

//---------------dance-single - ----------------
#NOTES:
     dance-single:
     :
     Hard:
     8:
     0.477,0.542,0.181,0.110,0.165:
0000
0000
0000
0000
,
0000
0000
0000
0000
,
0000
0000
0000
0000
,
0000
0000
0000
0000
,
0001
0000
1000
0010
,
0100
0000
0001
0000
,
0020
0000
0130
0000
,
0200
0000
1300
0001
,
1000
0001
0000
0100
0010
1000
0000
0001
,
0100
0010
1000
0001
,
0000
1000
0010
0100
0001
0100
0010
1000
,
0001
0010
0100
1000
0100
0010
0001
1000
,
0010
0100
0000
0010
1000
0001
0000
0010
,
0001
0100
0010
1000
,
0000
1000
0001
0100
0010
1000
0001
0000
,
0000
0100
0001
1000
0010
0100
0001
0000
,
1000
0000
0001
0010
0000
0010
0100
0000
1000
0000
0010
0000
0000
0000
0010
0000
,
1000
0000
0001
0100
0000
0100
0010
0000
1000
0000
0001
0000
0100
0000
0001
0000
,
1000
0000
0100
0010
0000
0010
0001
0000
1000
0000
0001
0000
0000
0000
0001
0000
,
0100
0000
0010
1000
0000
1000
0001
0000
0010
0000
0001
0000
1100
0000
1000
0000
,
0010
0000
0100
0001
0000
0001
1000
0000
0001
0000
0010
0000
0000
0000
0010
0000
,
0100
0000
1000
0010
0000
0010
0100
0000
0001
0000
0010
0000
0001
0000
1000
0000
,
0100
0000
0010
0001
0000
0001
0100
0000
0010
0000
1000
0000
0000
0000
1000
0000
,
0001
0000
0100
0010
0000
0010
1000
0000
0001
0000
1000
0000
0101
0000
0001
0000
,
0100
0000
0010
1000
0001
0000
0010
0000
,
0001
0100
0010
0000
1000
0000
0001
0000
,
0100
0010
0100
0001
1000
0000
0100
0010
,
0001
1000
0010
0100
,
0010
0000
1000
0000
0001
0000
1000
0010
1000
0000
0001
0000
0010
0000
0010
0000
,
0001
0000
1000
0000
0001
0100
0001
0100
0001
0000
1000
0000
0010
0000
0010
0000
,
0100
0000
0001
0100
0010
0000
1000
0000
,
0100
0010
0001
0000
0100
0000
0010
0000
,
1000
0001
1000
0010
0100
0000
0001
0010
,
0100
0010
0001
1000
,
0001
0000
0100
0000
0010
0000
0100
0001
0100
0000
0001
0000
1000
0000
1000
0000
,
0010
0000
1000
0000
0100
0010
0100
0010
0100
0000
1000
0000
0001
0000
0001
0000
,
0100
0000
0000
0001
0000
0000
2000
0000
0000
0000
0000
0000
0000
0000
0000
0000
,
3001
0000
0000
0000
1000
0000
0010
0100
0010
0000
0000
0100
0000
0000
0010
0000
,
1000
0000
0000
0100
0000
0000
0020
0000
0000
0000
0000
0000
0000
0000
0000
0000
,
0031
0000
0000
0000
1000
0000
0001
0100
0001
0000
0000
1000
0000
0000
0010
0000
,
0100
0000
0000
0000
0001
0000
0200
0000
0010
0000
0000
0010
0300
0000
0010
0000
,
1000
0000
0000
0000
0001
0000
0020
0000
0001
0000
0000
0001
0030
0000
0001
0000
,
0010
0000
0100
2000
0000
0000
3001
0000
,
0200
0000
0010
0300
,
2002
0000
0000
3003
,
0001
1000
0010
0000
1000
0001
0100
0000
,
0110
1001
0101
1100
,
0001
0000
1000
0000
0010
0000
0100
0010
0100
0000
0001
0000
1000
0000
0010
0000
,
1000
0000
0001
0000
0010
0000
0100
0010
0100
0000
1000
0000
0001
0000
0100
0000
,
0020
0000
1000
1000
1030
0000
0001
0000
,
0200
0000
0001
0001
0301
0000
1000
0000
,
0010
1000
0000
0001
0010
1000
0000
0010
,
0100
1000
0000
0010
0100
0000
1001
0000
,
0010
0100
0001
0000
0100
0010
1000
0000
,
1100
1001
0011
1010
,
0000
0100
0010
1000
0001
0010
0001
0100
,
0010
1000
0001
1000
0010
0100
0001
1000
,
0002
0000
0100
0100
0103
0000
0010
0000
,
2000
0000
0001
0001
3001
0000
0100
0000
,
0000
0010
1000
0001
0100
0010
1000
0000
,
0000
0010
0100
0001
1000
0100
0010
0000
,
0100
0000
1000
0000
0000
0000
0001
0100
0001
0000
1000
0000
0000
0000
0001
0010
,
0001
0000
1000
0000
0000
0000
0101
0000
0000
0000
1100
0000
0000
0000
0010
0100
,
0000
0000
0001
0000
0000
0000
1000
0100
0000
0000
1000
0000
0000
0000
0001
1000
,
0000
0000
0010
0000
0000
0000
0110
0000
0000
0000
1001
0000
0000
0000
0010
0100
,
0000
0000
0001
0000
0000
0000
1000
0001
1000
0000
0010
0000
0000
0000
0100
0010
,
0100
0000
0001
0000
0000
0000
0011
0000
0000
0000
1010
0000
0000
0000
0100
0010
,
0000
0000
0001
0000
0000
0000
1000
0010
0000
0000
0100
0000
0000
0000
0010
0000
,
1001
0101
1100
0110
,
1001
0000
0000
0000
;

//---------------dance-single - ----------------
#NOTES:
     dance-single:
     :
     Beginner:
     1:
     0.126,0.190,0.047,0.000,0.000:
0000
0000
0000
0000
,
0000
0000
0000
0000
,
0000
0000
0000
0000
,
0000
0000
0000
0000
,
0000
0000
0000
0000
,
0000
0000
0000
0000
,
0000
0000
0000
0000
,
0000
0000
0000
0000
,
1000
0000
0000
0000
,
0001
0000
0000
0000
,
1000
0000
1000
0000
,
0001
0000
0001
0000
,
0100
0000
0000
0000
,
0100
0000
0000
0000
,
0010
0000
0000
0000
,
0010
0000
0100
0000
,
1001
0000
0100
0000
,
0010
0000
0110
0000
,
0100
0000
0001
0000
,
0100
0000
0110
0000
,
1000
0000
0001
0000
,
0100
0000
1001
0000
,
0001
0000
1000
0000
,
0100
0000
0110
0000
,
0010
0000
0000
0000
,
0001
0000
0000
0000
,
1000
0000
0000
0000
,
0010
0000
0100
0000
,
0001
0001
0000
0000
,
1000
0000
0000
0000
,
0010
0000
0000
0000
,
1000
0000
0000
0000
,
0001
0000
0000
0000
,
0010
0000
0100
0000
,
1000
1000
0000
0000
,
0010
0000
0100
0000
,
0001
0001
0001
0000
,
0100
0000
0010
0000
,
1000
1000
1000
0000
,
0001
0000
1000
0000
,
0010
0010
0010
0000
,
0100
0100
0100
0000
,
0010
0000
1000
0000
,
0001
0000
0000
0000
,
1001
0000
0000
0000
,
1000
0000
1000
0000
,
0001
0000
0100
0000
,
0010
0000
0000
0000
,
0100
0000
0000
0000
,
0010
0000
1000
1000
,
1000
0000
0001
0000
,
0100
0000
0000
0000
,
0010
0000
0000
0000
,
0100
0000
0100
0000
,
0010
0000
1000
0000
,
0100
0000
0000
0000
,
0010
0000
0000
0000
,
0001
0000
0100
0100
,
0100
0000
0010
0000
,
1000
0000
1000
0000
,
0001
0000
0001
0000
,
0010
0000
0100
0000
,
0001
0000
1000
0000
,
0100
0000
0000
0000
,
0100
0000
0000
0000
,
1000
0000
0010
0000
,
0100
0000
0001
0000
,
0010
0000
0000
0000
,
0001
0000
1000
0000
,
0010
0000
0000
0000
;

//---------------dance-single - ----------------
#NOTES:
     dance-single:
     :
     Easy:
     3:
     0.210,0.244,0.039,0.039,0.000:
0000
0000
0000
0000
,
0000
0000
0000
0000
,
0000
0000
0000
0000
,
0000
0000
0000
0000
,
0001
0000
0100
0001
,
1000
0000
0100
0000
,
2000
0000
3001
0000
,
2002
0000
0000
3003
,
1000
0000
0001
0000
,
0010
0001
0010
0001
,
0100
0000
0010
0000
,
0100
0000
0001
0000
,
1000
0000
0100
1000
,
0001
0000
0100
0000
,
0010
1000
0001
0001
,
1000
0010
0100
0100
,
0010
0000
1000
0000
,
0001
0000
0010
0001
,
0100
0000
0010
0000
,
0100
0000
0010
1001
,
0100
0000
0010
0000
,
1000
0000
0001
0010
,
0100
0000
0010
0000
,
0001
0000
1000
0110
,
0001
1000
0001
0100
,
0010
0000
0010
0000
,
0100
0001
1000
0100
,
0010
0100
1000
0010
,
0100
0000
0100
0000
,
0010
0000
0010
0000
,
1000
0001
0100
0001
,
1000
0000
1000
0000
,
0100
0010
0001
0100
,
0010
1000
0001
0100
,
0010
0000
0010
0000
,
0100
0000
0100
0000
,
0001
1000
0001
0000
,
0100
0000
0010
0000
,
1000
0001
1000
0000
,
0100
0000
0010
0000
,
0001
0100
0001
0000
,
1000
0010
1000
0000
,
0001
1000
0100
0010
,
0001
0000
0100
0000
,
2002
0000
0000
3003
,
0100
0000
0100
0000
,
0010
0100
0001
1000
,
0100
0000
0100
0000
,
1000
0000
0001
0100
,
0001
0000
1000
0010
,
0100
0000
0010
0000
,
1000
0000
0001
0000
,
0100
0000
0010
0000
,
1000
0000
1000
0000
,
0001
0100
0010
1000
,
0001
0000
1000
0000
,
0100
0000
0010
0001
,
0100
0000
0010
0100
,
0001
0000
1000
0000
,
0100
1000
0001
0001
,
0100
0010
1000
1000
,
0001
0000
1000
0000
,
0010
0100
0001
1000
,
0100
0000
1000
0000
,
0001
0000
0100
0010
,
1000
0000
0001
0100
,
0010
0000
1000
0000
,
0001
0000
0100
0000
,
0010
1000
0001
0100
,
1001
0000
0000
0000
;

//---------------dance-single - ----------------
#NOTES:
     dance-single:
     :
     Medium:
     6:
     0.358,0.325,0.267,0.157,0.008:
0000
0000
0000
0000
,
0000
0000
0000
0000
,
0000
0000
0000
0000
,
0000
0000
0000
0000
,
1000
0000
0010
0100
,
0010
0000
1000
0000
,
0002
0000
0013
0000
,
2002
0000
0000
3003
,
1000
0001
1000
0000
0010
0100
0010
0000
,
0010
1000
0001
1100
,
0000
0001
1000
0001
0100
0000
0010
0000
,
0100
0001
1000
0110
,
0010
0000
1000
0001
0100
0000
0010
0000
,
1000
0000
0001
0010
0100
0000
0010
0000
,
0000
0001
0100
0000
0010
0100
0001
0000
,
0000
1000
0100
0000
1000
0010
0100
0000
,
0020
0000
1030
0000
,
0200
0000
0310
0001
,
2000
0000
3010
0000
,
0200
0000
0301
1100
,
0002
0000
0103
0000
,
0020
0000
0130
0001
,
2000
0000
3100
0000
,
0020
0000
0031
1100
,
0010
0000
0001
1000
0001
0000
0100
0000
,
0010
1000
0010
0000
0100
0000
0101
0000
,
1000
0000
1000
0010
1000
0000
0001
0100
,
0001
1000
0100
0010
,
0001
1000
0001
0000
1000
0000
1010
0000
,
0001
1000
0010
1001
,
0001
0000
1000
0100
1000
0000
0001
0000
,
0100
0010
1000
0000
0001
0000
0010
0000
,
1100
0000
0010
0001
0010
0000
0100
1000
,
0100
0010
0001
1000
,
0010
0100
0001
0000
1000
0000
1100
0000
,
0010
0001
1000
0101
,
0010
0000
0000
1000
0000
0000
0002
0000
0000
0000
0000
0000
0000
0000
0000
0000
,
1003
0001
0010
1001
,
1000
0000
0000
0010
0000
0000
0200
0000
0000
0000
0000
0000
0000
0000
0000
0000
,
0310
1000
0001
1100
,
0010
0000
0001
0200
0000
0000
0310
0000
,
0100
0000
0001
2000
0000
0000
3100
0010
,
0100
0000
1000
0001
0000
0000
0100
0000
,
0020
0000
1000
0030
,
2002
0000
0000
3003
,
0100
1100
0001
0101
,
0010
0100
0001
1000
0100
0000
1100
0000
,
0001
0010
0001
0100
,
0010
1000
0100
0010
,
0001
0000
1000
0100
0001
0000
0100
0000
,
1000
0000
0001
0010
1000
0000
0010
0000
,
0002
1000
0010
1003
,
0200
0010
0001
0310
,
1000
1010
0001
0011
,
0001
1000
0100
1000
0010
0000
0110
0000
,
0000
1000
0001
0100
0001
0000
0100
0000
,
0000
0001
1000
0100
1000
0000
0110
0000
,
0001
0000
1000
0100
0010
0000
0100
0000
,
1000
0000
0001
0100
0010
0000
1000
0000
,
0000
0001
0100
0000
0010
0100
0001
0000
,
0000
1000
0100
0000
0010
0100
1000
0000
,
0001
0100
0000
0001
0000
1000
0000
0010
,
0000
0100
0000
0101
0000
1100
0000
0010
,
0000
1000
0000
0010
0000
1001
0000
0110
,
0000
0010
0000
1000
0000
0101
0000
1100
,
0000
0010
0000
0001
0000
1000
0000
0010
,
0000
0100
0000
0011
0000
1010
0000
0100
,
0000
0001
0000
1000
0000
0100
0000
0010
,
0011
1100
1010
0101
,
1001
0000
0000
0000
;

//---------------dance-double - ----------------
#NOTES:
     dance-double:
     :
     Easy:
     2:
     0.154,0.190,0.031,0.047,0.000:
00000000
00000000
00000000
00000000
,
00000000
00000000
00000000
00000000
,
00000000
00000000
00000000
00000000
,
00000000
00000000
00000000
00000000
,
00100000
00000000
01000000
00010000
,
01000000
00000000
00001000
00000000
,
00022000
00000000
00000000
00000000
,
00000000
00000000
00000000
00033000
,
00010000
00000000
00000100
00000000
,
00010000
00010000
00000100
00000100
,
00001000
00000000
00000000
00000000
,
00000001
00000000
00000000
00000000
,
00000100
00000000
00000010
00000100
,
00000010
00000000
00001000
00000000
,
00000202
00000000
00000000
00000000
,
00000000
00000000
00000000
00000303
,
00000010
00000000
00000010
00000000
,
00001000
00000000
00000100
00010000
,
00000100
00000000
00000100
00000000
,
00010000
00000000
00010000
00001000
,
00100000
00000000
00100000
00000000
,
00010000
00000000
00010000
01000000
,
00100000
00000000
00100000
00000000
,
10000000
00000000
10000000
00010000
,
01000000
00000000
01000000
00000000
,
00100000
00000000
10000000
00000000
,
00010000
00000000
01000000
00000000
,
00100000
00000000
01000000
00000000
,
00100000
00000000
00000000
00000000
,
10000000
00000000
00000000
00000000
,
00010000
00000000
01000000
00000000
,
00010000
00000000
00100000
00000000
,
00001000
00000000
00010000
00000000
,
00001000
00000000
00100000
00000000
,
00010000
00000000
01000000
00000000
,
00100000
00000000
10000000
00000000
,
00010000
00000000
00000000
00000000
,
00010000
00000000
00000000
00000000
,
01000000
00000000
00000000
00000000
,
00001000
00000000
00000000
00000000
,
00010000
00000000
00000100
00000000
,
00010000
00000000
00000010
00000000
,
00000100
00000000
00000001
00000000
,
00001000
00000000
00000000
00000000
,
00002002
00000000
00000000
00003003
,
00000001
00000000
00001000
00000000
,
00000010
00000000
00000100
00000010
,
00001000
00000000
00000001
00000000
,
00000100
00000000
00000010
00010000
,
00001000
00000000
00010000
00001000
,
00100000
00000000
00010000
00000000
,
01000000
00000000
00000000
00000000
,
00100000
00000000
00000000
00000000
,
01000000
00000000
00100000
00000000
,
01000000
00100000
10000000
00010000
,
01000000
00000000
00100000
00000000
,
01000000
00000000
00010000
00100000
,
01000000
00000000
00100000
00010000
,
10000000
00000000
00010000
00000000
,
01000000
00000000
00000000
00000000
,
00001000
00000000
00000000
00000000
,
00010000
00000000
00000100
00000000
,
00000010
00000001
00000010
00000000
,
00000001
00000000
00000000
00000000
,
00001000
00000000
00000000
00000000
,
00000100
00000000
00010000
00001000
,
00010000
00000000
00001000
00000000
,
00100000
00000000
00000000
00000000
,
01000000
00100000
01000000
00100000
,
10010000
00000000
00000000
00000000
;

//---------------dance-double - ----------------
#NOTES:
     dance-double:
     :
     Medium:
     5:
     0.319,0.325,0.118,0.086,0.000:
00000000
00000000
00000000
00000000
,
00000000
00000000
00000000
00000000
,
00000000
00000000
00000000
00000000
,
00000000
00000000
00000000
00000000
,
00001000
00000000
00010000
00000100
,
00001000
00000000
00000010
00000000
,
00011000
00000000
00010000
00000000
,
00000100
00000000
00010000
00000000
,
00001000
00000000
01000000
00000000
,
00100000
01000000
00010000
10000000
,
01000000
00000000
00100000
00000000
,
01000000
00000000
10000000
00010000
,
01000000
00000000
00100000
01000000
,
00001000
00000000
00010000
00000000
,
00000100
00000010
00000001
00000100
,
00000001
00000010
00000100
00001000
,
00000001
00000100
00000000
00000001
00000100
00000000
00000010
00000000
,
00001000
00000100
00000000
00010000
00000100
00000000
00010000
00000000
,
00001000
00100000
00000000
00001000
00100000
00000000
00010000
00000000
,
01000000
00100000
00000000
01000000
00100000
00000000
10010000
00000000
,
10000000
01000000
00000000
10000000
01000000
00000000
00100000
00000000
,
00010000
01000000
00000000
00001000
01000000
00000000
00001000
00000000
,
00010000
00000100
00000000
00010000
00000100
00000000
00001000
00000000
,
00000010
00000100
00000000
00000010
00000100
00000000
00001001
00000000
,
00000001
00000100
00000010
00001000
,
00000100
00000000
00010000
00000000
00001000
00010000
00001000
00000000
,
00100000
00000000
00001000
00010000
00000100
00000000
00001000
00000010
,
00000100
00000001
00000010
00000100
,
00001000
00000001
00001000
00000000
00000001
00000000
00000101
00000000
,
00000010
00001000
00000100
00011000
,
00001000
00100000
00010000
01000000
,
00100000
00000000
10000000
00000000
00010000
10000000
00010000
00000000
,
01000000
00000000
00100000
01000000
00010000
00000000
00100000
00001000
,
00010000
00000100
00000010
00000001
,
00001000
00000001
00001000
00000000
00000001
00000000
00000101
00000000
,
00000010
00001000
00000001
00001100
,
00000010
00000010
00000020
00000000
,
00000031
00001000
00000100
00010000
,
00000010
00001000
00000200
00000000
,
00010300
00001000
00100000
00010000
,
01000000
00100000
20000000
00000000
,
30100000
01000000
00020000
00000000
,
00130000
00001000
00010000
00000100
,
00020000
00000000
00031000
00000000
,
00022000
00000000
00000000
00033000
,
00001000
00010000
00000100
00001000
,
00000010
00000100
00000001
00001000
,
00000200
00010000
00010000
00010300
,
00002000
00100000
00100000
00103000
,
00001000
00000000
00010000
00000100
00010000
00000000
00000100
00000000
,
00001000
00000000
00000010
00000100
00000010
00000000
00001000
00000000
,
00000001
00000100
00001000
00010000
,
00100000
00010000
00001000
00000100
,
00000001
00001000
00000100
00010000
,
00001000
00100000
00010000
01000000
,
00200000
10000000
10000000
10300000
,
02000000
00100000
00100000
03100000
,
00010000
00000000
01000000
00100000
01000000
00000000
00100000
00000000
,
10000000
00000000
00010000
10000000
00010000
00000000
00010000
00000000
,
10000000
00100000
00010000
00001000
,
00000100
00001000
00010000
00100000
,
01000000
00010000
00000000
10000000
00000000
01000000
00000000
00100000
,
00000000
00010000
00000000
01000000
00000000
01010000
00000000
01001000
,
00000000
00001000
00000000
00010000
00000000
00000100
00000000
00000010
,
00000000
00000001
00000000
00000100
00000000
00000110
00000000
00001001
,
00000000
00000010
00000000
00000100
00000000
00000001
00000000
00001000
,
00000000
00000100
00000000
00010000
00000000
00011000
00000000
00101000
,
00000000
00100000
00000000
00010000
00000000
01000000
00000000
00100000
,
01000000
00010000
00100000
00001000
,
00011000
00000000
00000000
00000000
;

//---------------dance-double - ----------------
#NOTES:
     dance-double:
     :
     Hard:
     8:
     0.442,0.461,0.071,0.134,0.145: // measure 1
00000000
00000000
00000000
00000000
,  // measure 2
00000000
00000000
00000000
00000000
,  // measure 3
00000000
00000000
00000000
00000000
,  // measure 4
00000000
00000000
00000000
00000000
,  // measure 5
02000000
00000000
03010000
00100000
,  // measure 6
00002000
00000000
00013000
00000000
,  // measure 7
00000020
00000000
00001030
00000000
,  // measure 8
00000200
00000000
00000310
00001001
,  // measure 9
00000100
00000010
00000000
00001000
00000000
00000001
00000000
00000100
,  // measure 10
00000010
00001000
00000100
00010000
,  // measure 11
00001000
00100000
00001000
00010000
00000100
00001000
00000010
00000100
,  // measure 12
00000001
00001000
00000100
00010000
00001000
01000000
00001000
00010000
,  // measure 13
00000100
00000000
00001000
00000001
00001000
00000000
00000010
00000000
,  // measure 14
00000100
00000000
00000010
00010000
00000010
00000000
00001000
00000000
,  // measure 15
00000000
00000100
00010000
00001000
00100000
00001000
01000000
00000000
,  // measure 16
00000000
00010000
00100000
01000000
00100000
00010000
01000000
00000000
,  // measure 17
00100000
00000000
00000000
10000000
00000000
00000000
00010000
00000000
01000000
00000000
00100000
00000000
00000000
00000000
10000000
00000000
,  // measure 18
00010000
00000000
00000000
00100000
00000000
00000000
00010000
00000000
01000000
00000000
00001000
00000000
00100000
00000000
00010000
00000000
,  // measure 19
01000000
00000000
00000000
00001000
00000000
00000000
00010000
00000000
00000100
00000000
00000010
00000000
00000000
00000000
00000100
00000000
,  // measure 20
00001000
00000000
00000000
00000010
00000000
00000000
00000100
00000000
00000001
00000000
00001000
00000000
00000110
00000000
00000001
00000000
,  // measure 21
00001000
00000000
00000000
00000100
00000000
00000000
00010000
00000000
00001000
00000000
00100000
00000000
00000000
00000000
00010000
00000000
,  // measure 22
01000000
00000000
00000000
00001000
00000000
00000000
00100000
00000000
01000000
00000000
10000000
00000000
01000000
00000000
00100000
00000000
,  // measure 23
00010000
00000000
00000000
01000000
00000000
00000000
00001000
00000000
00100000
00000000
00010000
00000000
00000000
00000000
01000000
00000000
,  // measure 24
00001000
00000000
00000000
00010000
00000000
00000000
00000100
00000000
00001000
00000000
00000001
00000000
00000100
00000000
00000010
00000000
,  // measure 25
00001000
00000000
00000001
00000100
00000010
00000000
00001000
00000000
,  // measure 26
00000010
00010000
00001000
00000000
00100000
00000000
00011000
00000000
,  // measure 27
00001000
01000000
00100000
10000000
00010000
00000000
00100000
00010000
,  // measure 28
01000000
00100000
10000000
00010000
,  // measure 29
00100000
00001000
00010000
00000000
00000010
00000000
00001001
00000000
,  // measure 30
00000010
00000000
00000100
00000000
00000010
00001000
00000000
00001000
00000100
00000000
00010000
00000000
00001000
00000000
00100000
00000000
,  // measure 31
00010000
00000000
01000000
00010000
00100000
00000000
01000000
00000000
,  // measure 32
10000000
00010000
01000000
00000000
00100000
00000000
01000000
00000000
,  // measure 33
00010000
00100000
00001000
00010000
00000100
00000000
00000010
00000100
,  // measure 34
00001000
00000010
00000100
00000001
,  // measure 35
00001000
00000010
00000100
00000000
00000010
00000000
00001001
00000000
,  // measure 36
00000010
00000000
00001000
00000000
00000001
00000010
00000000
00000010
00000100
00000000
00001000
00000000
00000010
00000000
00010000
00000000
,  // measure 37
00001000
00000000
00001000
00100000
00000000
00100000
00020000
00000000
00000000
00000000
00000000
00000000
01000000
00000000
00000000
00000000
,  // measure 38
01030000
00000000
00000000
00000000
00010000
00000000
10000000
01000000
10000000
00000000
00000000
00010000
00000000
00000000
00100000
00000000
,  // measure 39
00001000
00000000
00001000
00010000
00000000
00010000
00000200
00000000
00000000
00000000
00000000
00000000
00000010
00000000
00000000
00000000
,  // measure 40
00000310
00000000
00000000
00000000
00000100
00000000
00001000
00000001
00001000
00000000
00000000
00000010
00000000
00000000
00000100
00000000
,  // measure 41
00000002
00000000
00000000
00000000
00001003
00000000
00000020
00000000
00000100
00000000
00000000
00000100
00000030
00000000
00000100
00000000
,  // measure 42
00000020
00000000
00000000
00000000
00001030
00000000
00000200
00000000
00001000
00000000
00000000
00010000
00000300
00000000
00001000
00000000
,  // measure 43
00200000
00000000
00310000
02000000
00000000
00000000
00100000
00000000
,  // measure 44
03020000
00000000
01000000
00000000
,  // measure 45
01030000
00000000
00000000
01000000
00000000
00000000
01000000
00000000
00100000
10000000
00100000
10000000
00100000
00000000
01000000
00000000
,  // measure 46
00010000
00000000
00000000
00010000
01000000
00000000
00000000
00000000
01000000
00000000
00000000
00100000
10000000
00000000
00000000
00000000
,  // measure 47
01000000
00100000
00010000
01000000
00100000
00000000
01000000
00000000
,  // measure 48
00100000
10000000
00010000
00100000
00100000
00001000
00001000
00010000
,  // measure 49
00000100
00001000
00000010
00010000
00010000
00000100
00000100
00010000
,  // measure 50
00002000
00000000
00103000
00010000
01000000
00000000
00100000
00000000
,  // measure 51
20000000
00000000
30010000
00100000
01000000
00000000
00100000
00000000
,  // measure 52
00010000
01000000
00000000
00001000
00000000
00010000
00000000
00000010
,  // measure 53
00000000
00000100
00000000
00000001
00000000
00001000
00000000
00000100
,  // measure 54
00010000
00000000
00000000
00010000
00001000
00000000
00000000
00000000
00001000
00000000
00000000
00100000
00010000
00000000
00000000
00000000
,  // measure 55
01000000
00100000
10000000
00010000
00100000
00000000
10010000
00000000
,  // measure 56
00000000
00100000
01000000
00010000
00100000
01000000
10000000
01000000
,  // measure 57
00100000
00010000
01000000
00001000
00010000
00000100
00000010
00000001
,  // measure 58
00000200
00000000
00000310
00001000
00000001
00000000
00000010
00000000
,  // measure 59
00000200
00000000
00001300
00000010
00010000
00000000
00001000
00000000
,  // measure 60
00000000
00001000
00100000
00000000
00010000
10000000
00010000
00000000
,  // measure 61
00000000
01000000
00001000
00000000
00010000
00000010
00010000
00000000
,  // measure 62
00000100
00010000
00000000
00001000
00000000
00100000
00000000
01000000
,  // measure 63
00000000
00000000
10000000
00000000
00000000
00000000
00100000
00000000
00000000
00000000
01100000
00000000
00000000
00000000
00010000
10000000
,  // measure 64
00000000
00000000
00100000
00000000
00000000
00000000
01000000
00010000
00000000
00000000
00100000
00000000
00000000
00000000
00001000
00010000
,  // measure 65
00000000
00000000
00010000
00000000
00000000
00000000
00000010
00000000
00000000
00000000
00000100
00000000
00000000
00000000
00000001
00001000
,  // measure 66
00000000
00000000
00000010
00000000
00000000
00000000
00000100
00000010
00000000
00000000
00001000
00000000
00000000
00000000
00000100
00010000
,  // measure 67
00000000
00000000
00001000
00000000
00000000
00000000
01000000
00000000
00000000
00000000
10010000
00000000
00000000
00000000
01000000
00100000
,  // measure 68
00000000
00000000
01000000
00000000
00000000
00000000
00010000
10000000
00000000
00000000
00100000
00000000
00000000
00000000
01000000
00000000
,  // measure 69
00010000
00100000
00001000
00010000
,  // measure 70
00001100
00000000
00000000
00000000
;
