#TITLE:Late Riser;
#SUBTITLE:;
#ARTIST:good-cool;
#TITLETRANSLIT:;
#SUBTITLETRANSLIT:;
#ARTISTTRANSLIT:;
#GENRE:;
#CREDIT:;
#MENUCOLOR:;
#METERTYPE:DDR;
#BANNER:Late Riser-bn.png;
#BACKGROUND:Late Riser-bg.png;
#LYRICSPATH:;
#CDTITLE:ddrencorecdtitle.png;
#MUSIC:Late Riser.mp3;
#OFFSET:-1.173;
#SAMPLESTART:61.052;
#SAMPLELENGTH:12.000;
#SELECTABLE:YES;
#LISTSORT:;
#BPMS:0.000=184.000;
#STOPS:;
#BGCHANGES:;
#ATTACKS:;

//---------------dance-single - ----------------
#NOTES:
     dance-single:
     :
     Beginner:
     2:
     0.170,0.216,0.126,0.000,0.000:
0000
0000
0000
0000
,
0000
0000
0000
0000
,
0010
0000
0010
0000
,
0100
0000
0000
0000
,
0001
0000
0001
0000
,
1000
0000
0000
0000
,
0100
0000
0100
0000
,
0010
0000
0000
0000
,
1000
0000
1000
0000
,
0001
0000
0000
0000
,
1001
0000
0000
0000
,
0000
0000
0000
0000
,
0110
0000
0000
0000
,
0000
0000
0000
0000
,
1000
0000
0010
0000
,
1000
0000
0010
0000
,
0100
0000
0001
0000
,
0100
0000
0001
0000
,
0010
0000
0100
0000
,
0010
0000
0100
0000
,
0001
0000
1000
0000
,
0001
0000
1000
0000
,
0100
0000
1000
0000
,
0100
0000
1000
0000
,
0001
0000
0100
0000
,
0001
0000
0100
0000
,
1000
0000
0010
0000
,
1000
0000
0010
0000
,
0001
0000
0010
0000
,
0001
0000
0010
0000
,
1001
0000
0000
0000
,
0000
0000
0000
0000
,
0110
0000
0000
0000
,
1000
0000
1000
0000
,
1001
0000
0000
0000
,
0000
0000
0000
0000
,
0110
0000
0000
0000
,
0010
0000
0000
0000
,
1001
0000
0000
0000
,
0000
0000
0000
0000
,
0110
0000
0000
0000
,
0001
0000
0001
0000
,
1001
0000
0000
0000
,
0000
0000
0000
0000
,
0110
0000
0000
0000
,
0000
0000
0000
0000
,
1000
0000
1000
0000
,
0001
0000
0001
0000
,
1000
0000
1000
0000
,
0010
0010
0010
0000
,
1000
0000
1000
0000
,
0001
0000
0001
0000
,
0100
0000
0100
0000
,
0001
0001
0001
0000
,
0010
0000
0000
0000
,
0100
0000
0000
0000
,
0001
0000
0000
0000
,
1000
0000
0000
0000
,
0100
0000
0000
0000
,
0010
0000
0000
0000
,
0001
0000
0000
0000
,
1000
0000
0000
0000
,
0100
0100
0000
0000
,
0100
0100
0000
0000
,
0100
0100
0000
0000
,
0100
0000
0000
0000
,
0010
0010
0000
0000
,
0010
0010
0000
0000
,
0010
0010
0000
0000
,
0010
0000
0000
0000
,
1001
0000
0000
0000
,
0100
0000
0100
0000
,
0100
0000
1000
0000
,
0001
0000
1000
0000
,
0010
0010
0010
0000
,
0010
0000
0100
0000
,
0010
0000
1000
0000
,
0001
0000
1000
0000
,
1001
0000
0000
0000
,
0110
0000
0000
0000
,
1001
0000
0000
0000
;

//---------------dance-single - ----------------
#NOTES:
     dance-single:
     :
     Hard:
     8:
     0.605,0.729,0.351,0.279,0.000:
0000
0000
0000
0000
,
0000
0000
0000
0000
,
1000
0100
0010
0100
0000
1000
0000
0010
,
0000
0100
0001
0100
0010
0100
0001
0100
,
0010
1000
0001
0100
0000
0001
0000
1000
,
0000
0010
0100
1000
0100
0010
0001
0100
,
0010
0100
0001
0100
0000
0010
0000
1000
,
0000
0001
0100
0010
1000
0100
0010
0001
,
0100
0001
0010
0001
0000
1000
0000
0100
,
0000
0010
0001
0100
0002
0000
0000
0000
,
0103
0000
0010
1000
0100
0000
0000
1000
,
0000
0001
0100
0010
1000
0100
0010
0000
,
0001
0000
0100
0010
0100
0000
0001
2002
,
0000
0000
3003
0000
,
1000
0100
1000
0000
0001
0000
0101
0000
,
0010
0100
1000
0010
,
0100
0001
0100
0000
0010
0000
1000
0000
,
0100
0110
0001
0110
,
0001
1000
0001
0000
0010
0000
0100
0000
,
1000
0001
1000
0010
,
0100
0010
0100
0000
0001
0000
1000
0000
,
1001
0000
1000
0100
1000
0100
1000
0100
,
1000
0010
1000
0000
0001
0000
0011
0000
,
0100
1001
1100
0010
,
0100
0001
0100
0000
0010
1000
0010
0000
,
1000
1100
0001
0101
,
1000
0100
0010
0000
0001
0000
0100
0000
,
0010
1000
0100
1000
,
0001
0100
0010
0000
0100
0000
0001
0000
,
1000
0100
0010
0000
0001
0000
1000
0000
,
2100
0000
0100
3001
,
0012
0000
0100
1003
,
0010
0000
0100
0001
0100
0000
0010
0000
,
1000
0000
0001
0100
0000
0001
0100
0000
,
0010
1000
0001
0100
,
0010
0000
1000
0100
0000
1000
0100
0000
,
0010
0001
1000
0010
,
0101
1010
1100
1001
,
0001
0100
0020
0000
1000
0000
0130
0000
,
0001
1000
0200
0000
0010
0000
0301
0000
,
0100
0000
1000
0000
0010
0000
0100
0001
,
0100
0010
1000
0100
,
1000
0001
1000
0000
0110
0000
1001
0000
,
0001
1000
0001
0000
0110
0000
1001
0000
,
0100
0010
0010
0000
0100
0010
0010
1000
,
0000
0100
0000
0001
0000
0000
0000
0000
,
2001
0000
3100
0000
0010
0000
0001
0100
,
0000
0010
1000
0100
0010
0010
0000
0000
,
0120
0000
0031
0000
0100
0000
0010
1000
,
0000
0001
0100
1000
0100
0000
0000
0000
,
0012
0000
1003
0000
0010
0000
0100
0010
,
0000
0100
0001
1000
0010
0100
0000
0000
,
0120
0000
1030
0000
0100
0000
0010
0001
,
0000
0100
1000
0100
0001
0000
0100
0000
,
0010
0010
1000
0100
0000
1000
0000
0010
,
0000
0100
0001
0010
0100
1000
0001
0000
,
0100
0100
0010
1000
0000
0100
0000
0010
,
0000
1000
0100
0001
0100
1000
0001
0000
,
1000
0100
0010
0001
0000
0010
0000
0100
,
0000
0001
0100
1000
0010
1000
0100
0000
,
0001
0100
0010
1000
0000
0100
0000
1001
,
0000
0101
0000
2020
0000
0000
3030
0000
,
0010
0020
0000
0100
0230
0000
0001
0302
,
0000
1000
2003
0000
3100
0000
1001
0000
,
0010
0020
0000
1000
2030
0000
0100
3200
,
0000
0010
0320
0000
0031
0100
0000
0000
,
0001
0002
0000
1000
2003
0000
0010
3020
,
0000
0100
0230
0000
0301
0000
0110
0000
,
1000
0200
0000
0310
0002
0000
1003
0020
,
0000
0130
0002
0000
1003
0000
1001
0000
,
0010
0100
0001
1000
,
0100
0010
0001
0010
0000
0100
1000
0010
,
0100
0001
0100
0010
0100
0001
1000
0100
,
0010
0100
1000
0001
0000
0000
0000
0000
,
0010
0000
1000
0000
0001
0000
0010
0100
,
1000
0001
0100
0010
0100
0001
1000
0010
,
0100
0001
1000
0100
0010
0001
1000
0100
,
0010
0100
1000
0001
0100
0010
0100
0001
,
1001
1001
0000
0110
0110
0000
1100
1100
,
0000
0011
0011
0000
1000
0000
0001
2002
,
0000
0000
0000
0000
,
3003
0000
0000
0000
;

//---------------dance-single - ----------------
#NOTES:
     dance-single:
     :
     Medium:
     6:
     0.463,0.468,0.099,0.270,0.000:
0000
0000
0000
0000
,
0000
0000
0000
0000
,
1000
0010
0100
0001
,
1000
0000
0001
0000
0100
0010
0100
0000
,
0001
1000
0100
0010
,
0001
1000
0200
0000
,
1300
0010
0100
0001
,
1000
0000
0010
0000
0100
0001
0100
0000
,
0010
0100
0001
1000
,
0100
0010
0002
0000
,
1003
0100
1100
0000
,
0001
0100
0010
0100
,
0001
0000
1000
0000
1001
0000
0000
0220
,
0000
0000
0000
0330
,
0001
0010
0100
1000
,
0010
0000
1000
0000
0001
0100
0001
0000
,
1000
0100
0010
0001
,
0100
0001
0100
0000
0010
1000
0010
0000
,
0100
0001
1000
0100
,
0010
0000
0001
0000
1000
0010
1000
0000
,
0001
0100
0010
1000
,
0001
0100
0010
1100
,
0001
1000
0010
0100
,
0001
0000
0010
0000
0001
1000
0001
0000
,
0100
0010
1000
0100
,
0010
0001
0100
0000
0010
1000
0100
0000
,
1000
0010
0100
0001
,
1000
0100
0010
0001
,
0100
0010
1000
0001
,
1000
0100
1000
0001
0100
0001
0100
0000
,
0020
0000
1030
0100
,
0010
0001
0100
0010
,
2000
0000
3001
0100
,
0010
0100
0001
1000
,
0020
0000
1030
0010
,
0100
0001
0010
0100
,
2000
0000
3002
0000
,
0203
0000
0000
0300
,
0001
0000
1000
0000
0100
0000
0010
0001
,
0010
0100
1000
0001
,
0200
0000
0310
1000
,
0001
1000
0100
0010
,
0001
0100
0001
0000
1000
0000
0001
0000
,
1000
0100
1000
0000
0010
0000
0100
0000
,
0001
1001
1000
1001
,
0110
0110
0110
0000
,
1000
0001
0100
0010
,
0100
0001
0100
0001
2000
0000
0000
0000
,
3001
0010
0100
1000
,
0100
0010
0100
0010
0002
0000
0000
0000
,
1003
0100
1000
0010
,
1000
0001
1000
0001
0010
0000
0100
0000
,
1000
0100
1000
0010
,
0100
0001
0100
0001
0020
0000
0000
0000
,
0031
1000
0100
0010
,
0100
0010
0100
0000
1000
0000
0001
0000
,
0100
0010
1000
0001
,
0100
0010
0100
0000
1001
0000
0000
0000
,
0010
1000
0100
1000
,
0001
0000
0100
0000
0010
1000
0010
0000
,
0100
0001
0010
0001
,
1000
0100
1000
0000
1001
0000
0000
0000
,
0020
0000
0000
2030
0000
0000
3200
0000
,
0000
0320
0000
0000
0031
0000
1000
0000
,
0002
0000
0000
0203
0000
0000
0320
0000
,
0000
2030
0000
0000
3001
0100
0000
0000
,
0002
0000
0000
0023
0000
0000
0230
0000
,
0000
2300
0000
0000
3001
0000
0100
0000
,
0020
0000
0000
2030
0000
0000
3200
0000
,
0000
0320
0000
0000
0031
0100
0010
0000
,
1000
0000
0001
0000
0100
0010
1000
0000
,
0001
0100
0000
0010
0000
1000
0100
1000
,
0010
0100
0001
1000
,
0100
0010
0100
0010
0000
0000
0000
0000
,
0001
0100
0010
1000
,
0100
1000
0100
1000
0000
0001
0100
0010
,
0100
0001
1000
0100
,
0010
0001
0100
0010
,
1000
0100
0000
0010
0001
0000
0100
0010
,
0000
1000
0100
0000
0001
0000
0100
0100
;

//---------------dance-single - ----------------
#NOTES:
     dance-single:
     :
     Easy:
     5:
     0.347,0.471,0.099,0.261,0.000:
0000
0000
0000
0000
,
0000
0000
0000
0000
,
2000
0000
3010
0100
,
0001
0100
0100
0000
,
0002
0000
1003
0100
,
0010
0100
0100
0000
,
0020
0000
0130
0001
,
1000
0100
1000
0000
,
0200
0000
0310
0001
,
1000
0100
1000
0000
,
0001
0100
0001
0000
,
1000
0100
1000
0010
,
0100
0001
0100
0000
,
0020
0000
0000
0030
,
0100
0001
0100
0000
,
0010
0000
1000
0000
,
0100
1000
0100
1000
,
0001
1000
0001
0100
,
0001
0100
0000
0010
,
0000
1000
0000
0100
,
1000
0100
0000
0010
,
0001
0000
1001
1001
,
0001
0100
0010
0000
,
1000
0000
0100
0000
,
1000
0010
0100
0000
,
0001
0100
0001
0100
,
0001
1000
0001
0000
,
0100
0000
0010
0000
,
1000
0100
1000
0000
,
0010
0000
1001
0000
,
0200
0000
0310
0000
,
2000
0001
3001
0000
,
0100
0010
0100
0000
,
0002
0000
0103
0000
,
0020
0000
1030
0000
,
0200
0010
0310
0000
,
0001
1000
0001
0000
,
0110
0000
1001
0000
,
0200
0000
0310
0001
,
0010
0001
0100
0001
,
2000
0000
0000
3001
,
0100
0010
1000
0001
,
0200
0000
0302
0000
,
1003
0100
1000
0000
,
1001
1001
0110
0110
,
0001
0100
0020
0000
,
1030
0100
1000
0001
,
0100
0001
0020
0000
,
0130
1000
0100
1000
,
0010
0100
0002
0000
,
0103
0010
0100
0010
,
1000
0100
2000
0000
,
3001
0100
0001
0010
,
0001
1000
0200
0000
,
1300
0000
0100
0000
,
1000
0001
1000
0010
,
0100
0000
0001
0000
,
1000
0010
1000
0010
,
0100
0000
0001
0000
,
0010
0001
0010
0001
,
1000
0000
0100
0000
,
1000
0001
0002
0000
,
2003
0000
0100
0000
,
3002
0000
0103
0001
,
0020
0000
0100
0000
,
2030
0000
3001
1000
,
0200
0000
1000
0000
,
0320
0000
0031
0010
,
0002
0000
0100
0000
,
2003
0000
3010
1000
,
0001
0000
0100
0010
,
1000
0010
0100
0000
,
0001
0000
1000
0000
,
0100
0010
0100
0000
,
1000
0001
1000
0010
,
0100
0001
1000
0100
,
0010
0001
0100
0010
,
1000
0001
1000
0010
,
1001
0000
0110
0000
,
1000
0001
0100
0020
,
0000
0000
0030
0000
;

//---------------dance-double - ----------------
#NOTES:
     dance-double:
     :
     Easy:
     5:
     0.377,0.362,0.081,0.234,0.000:
00000000
00000000
00000000
00000000
,
00000000
00000000
00000000
00000000
,
10000000
00100000
01000000
00010000
,
10000000
01000000
00100000
00000000
,
00001000
00010000
00000100
00001000
,
00000010
00000100
00000001
00000000
,
00001000
00000100
00000010
00000001
,
00001000
00000010
00000100
00000000
,
00000001
00000100
00000010
00001000
,
00000100
00000010
00000001
00000000
,
00001000
00000100
00010000
00000000
,
00001000
01000000
00010000
00100000
,
00001000
00000000
00010000
00000000
00000100
00000000
00000000
00020200
,
00000000
00000000
00030300
00000000
,
00001000
00000010
00000200
00000000
,
00000301
00000001
00001000
00001000
,
00000100
00010000
00001000
00000000
,
00100000
00010000
01000000
00010000
,
10000000
00100000
02000000
00000000
,
03010000
00010000
10000000
10000000
,
01000000
00100000
00010000
00000000
,
01000000
00001000
00010000
00000100
,
00001000
00000001
00000020
00000000
,
00000130
00000100
00010000
00010000
,
00001000
00100000
00020000
00000000
,
01030000
00100000
10000000
01000000
,
10000000
00010000
00200000
00000000
,
00301000
00001000
00010000
00010000
,
00000100
00001000
00000020
00000000
,
00000130
00000100
00000001
00000000
,
00002000
00000000
00003100
00010000
,
00002000
00000000
00103000
00010000
,
01000000
00010000
10000000
00100000
,
01000000
00000000
00001000
00000000
,
00010000
00000100
00001000
00000010
,
00000100
00000001
00001000
00000000
,
00000100
00010000
00001000
00000000
,
00100000
00010000
10000000
01000000
,
00200000
00000000
00310000
01000000
,
00002000
00000000
00013000
00000100
,
00001000
00000000
00000010
00000000
,
00000100
00000001
00001000
00000100
,
00000010
00000010
00000001
00000001
,
00000100
00000100
00001001
00000000
,
00010000
00000000
00001000
00000000
,
00010000
00001000
00011000
00000000
,
00100000
00100000
00010000
00010000
,
01000000
00100000
10000000
00000000
,
00010000
00010000
01000000
01000000
,
00001000
00010000
00000100
00000000
,
00000010
00000010
00000001
00000001
,
00001000
00000100
00000010
00000000
,
00000100
00000100
00010000
00010000
,
00001000
01000000
00010000
00000000
,
10000000
01000000
00100000
00010000
,
01000000
00001000
00020000
00000000
,
00030100
00001000
00000010
00000100
,
00000001
00001000
00000200
00000000
,
00010300
00001000
00100000
00010000
,
01000000
00100000
20000000
00000000
,
30010000
00100000
01000000
10000000
,
00010000
01000000
00002000
00000000
,
00023000
00000000
00030200
00000000
,
00001300
00000010
00000100
00000001
,
00000020
00000000
00000032
00000000
,
00001003
00000100
00001100
00000000
,
00020000
00000000
00032000
00000000
,
01003000
00100000
10000000
00010000
,
00200000
00000000
02300000
00000000
,
13000000
00100000
10100000
00000000
,
00000000
00000000
00010000
00100000
,
00001000
00010000
00000100
00001000
,
00000010
00000010
00000100
00000100
,
00000001
00001000
00001001
00000000
,
00000010
00000010
00010000
00010000
,
00001000
00100000
00010000
01000000
,
00001000
00010000
00000100
00001000
,
00000010
00000100
00000001
00001000
,
00000110
00000000
00001001
00000000
,
00000100
00000100
00000010
00000010
,
00002002
00000000
00003003
00000000
;

//---------------dance-double - ----------------
#NOTES:
     dance-double:
     :
     Medium:
     6:
     0.428,0.435,0.108,0.360,0.000:
00000000
00000000
00000000
00000000
,
00000000
00000000
00000000
00000000
,
10000000
00100000
01000000
00010000
,
00100000
00001000
00010000
00000100
,
00001000
00000010
00000100
00000001
,
00001000
00000100
00000020
00000000
,
00000031
00000100
00000010
00001000
,
00000100
00010000
00001000
00100000
,
00010000
01000000
00100000
10000000
,
00010000
01000000
00200000
00000000
,
10300000
01000000
00010000
00000000
,
00010000
01000000
10000000
00100000
,
01000000
00000000
00010000
00000000
00100000
00000000
00000000
00022000
,
00000000
00000000
00033000
00000000
,
00100000
00001000
00010000
00000100
,
00002000
00000010
00003010
00000100
,
00000001
00000010
00000001
00001000
,
00000200
00010000
00010300
00001000
,
00100000
00010000
01000000
00100000
,
20000000
00100000
30100000
01000000
,
00010000
00100000
00001000
00010000
,
00002000
00100000
00103000
00010000
,
00110000
01000000
00001000
00010000
,
00000200
00001000
00001300
00000010
,
00000100
00000001
00000010
00000001
,
00002000
00000100
00003100
00000010
,
00000001
00000100
00000010
00001000
,
00000200
00010000
00010300
00001000
,
00100000
00010000
01000000
00100000
,
20000000
00000000
00000000
30000000
,
00200000
00000000
01300000
00010000
,
00100000
00001000
00100000
00000000
00001000
00000000
00010000
00000000
,
00000100
00001000
00000010
00000100
,
00000001
00000000
00000000
00001100
00000000
00000000
00000100
00000000
,
00010000
00001000
00010000
00000100
,
00001000
00000010
00010000
00001000
,
00020000
00000000
00002000
00033000
,
00100000
00100000
01000000
01000000
,
20000000
00000000
30010000
00100000
,
00020000
00000000
01030000
00001000
,
00010000
00000000
00000100
00001000
00000100
00000000
00000010
00000000
,
00000100
00000000
00000000
00011000
00000000
00000000
00010000
00000000
,
00001000
00001000
00100000
00100000
,
00010000
01000000
00010000
00000000
,
10000000
00100000
01000000
00010000
,
00100000
00010000
10010000
00000000
,
01000000
01000000
00010000
00010000
,
00100000
00000000
00001000
00000000
00001000
00010000
00000000
00000000
,
00000100
00000100
00001000
00001000
,
00000010
00000000
00000100
00000001
00000100
00000000
00000000
00000000
,
00000010
00000010
00001000
00001000
,
00000100
00000000
00010000
00000000
00010000
00001000
00000000
00000000
,
00100000
00100000
00010000
00010000
,
01000000
00000000
00100000
10000000
00100000
00000000
00000000
00000000
,
01000000
00010000
00100000
00010000
,
01000000
00001000
00020000
00000000
,
00030100
00001000
00000010
00000100
,
00000001
00000010
00000002
00000000
,
00001003
00000100
00010000
00001000
,
00100000
00010000
02000000
00000000
,
03100000
10000000
00010000
01000000
,
00010000
00100000
00002000
00000000
,
00023000
00000000
00000000
00030200
00000000
00000000
00002300
00000000
,
00000000
00003020
00000000
00000000
00000130
00000000
00001001
00000000
,
00000002
00000000
00000000
00000023
00000000
00000000
00000230
00000000
,
00000000
00020300
00000000
00000000
00031000
00010000
00000000
00000000
,
00002000
00000000
00000000
00203000
00000000
00000000
00320000
00000000
,
00000000
02030000
00000000
00000000
03100000
00000000
10010000
00000000
,
20000000
00000000
00000000
32000000
00000000
00000000
03200000
00000000
,
00000000
00302000
00000000
00000000
00013000
00001000
00100000
00000000
,
00000000
00000000
00100000
00010000
,
01000000
00010000
00000000
00100000
00000000
00001000
00010000
00000000
,
00000100
00001000
00000010
00000100
,
00000001
00001000
00000200
00000000
,
00000310
00000010
00000001
00001000
,
00000100
00010000
00001000
00100000
,
00010000
01000000
00100000
10000000
,
00010000
01000000
00001000
00010000
,
00011000
00000000
00000000
00010100
00000000
00000000
00011000
00000000
,
00000000
00101000
00000000
00000000
00011000
00000000
00020000
00002000
,
00000000
00000000
00033000
00000000
;

//---------------dance-double - ----------------
#NOTES:
     dance-double:
     :
     Hard:
     9:
     0.620,0.616,0.225,0.333,0.000: // measure 1
00000000
00000000
00000000
00000000
,  // measure 2
00000000
00000000
00000000
00000000
,  // measure 3
10000000
01000000
00010000
00001000
00000000
00100000
00000000
00001000
,  // measure 4
00000000
00010000
00000100
00001000
00000010
00000100
00000001
00000000
,  // measure 5
00000001
00000100
00001000
00010000
00000000
00000010
00000000
00001000
,  // measure 6
00000000
00000100
00010000
00001000
00100000
00010000
01000000
00000000
,  // measure 7
00100000
10000000
01000000
00010000
00000000
00001000
00000000
00000100
,  // measure 8
00000000
00000001
00000010
00000100
00001000
00000001
00000100
00000000
,  // measure 9
00000010
00001000
00000100
00000001
00000000
00000100
00000000
00001000
,  // measure 10
00000000
00000100
00010000
00001000
00020000
00000000
00000000
00000000
,  // measure 11
00031000
00000000
00100000
00010000
01000000
00000000
00000000
00010000
,  // measure 12
00000000
10000000
01000000
00100000
00010000
00100000
01000000
00000000
,  // measure 13
10000000
00010000
00100000
00001000
01000000
00010000
00000000
00220000
,  // measure 14
00000000
00000000
00330000
00000000
,  // measure 15
01000000
00010000
00100000
00000000
00001000
00010000
00000000
00000100
,  // measure 16
00000000
00001000
00000000
00000010
00000100
00000001
00000010
00000000
,  // measure 17
00000100
00001000
00000010
00000000
00010000
00001000
00000000
00100000
,  // measure 18
00000000
00001000
00010000
00000100
00001000
00000010
00020000
00000000
,  // measure 19
00031000
00100000
00010000
00000000
01000000
00001000
00000000
00100000
,  // measure 20
00000000
00001000
00000000
00010000
00000100
00010000
00001000
00000000
,  // measure 21
00100000
00010000
01000000
00000000
00010000
10000000
00000000
00100000
,  // measure 22
00000000
01000000
00010000
00100000
00001000
00010000
00000100
00000000
,  // measure 23
00001000
00000010
00000100
00000000
00000001
00000010
00000000
00000100
,  // measure 24
00000000
00000010
00000000
00000001
00001000
00000100
00000010
00000000
,  // measure 25
00000100
00010000
00001000
00000000
00100000
00010000
00000000
00100000
,  // measure 26
00000000
01000000
10000000
00100000
00010000
00100000
10000000
00000000
,  // measure 27
00010000
00100000
01000000
00000000
00010000
00001000
00000000
00000100
,  // measure 28
00000000
00000001
00000000
00000010
00000001
00001000
00000100
00000000
,  // measure 29
00000010
00000001
00001000
00000000
00000100
00010000
00000000
00001000
,  // measure 30
00000000
00100000
00010000
01000000
00001000
00010000
00000100
00001000
,  // measure 31
00000020
00000000
00000000
00000000
00001030
00000001
00000100
00000000
,  // measure 32
00000001
00000000
00000010
00000100
00000000
00010000
00001000
00000000
,  // measure 33
00100000
00000000
00011000
00000000
00010100
00000000
00001000
00100000
,  // measure 34
00020000
00000000
00000000
02030000
00000000
00000000
03001000
00000000
,  // measure 35
00010000
00000100
00001000
00000000
00000010
00010000
00001000
00000000
,  // measure 36
00100000
00010000
01000000
00001000
00010000
01000000
10000000
00000000
,  // measure 37
00200000
00000000
00000000
00000000
00000000
00300000
01000000
00001000
,  // measure 38
00020000
00000000
00030100
00001100
,  // measure 39
00000020
00000000
00000000
00000000
00000130
00000001
00000010
00000000
,  // measure 40
00000100
00001000
00000000
00000010
00000000
00010000
00001000
00000000
,  // measure 41
00200000
00000000
00000000
00000000
00310000
01000000
00001000
00000000
,  // measure 42
00002000
00000000
00000000
00023000
00000000
00000000
00030100
00000000
,  // measure 43
00001000
01000000
00010000
00000000
00100000
00010000
01000000
00000000
,  // measure 44
00001000
00010000
00000100
00000000
00011000
00000000
00011000
00000000
,  // measure 45
00100000
00010000
10000000
00000000
00010000
00100000
00010000
00000000
,  // measure 46
01010000
01001000
00022000
00033000
,  // measure 47
00100000
00011000
00000100
00011000
,  // measure 48
00001000
00000100
00010000
00000010
00001000
00000100
00010000
00000000
,  // measure 49
00000010
00011000
01000000
00011000
,  // measure 50
00001000
01000000
00010000
00100000
00002000
00000000
00000000
00000000
,  // measure 51
00013000
01001000
00001000
00010100
,  // measure 52
00010000
00001000
00100000
00010000
01000000
00001000
00010000
00000000
,  // measure 53
00001000
00010010
00010000
00101000
,  // measure 54
00010000
00000100
00001000
00000010
00010000
00000000
00001000
00000000
,  // measure 55
00100000
00010000
01000000
00100000
00000000
10000000
00000000
00010000
,  // measure 56
00000000
00100000
01000000
10000000
00010000
00100000
00001000
00010000
,  // measure 57
00000100
00001000
00000010
00000100
00000000
00000001
00000000
00001000
,  // measure 58
00000000
00000100
00000010
00000001
00000200
00000000
00000000
00000000
,  // measure 59
00000301
00000010
00000100
00001000
00000000
00000001
00000000
00000100
,  // measure 60
00000000
00000010
00001000
00000100
00010000
00001000
00100000
00010000
,  // measure 61
01000000
00100000
10000000
01000000
00000000
00100000
00000000
00010000
,  // measure 62
00000000
01000000
00001000
00010000
00002000
00000000
00000000
00000000
,  // measure 63
00103000
00200000
00000000
00001000
00302000
00000000
01000000
02003000
,  // measure 64
00000000
00010000
03020000
00000000
10030000
00000000
10010000
00000000
,  // measure 65
01000000
02000000
00000000
00010000
03020000
00000000
00100000
00230000
,  // measure 66
00000000
00001000
00301000
00000000
00010000
00000200
00000000
00000000
,  // measure 67
00001300
00002000
00000000
00000010
00003020
00000000
00000100
00000230
,  // measure 68
00000000
00000001
00000302
00000000
00001003
00000000
00001001
00000000
,  // measure 69
00000010
00000020
00000000
00000100
00000230
00000000
00010000
00020300
,  // measure 70
00000000
00001000
00031000
00000000
00010000
00001000
00200000
00000000
,  // measure 71
00300000
00000000
00010000
01000000
,  // measure 72
00100000
10000000
01000000
00100000
00000000
00010000
01000000
00001000
,  // measure 73
00010000
00000100
00001000
00000010
00000100
00000001
00001000
00000100
,  // measure 74
00000010
00000001
00000010
00000200
00000000
00000000
00000300
00000000
,  // measure 75
00010000
00001000
00100000
00010000
01000000
00010000
00100000
00001000
,  // measure 76
00010000
00000100
00001000
00000010
00000100
00000001
00001000
00000100
,  // measure 77
00010000
00001000
00100000
00010000
01000000
00010000
10000000
00100000
,  // measure 78
01000000
00010000
00100000
00001000
00010000
00000100
00010000
00000000
,  // measure 79
00001000
00011000
00000000
01000000
01010000
00000000
00100000
10010000
,  // measure 80
00000000
01000000
01010000
00000000
00100000
00110000
00000000
02020000
,  // measure 81
00000000
00000000
03030000
00000000
;
