#TITLE:Knock On Wood;
#SUBTITLE:;
#ARTIST:Safri Duo;
#TITLETRANSLIT:;
#SUBTITLETRANSLIT:;
#ARTISTTRANSLIT:;
#GENRE:;
#CREDIT:;
#MENUCOLOR:;
#METERTYPE:DDR;
#BANNER:Knock on Wood.png;
#BACKGROUND:Knock on Wood-bg.png;
#LYRICSPATH:Knock On Wood.lrc;
#CDTITLE:ddrencorecdtitle.png;
#MUSIC:Knock On Wood.mp3;
#OFFSET:-0.016;
#SAMPLESTART:51.543;
#SAMPLELENGTH:17.747;
#SELECTABLE:YES;
#LISTSORT:;
#BPMS:0.000=141.992;
#STOPS:48.000=1.268
,117.000=1.268
;
#BGCHANGES:;
#ATTACKS:;

//---------------dance-single - ----------------
#NOTES:
     dance-single:
     :
     Easy:
     4:
     0.243,0.255,0.065,0.083,0.009:
0000
0000
0000
0000
,
0000
0000
0000
0000
,
0000
0000
0000
0000
,
0000
0000
0000
0000
,
1000
0001
0000
1000
,
0100
1000
0000
0001
,
0100
0001
0000
1000
,
0010
0000
0100
0000
,
0001
1000
0000
0001
,
0100
0001
0000
1000
,
0100
1000
0000
0010
,
0100
0000
0010
0000
,
1001
1000
0000
1000
,
0000
0001
0001
0100
,
0000
0001
1000
0001
,
1000
0100
0000
1000
,
0001
1000
0000
0001
,
0000
0010
0000
0001
,
0000
0100
0100
0010
,
0000
1000
0001
1000
,
0001
0100
0000
0010
,
0000
1000
0100
1000
,
0100
1000
0000
0001
,
0000
0010
0001
0010
,
0001
0000
0000
0010
0000
0000
0000
0000
0110
0000
0000
0000
,
0000
0000
0000
0000
0000
0000
0000
0000
1001
0000
0000
0000
,
0000
0100
0100
0010
,
0010
1000
0001
1000
,
0001
0010
0000
0100
,
0000
1001
0202
0000
,
0000
0303
0001
1000
,
0001
1000
0100
0000
,
0010
0000
0001
1000
,
0001
1000
2200
0000
,
0000
3300
1000
0001
,
1000
0001
0100
0000
,
0010
0000
1000
0001
,
1000
0001
0010
0100
,
1000
0000
0000
0010
,
0100
0000
0000
0001
,
1000
0000
0000
0001
,
0010
0100
1000
0010
,
0100
0000
0000
0001
,
1000
0000
0000
0010
,
0100
0000
0000
0001
,
0010
0100
1000
0001
,
1000
0001
0020
0000
,
0100
0130
1000
0100
,
1000
0100
0020
0000
,
0001
0031
0010
0100
,
0010
0100
2000
0000
,
0001
3001
0100
0010
,
0100
0010
1000
0001
,
1000
0001
0100
0001
,
0100
0001
0010
0100
,
1000
0001
1000
0100
,
1000
0100
1000
0001
,
0100
0010
1000
0001
,
1000
0010
0100
0001
,
1000
0001
2002
0000
,
0000
0000
0000
0000
,
0000
3003
0000
0000
;

//---------------dance-double - ----------------
#NOTES:
     dance-double:
     :
     Easy:
     3:
     0.227,0.253,0.046,0.046,0.000:
00000000
00000000
00000000
00000000
,
00000000
00000000
00000000
00000000
,
00000000
00000000
00000000
00000000
,
00000000
00000000
00000000
00000000
,
00100000
00010000
00000000
01000000
,
00001000
00010000
00000000
00000100
,
00001000
00000001
00000000
00000100
,
00000010
00000000
00001000
00000000
,
00000100
00001000
00000000
00000010
,
00010000
00001000
00000000
00100000
,
00010000
10000000
00000000
00100000
,
01000000
00000000
00010000
00000000
,
00100000
01000000
00000000
10000000
,
00000000
00100000
01000000
00010000
,
00000000
00100000
00001000
00100000
,
00001000
00010000
00000000
00000100
,
00010000
00000100
00000000
00001000
,
00000000
00000010
00001000
00000010
,
00000000
00000100
00000001
00000100
,
00000001
00001000
00000000
00000100
,
00010000
00001000
00000000
00100000
,
00000000
00010000
00100000
00010000
,
00000000
01000000
00100000
01000000
,
00100000
10000000
00000000
01000000
,
10000000
00010000
00000000
00100000
,
00000000
00001000
00010000
00001000
,
00000000
00010000
00000100
00010000
,
00000100
00001000
00000000
00000010
,
00000100
00000001
00000000
00001000
,
00000000
00011000
00220000
00000000
,
00000000
00330000
00100000
00001000
,
00010000
00000100
00001000
00000000
,
00001000
00000000
00000100
00001000
,
00000001
00000000
00000202
00000000
,
00000000
00000303
00000100
00000001
,
00001000
00000010
00010000
00000000
,
00010000
00000000
00001000
00010000
,
00000100
00000000
00010000
00000000
,
00000100
00000000
00001000
00000010
,
00000100
00000000
00000001
00000000
,
00000010
00000000
00000100
00001000
,
00010000
00000000
00100000
00000000
,
01000000
00000000
10000000
01000000
,
10000000
00000000
00100000
00000000
,
01000000
00000000
00010000
00100000
,
00010000
00000000
10010000
00010000
,
10000000
00000000
01000000
00100000
,
00010000
00010000
00100000
00001000
,
00010000
00000000
00001000
01000000
,
00010000
00010000
10000000
01000000
,
00100000
00000000
00010000
10000000
,
00010000
00010000
01000000
00001000
,
00010000
00000000
00000100
00010000
,
00000100
00000100
00001001
00001000
,
00000001
00000100
00000001
00000000
,
00001000
00000000
00000100
00010000
,
00001000
01000000
00010000
00000000
,
10000000
00100000
01000000
00001000
,
00010000
00000010
00001000
00000000
,
00000001
00000000
00002000
00000000
,
00000000
00000000
00000000
00000000
00000000
00000000
00000000
00000000
00000000
00000000
00000000
00003000
;

//---------------dance-single - ----------------
#NOTES:
     dance-single:
     :
     Hard:
     9:
     0.530,0.563,0.443,0.055,0.734: // measure 1
0000
0000
0000
0000
,  // measure 2
0000
0000
0000
0000
,  // measure 3
0000
0000
0000
0000
,  // measure 4
0000
0000
0000
0000
,  // measure 5
1010
0000
0000
0010
0000
0101
0000
0000
0100
0010
0000
1000
,  // measure 6
0100
0000
0000
0011
0000
1100
0000
0100
1000
0001
0010
0100
,  // measure 7
1000
0000
0000
1100
0000
0101
0000
0000
0001
0100
0000
1000
,  // measure 8
0100
0000
0000
0110
0000
1001
0000
0010
1000
0001
0100
0010
,  // measure 9
1000
0000
0001
0010
0100
0010
0100
0000
1000
0010
0100
0010
,  // measure 10
0100
0000
0001
0010
0100
0010
0001
0000
1000
0000
0001
0100
,  // measure 11
0001
0000
1000
0010
0100
0010
1000
0000
0001
0100
0010
0100
,  // measure 12
0001
0000
1000
0100
0010
0100
0000
1000
0000
0001
0000
0000
,  // measure 13
1001
0000
0000
1010
0000
0000
0101
0000
0000
0001
0000
0010
,  // measure 14
0001
0000
0010
0100
0000
0000
1100
0000
0000
1000
0000
0100
,  // measure 15
0010
0100
0010
0100
0000
0000
1000
0000
0001
0100
0000
0000
,  // measure 16
0101
0000
0000
0001
0000
0000
1000
0000
0001
0010
0000
0001
,  // measure 17
0010
0001
0010
0001
0000
0000
0101
0000
0100
0010
0000
1000
,  // measure 18
0100
0000
0000
1100
0000
0000
1000
0000
0001
0100
0000
0001
,  // measure 19
1000
0000
0000
0011
0000
0000
0010
0000
0010
0100
0000
0100
,  // measure 20
1000
0000
0000
1001
0000
0000
0100
0000
0000
0000
0001
1000
,  // measure 21
0001
1000
0001
0011
0000
0000
1100
0000
0000
1000
0000
0010
,  // measure 22
1000
0000
0010
0100
0000
0000
0101
0000
0000
0001
0000
0100
,  // measure 23
0010
0100
0010
0100
0000
0000
0001
0000
1000
0100
0000
0000
,  // measure 24
1100
0000
0000
1000
0000
0000
0001
0000
1000
0010
0000
1000
,  // measure 25
0010
1000
0010
1000
0000
0000
1100
0000
0100
0010
0000
0001
,  // measure 26
0100
0000
0000
0101
0000
0000
0001
0000
1000
0100
0000
1000
,  // measure 27
0001
0000
0000
1010
0000
0000
0010
0000
0010
0100
0000
0100
,  // measure 28
0001
0000
0000
1001
0000
0000
0100
0000
0000
0000
1000
0001
,  // measure 29
1000
0001
1000
0001
0000
0000
0011
0000
0000
0010
0000
0100
,  // measure 30
1000
0100
1000
0001
0000
0000
2001
0000
0000
0010
0000
0000
,  // measure 31
0100
0000
0000
3001
0000
0100
0010
0000
1000
0100
0000
0000
,  // measure 32
0100
0000
0000
1100
0000
0100
0020
0000
0000
1000
0000
0000
,  // measure 33
0100
0000
0000
0130
0000
1000
0100
0000
0001
0100
0000
1000
,  // measure 34
0100
0000
0001
0100
0000
0020
0100
0000
0000
1000
0000
0000
,  // measure 35
0100
0000
0000
0001
0030
0010
0100
0000
0200
1000
0000
0000
,  // measure 36
0010
0000
0000
0001
0000
0000
2000
0000
0300
0100
0000
0000
,  // measure 37
0100
0000
0000
3100
0000
0010
0100
0000
0001
0100
0000
0010
,  // measure 38
0100
0000
1000
0100
0000
0010
0100
0000
0001
0100
0000
0000
,  // measure 39
0100
0000
0000
0000
0000
0000
0000
0000
0100
1000
0000
0000
,  // measure 40
1000
0000
0000
0000
0000
0000
0000
0000
1000
0010
0000
0000
,  // measure 41
0010
0000
0000
0000
0000
0000
0000
0000
0010
0001
0000
0000
,  // measure 42
0001
1000
0001
1000
0001
1000
0001
0000
0010
0100
0000
0000
,  // measure 43
0001
0000
0000
0000
0000
0000
0000
0000
0010
1000
0000
0000
,  // measure 44
0100
0000
0000
0000
0000
0000
0000
0000
0001
0010
0000
0000
,  // measure 45
1000
0000
0000
0000
0000
0000
0000
0000
0100
0001
0000
0000
,  // measure 46
1000
0010
0100
0001
1000
0010
0100
0000
0000
1100
0000
0000
,  // measure 47
1100
0000
1100
0000
0000
1001
0000
0000
0000
0000
0000
0101
,  // measure 48
0000
0000
0001
1000
0000
1000
0001
0000
0000
1001
0000
0000
,  // measure 49
1001
0000
1001
0000
0000
1010
0000
0000
0000
0000
0000
0110
,  // measure 50
0000
0000
0010
0100
0000
0100
0001
0000
0000
0101
0000
0000
,  // measure 51
0101
0000
0101
0000
0000
1001
0000
0000
0000
0000
0000
1001
,  // measure 52
0000
0000
0010
0001
0000
0001
1000
0000
0000
1001
0000
0000
,  // measure 53
1001
0000
1001
0000
0000
0011
0000
0000
0000
0000
0000
0110
,  // measure 54
0000
0000
0100
1000
0000
1000
0001
0000
0001
0100
0000
0100
,  // measure 55
0010
0000
0010
1000
0000
1000
0100
0000
0100
0001
0000
0001
,  // measure 56
0100
0000
0100
1000
0000
1000
0010
0000
0010
0100
0000
0100
,  // measure 57
1000
0000
1000
0100
0000
0100
0001
0000
0001
0010
0000
0010
,  // measure 58
0100
0000
0100
1000
0000
1000
0010
0000
0010
0100
0000
0100
,  // measure 59
1000
0000
1000
0100
0000
0100
0001
0000
0001
1000
0000
1000
,  // measure 60
0010
0000
0010
0001
0000
0001
0010
0000
0000
0010
0000
0000
,  // measure 61
0100
0000
0200
0000
0000
0001
0000
0000
0000
0000
0000
0310
;

//---------------dance-single - ----------------
#NOTES:
     dance-single:
     :
     Medium:
     7:
     0.367,0.368,0.379,0.129,0.351:
0000
0000
0000
0000
,
0000
0000
0000
0000
,
0000
0000
0000
0000
,
0000
0000
0000
0000
,
0010
1000
0100
0010
,
0001
0000
0000
0100
0000
0000
0010
0000
1000
0010
0000
0000
,
0010
1000
0001
0100
,
1000
0000
0000
0100
0000
0000
0001
0000
0100
0001
0000
0000
,
1000
0000
0100
1000
0000
0000
0001
0000
0100
0001
0000
0000
,
1000
0000
0010
1000
0000
0000
0001
0000
0010
0000
0001
0000
,
0010
0000
0100
0010
0000
0000
0100
0000
0010
0100
0000
0000
,
1000
0000
0001
1000
0000
0001
0000
0010
0000
0100
0000
0000
,
1000
0000
0000
0010
0000
0000
1001
0000
0000
0000
0000
0010
,
0100
0000
0100
0001
0000
0000
0101
0000
0000
0000
0000
0010
,
0100
0000
0000
1000
0000
0000
1100
0000
0000
0000
0000
1000
,
0010
0000
0010
0100
0000
0000
0101
0000
0000
0000
0000
0001
,
1000
0000
0001
1000
0000
0000
1001
0000
0000
0000
0000
1000
,
0010
0000
1000
0100
0000
0000
0011
0000
0000
0000
0000
0010
,
0100
0000
0000
1000
0000
0000
1001
0000
0000
0000
0000
1000
,
0010
0000
0100
0001
0000
0000
0101
0000
0000
0000
0000
0001
,
1000
0000
0000
0100
0000
1000
0100
0000
0000
0000
0000
0100
,
0010
0000
0010
0001
0000
0010
0001
0000
0000
0000
0000
0010
,
0100
0000
0100
1000
0000
0100
1000
0000
0000
0000
0000
1000
,
0010
0000
0010
0100
0000
0001
0100
0000
0000
0001
0000
0000
,
1000
0000
0000
0100
0000
0010
0100
0000
0000
0000
0000
1000
,
0001
0000
1000
0010
0000
1000
0001
0000
0000
0000
0000
0100
,
0010
0000
0100
0001
0000
0100
0010
0000
0000
0000
0000
1000
,
0001
0000
0010
0100
0000
0000
1000
0000
0000
0010
0000
0000
,
1000
0000
0000
0100
0000
0000
0010
0000
0000
0001
0000
0100
,
0001
0100
0202
0000
,
0000
0000
0000
0303
0000
0101
0000
0000
2002
0000
0000
0000
,
0000
0000
0000
0000
3003
0000
2200
0000
0000
0000
0000
0000
,
0000
0000
0000
3300
0000
1001
0000
0000
0011
0000
0000
1001
,
0000
0000
1010
0000
0000
0220
0000
0000
0000
0000
0000
0000
,
0000
0000
0000
0330
0000
0101
0000
0000
2002
0000
0000
0000
,
0000
0000
0000
0000
0000
3003
0022
0000
0000
0000
0000
0000
,
0000
0000
0000
0033
0000
0110
0000
0000
1100
0000
0000
0101
,
0000
0000
0110
0000
0000
0000
1001
0000
0000
0010
0000
0000
,
1001
0000
0000
0010
,
0101
0000
0000
0010
,
1100
0000
0000
1000
,
0001
0000
1000
0001
0000
0000
1000
0000
0000
0100
0000
0000
,
0011
0000
0000
0010
,
1100
0000
0000
0100
,
0101
0000
0000
0010
,
1000
0000
0001
1000
0000
0000
0001
0000
0000
0010
0000
0000
,
0100
0000
1000
0000
0000
0001
0000
0000
0000
0000
0000
1000
,
0000
0000
0010
0100
0000
0000
0001
0000
0000
1000
0000
0000
,
0010
0000
0100
0000
0000
0001
0000
0000
0000
0000
0000
1000
,
0000
0000
0100
0010
0000
0000
0001
0000
0000
1000
0000
0000
,
0010
0000
0100
0000
0000
0001
0000
0000
0000
0000
0000
0100
,
0000
0000
0010
1000
0000
0000
0100
0000
0000
0010
0000
0000
,
0001
0000
1000
0000
0000
0001
0000
0000
0000
0000
0000
0100
,
0000
0000
0010
1000
0000
0000
0001
0000
0000
1100
0000
0000
,
0000
1100
0001
1100
,
1000
0001
1000
0101
,
0000
0101
1000
0101
,
0001
1000
0001
1010
,
0000
1010
0001
1010
,
1000
0001
2002
0000
,
0000
0000
0000
0000
,
0000
3003
0000
0000
;

//---------------dance-single - ----------------
#NOTES:
     dance-single:
     :
     Beginner:
     1:
     0.119,0.137,0.018,0.018,0.000:
0000
0000
0000
0000
,
0000
0000
0000
0000
,
0000
0000
0000
0000
,
0000
0000
0000
0000
,
0010
0000
0000
0000
,
1000
0000
0001
0000
,
1000
0000
0000
0000
,
0100
0000
0010
0000
,
0100
0000
0000
0000
,
1000
0000
0000
0000
,
0001
0000
0000
0000
,
0010
0000
0000
0000
,
0000
0000
0010
0000
,
0100
0000
0010
0000
,
0000
0000
0001
0000
,
1000
0000
0001
0000
,
0000
0000
0100
0000
,
0010
0000
0100
0000
,
0000
0000
0010
0000
,
1000
0000
0010
0000
,
0000
0000
1000
0000
,
1000
0000
0001
0000
,
0001
0000
1000
0000
,
1000
0000
0001
0000
,
0001
0000
0100
0000
,
0010
0000
1000
0000
,
0001
0000
0010
0000
,
0100
0000
1000
0000
,
0000
1001
0000
0000
,
1000
0000
1001
0000
,
0000
0000
0010
0020
,
0000
0030
0001
0000
,
0000
0000
1000
1000
,
1000
1000
1000
0000
,
0000
0000
0100
0200
,
0000
0300
0010
0000
,
0000
0000
0001
0001
,
0001
0001
0001
0000
,
0000
0000
0000
1000
,
0000
0000
0000
0010
,
0000
0000
0000
0100
,
0000
0000
0000
0001
,
0000
0000
0000
1000
,
0000
0000
0000
0100
,
0000
0000
0000
0010
,
0010
0000
0010
0000
,
0010
0000
0010
0000
,
0000
0000
0100
0000
,
0100
0000
0100
0000
,
0000
0000
0010
0000
,
0010
0000
0010
0000
,
0000
0000
0100
0000
,
0100
0000
0100
0000
,
0000
0000
1000
0000
,
0001
0000
1000
0000
,
0000
0000
0010
0000
,
0100
0000
0010
0000
,
0000
0000
0100
0000
,
0001
0000
0100
0000
,
0000
0000
0001
0000
;

//---------------dance-double - ----------------
#NOTES:
     dance-double:
     :
     Hard:
     9:
     0.536,0.619,0.517,0.065,0.762:
00000000
00000000
00000000
00000000
,
00000000
00000000
00000000
00000000
,
00000000
00000000
00000000
00000000
,
00000000
00000000
00000000
00000000
,
01100000
00000000
00000000
00100000
00000000
00011000
00000000
00000000
00000010
00000100
00000000
00000001
,
00001000
00000000
00000000
00001001
00000000
00001100
00000000
00000100
00010000
00001000
01000000
00010000
,
10000000
00000000
00000000
00100000
00000000
11000000
00000000
00000000
00010000
00100000
00000000
00001000
,
00010000
00000000
00000000
00001100
00000000
00001001
00000000
00000010
00000100
00010000
00100000
10000000
,
00010000
00000000
10000000
01000000
00010000
01000000
10000000
00000000
00010000
00001000
00000100
00001000
,
00010000
00000000
00100000
01000000
00001000
00010000
00001000
00000000
00001100
00000000
00000101
00000000
,
00001001
00000000
00000001
00000010
00001000
00000001
00000100
00000000
00001000
00010000
00100000
00010000
,
00001000
00000000
00000100
00000010
00000100
00010000
00001000
01000000
00000000
00100000
00000000
00000000
,
10010000
00000000
00000000
11000000
00000000
00000000
01010000
00000000
00000000
01000000
00000000
00010000
,
00100000
00000000
00001000
00010000
00000000
00000000
00011000
00000000
00000000
00000100
00000000
00001000
,
00000100
00000000
00000000
00000011
00000000
00000000
00001100
00000000
00000000
00000100
00000000
00010000
,
00001000
00000000
01000000
00010000
00000000
00000000
10010000
00000000
00000000
00100000
00000000
10000000
,
00010000
00000000
10000000
00100000
00000000
00000000
01100000
00000000
00000000
01000000
00000000
00010000
,
00100000
00000000
00001000
00010000
00000000
00000000
00011000
00000000
00000000
00100000
00000000
00001000
,
00010000
00000000
00000010
00001000
00000000
00000000
00001100
00000000
00000000
00011000
00000000
00000000
,
01000000
00000000
01000000
00010000
00000000
00000000
10010000
00000000
00000000
10000000
00000000
00100000
,
01000000
00000000
00000000
00010000
00000000
00010000
00100000
00000000
00100000
01000000
00000000
01000000
,
10000000
00000000
10000000
00100000
00000000
00100000
01000000
00000000
01000000
00001000
00000000
00001000
,
00010000
00000000
00010000
00000100
00000000
00000100
00000010
00000000
00000010
00000001
00000000
00000001
,
00001000
00000000
00001000
00000100
00000000
00000100
00010000
00000000
00010000
00001000
00000000
00001000
,
01000000
00000000
01000000
00010000
00000000
00010000
00001000
00000000
00001000
00100000
00000000
00100000
,
01000000
00000000
01000000
00010000
00000000
00010000
00100000
00000000
00100000
01000000
00000000
01000000
,
10000000
00000000
10000000
00010000
00000000
00010000
00100000
00000000
00100000
01000000
00000000
01000000
,
10000000
00000000
10000000
00010000
00000000
00010000
00100000
00000000
00100000
00001000
00000000
00001000
,
00010000
00000000
00010000
00000010
00000000
00000010
00000100
00000000
00000100
00000001
00000000
00000001
,
00000010
00000000
00000100
00001000
00000000
00000000
00002100
00000000
00000000
00010000
00000000
00000000
,
00000100
00000000
00000000
00013000
00000000
00100000
00000000
00000000
02000000
10000000
00000000
00000000
,
00100000
00000000
00000000
10000000
03000000
00000000
10200000
00000000
00000000
01000000
00000000
00000000
,
00010000
00000000
00000000
01300000
00000000
01100000
00000000
00000000
00110000
00000000
00000000
00011000
,
00000000
00000000
00110000
00000000
00000000
00001200
00000000
00000000
00000000
00000010
00000000
00000000
,
00001000
00000000
00000000
00000310
00000000
00000110
00000000
00000000
00002100
00000000
00000000
00000000
,
00010000
00000100
00013000
00021000
,
00100000
00000000
00000000
00001000
00000000
00000000
01030000
00000000
01010000
00000000
00000000
10010000
,
00000000
00000000
11000000
00000000
00000000
01000000
00100000
00000000
00100000
00010000
00000000
00010000
,
10000000
00000000
00000000
00000000
00000000
00000000
00000000
00000000
00010000
00100000
00000000
00100000
,
00001000
00000000
00000000
00000000
00000000
00000000
00000000
00000000
00000010
00000001
00000000
00001000
,
00000010
00000000
00000000
00000000
00000000
00000000
00000000
00000000
00001000
00010000
00000000
00100000
,
10000000
00100000
01000000
00010000
00000000
10000000
00010000
00000000
00010000
01000000
00000000
01000000
,
00001000
00000000
00000000
00000000
00000000
00000000
00000000
00000000
00000100
00001000
00000000
00010000
,
00100000
00000000
00000000
00000000
00000000
00000000
00000000
00000000
01000000
00010000
00000000
00001000
,
00000100
00000000
00000000
00000000
00000000
00000000
00000000
00000000
00000010
00000100
00000000
00000101
,
00000000
00000000
00000001
00000010
00000000
00000010
00000100
00000000
00000000
00001100
00000000
00000000
,
00011000
00000000
00011000
00000000
00000000
00110000
00000000
00000000
00000000
00000000
00000000
01100000
,
00000000
00000000
10000000
00100000
00000000
00100000
01000000
00000000
00000000
01100000
00000000
00000000
,
01010000
00000000
01010000
00000000
00000000
00011000
00000000
00000000
00000000
00000000
00000000
00000011
,
00000000
00000000
00000010
00000100
00000000
00000100
00010000
00000000
00000000
00011000
00000000
00000000
,
01010000
00000000
01010000
00000000
00000000
10010000
00000000
00000000
00000000
00000000
00000000
00001100
,
00000000
00000000
00000100
00001000
00000000
00001000
00000010
00000000
00000000
00000110
00000000
00000000
,
00001001
00000000
00000110
00000000
00000000
00001010
00000000
00000000
00000000
00000000
00000000
00011000
,
00000000
00000000
00001000
00100000
00000000
01000000
10000000
00000000
00100000
01000000
00000000
00010000
,
00100000
00000000
00001000
00010000
00000000
00000100
00010000
00000000
00000100
00000010
00000000
00000001
,
00000100
00000000
00000010
00000001
00000000
00000010
00000100
00000000
00000001
00001000
00000000
00000100
,
00001000
00000000
00000010
00000100
00000000
00001000
00000100
00000000
00000010
00001000
00000000
00000100
,
00010000
00000000
00001000
00100000
00010000
00100000
00010000
00000000
01000000
00100000
00000000
10000000
,
00010000
00000000
00100000
01000000
00000000
10000000
00010000
00000000
00100000
00001000
00000000
00010000
,
00000100
00000000
00001000
00010000
00000000
00100000
02000000
00000000
00000000
00000000
00000000
00000000
,
00000000
00000000
00000000
00000000
00000000
00000000
00000000
00000000
00000000
00000000
00000000
03000000
;

//---------------dance-double - ----------------
#NOTES:
     dance-double:
     :
     Medium:
     7:
     0.377,0.450,0.397,0.129,0.203:
00000000
00000000
00000000
00000000
,
00000000
00000000
00000000
00000000
,
00000000
00000000
00000000
00000000
,
00000000
00000000
00000000
00000000
,
00100000
10010000
01000000
10010000
,
00100000
00011000
00000100
00001000
,
00000010
00000110
00000100
00000101
,
00001000
00001100
00000100
00010000
,
00001000
00011000
01000000
01100000
,
00100000
00000000
00000000
10010000
00000000
00000000
10000000
00000000
00010000
00000000
00100000
00000000
,
00001000
00011000
00000100
00001100
,
00010000
00000000
00000000
00011000
00000000
00100000
00000000
00010000
00000000
01000000
00000000
00000000
,
01010000
00000000
00000000
00020000
00000000
00000000
00130000
00000000
00000000
00010000
00000000
01000000
,
00010000
00000000
00000000
00100000
00000000
00001000
00100000
00000000
00000000
00001000
00000000
00000000
,
00010000
00000000
00000000
00000010
00000000
00001000
00000010
00000000
00000000
00000100
00000000
00000000
,
00000100
00000000
00000000
00000001
00000000
00000100
00000001
00000000
00000000
00001000
00000000
00000000
,
00001000
00000100
00010000
00000100
,
00010000
00000000
00000000
00001000
00000000
00001000
00010000
00000000
00000000
00001000
00000000
00000000
,
00100000
00010000
01000000
10000000
,
01000000
00010000
10000000
00010000
,
10000000
00000000
00000000
00100000
00000000
01000000
00100000
00000000
00000000
01000000
00000000
00010000
,
01000000
00000000
00000000
00010000
00000000
00100000
00010000
00000000
00000000
00100000
00000000
00001000
,
00010000
00000000
00000000
00001000
00000000
00010000
00000100
00000000
00000000
00001000
00000000
00000010
,
00000100
00000000
00000000
00000001
00000000
00000100
00000001
00000000
00000000
00001000
00000000
00000100
,
00001000
00000000
00000000
00000010
00000000
00000010
00001000
00000000
00001000
00000010
00000000
00000000
,
00001010
00000000
00000000
00001000
00000000
00001000
00000100
00000000
00000100
00001000
00000000
00000000
,
00001100
00000000
00000000
00000100
00000000
00000100
00010000
00000000
00010000
00001000
00000000
00000000
,
00011000
00000000
00000000
00001000
00000000
00001000
01000000
00000000
01000000
00010000
00000000
00000000
,
01010000
10010000
00100000
01000000
,
10010000
00100000
20020000
00000000
,
00000000
00000000
00000000
30030000
00000000
01100000
00000000
00000000
02020000
00000000
00000000
00000000
,
00000000
00000000
00000000
00000000
00000000
03030000
00220000
00000000
00000000
00000000
00000000
00000000
,
00000000
00000000
00000000
00330000
00000000
01100000
00000000
00000000
11000000
00000000
00000000
01010000
,
00000000
00000000
00011000
00000000
00000000
00002200
00000000
00000000
00000000
00000000
00000000
00000000
,
00000000
00000000
00000000
00003300
00000000
00000110
00000000
00000000
00002002
00000000
00000000
00000000
,
00000000
00000000
00000000
00000000
00000000
00003003
00000022
00000000
00000000
00000000
00000000
00000000
,
00000000
00000000
00000000
00000033
00000000
00000110
00000000
00000000
00001100
00000000
00000000
00011000
,
00000000
00000000
00001010
00000000
00000000
00000000
00011000
00000000
00000000
00100000
00000000
00000000
,
00010000
00000000
00011000
00000100
,
00001000
00000000
00011000
01000000
,
00010000
00000000
00011000
00000100
,
00001000
00000000
00011000
00100000
,
10000000
00000000
00011000
00000010
,
00000001
00000000
00011000
10000000
,
01000000
00000000
00011000
00000001
,
00000100
00000001
00001000
00001000
,
00000001
00000001
00000010
00001000
,
00000010
00000001
00001000
00001000
,
00000001
00000001
00000100
00001000
,
00000100
00000001
00001000
00001000
,
00000100
00000100
00010000
00001000
,
00010000
00001000
01000000
01000000
,
00010000
00010000
10000000
00100000
,
00010000
00000000
00000000
00100000
00000000
00000000
10000000
00000000
01000000
10000000
00000000
00000000
,
00010000
00000000
01000000
00010000
00000000
00000000
00100000
00000000
00000000
00001000
00000000
00000000
,
00010000
00000000
00000000
00000010
00000000
00000000
00001000
00000000
00000100
00001000
00000000
00000000
,
00000001
00000000
00000100
00000001
00000000
00000000
00000010
00000000
00000000
00001000
00000000
00000000
,
00000010
00000000
00000000
00000001
00000000
00000000
00001000
00000000
00000100
00001000
00000000
00000000
,
00000010
00000000
00001000
00000010
00000000
00000000
00001000
00000000
00000000
00000100
00000000
00000000
,
00010000
00001000
02000000
00000000
,
00000000
00000000
00000000
00000000
00000000
00000000
00000000
00000000
00000000
00000000
00000000
03000000
;
