#TITLE:Kiss Me Quick;
#SUBTITLE:;
#ARTIST:Fast Food Rockers;
#TITLETRANSLIT:;
#SUBTITLETRANSLIT:;
#ARTISTTRANSLIT:;
#GENRE:;
#CREDIT:;
#MENUCOLOR:;
#METERTYPE:DDR;
#BANNER:Kiss Me Quick-bn.png;
#BACKGROUND:Kiss Me Quick-bg.png;
#LYRICSPATH:Kiss Me Quick.lrc;
#CDTITLE:ddrencorecdtitle.png;
#MUSIC:Kiss Me Quick.mp3;
#OFFSET:-1.055;
#SAMPLESTART:50.255;
#SAMPLELENGTH:12.860;
#SELECTABLE:YES;
#LISTSORT:;
#BPMS:0.000=117.001,220.000=78.001,223.000=52.000,225.000=34.667,225.583=17.335;
#STOPS:;
#BGCHANGES:;
#ATTACKS:;

//---------------dance-single - ----------------
#NOTES:
     dance-single:
     :
     Beginner:
     1:
     0.098,0.130,0.039,0.039,0.000:
0000
0000
0000
0000
,
0000
0000
0000
0000
,
0000
0000
0000
0000
,
0000
0000
0000
0000
,
0100
0000
0100
0000
,
0010
0000
0010
0000
,
1000
0000
1000
0000
,
0001
0000
0100
0000
,
0020
0000
0000
0000
,
0030
0000
0000
0000
,
1000
0000
0001
0000
,
0100
0000
0001
0000
,
1001
0000
0000
0000
,
1000
0000
0100
0000
,
1000
0000
0001
0000
,
0100
0000
0010
0000
,
1000
0000
0010
0000
,
0100
0000
0001
0000
,
1000
0000
0100
0000
,
0010
0000
0100
0000
,
1000
1000
1000
1000
,
1000
0000
0000
0000
,
0001
0000
0000
0000
,
0100
0000
0000
0000
,
1001
0000
0000
0000
,
0001
0000
0000
0000
,
1000
0000
0001
0000
,
1000
0000
0000
0000
,
0001
0000
0100
0000
,
0020
0000
0000
0000
,
0030
0000
0000
0000
,
1000
0000
0001
0000
,
0100
0000
0001
0000
,
1001
0000
0000
0000
,
1000
0000
0000
0000
,
0100
0000
0000
0000
,
1000
0000
0001
0000
,
0100
0000
0010
0000
,
1000
0000
0000
0000
,
0001
0000
0000
0000
,
0010
0000
0001
0000
,
1000
0000
0100
0000
,
1000
0000
0000
0000
,
0001
0000
0000
0000
,
2000
0000
0000
0000
,
3002
0000
0000
0000
,
1003
0000
0000
0000
,
0001
0000
0100
0000
,
0001
0000
0000
0000
,
1000
0000
0010
0000
,
0200
0000
0000
0000
,
0300
0000
0000
0000
,
0010
0000
1000
0000
,
0100
0000
1000
0000
,
1001
0000
0000
0000
,
1001
0000
0000
0000
;

//---------------dance-single - ----------------
#NOTES:
     dance-single:
     :
     Easy:
     3:
     0.208,0.222,0.079,0.275,0.000:
0000
0000
0000
0000
,
0000
0000
0000
0000
,
0000
0000
0000
0000
,
0000
0000
0000
0000
,
0001
0000
0100
0000
,
0001
0000
1000
0000
,
0010
0000
1000
0000
,
0010
1000
0001
0000
,
2000
0000
3002
0000
,
0203
0001
0001
0301
,
2000
0000
3200
0000
,
0320
0000
0032
0000
,
2003
0001
3001
0000
,
1001
0000
1000
0000
,
1001
0000
0001
0000
,
1100
0000
1000
0000
,
0101
0000
0001
0000
,
0110
0000
1000
0000
,
0110
0000
0001
0000
,
1001
0000
0010
0000
,
1100
1000
0001
0100
,
0002
0000
1003
0100
,
2000
0000
3001
0100
,
0020
0000
0130
0001
,
1000
1000
0001
0001
,
1000
0001
0000
0001
,
0100
0010
1000
0001
,
0010
0100
0000
0100
,
0010
0001
1000
0010
,
0200
0000
0320
0000
,
0230
0001
0301
0100
,
0020
0000
2030
0000
,
3002
0000
0203
0000
,
0302
1000
1003
0000
,
1100
0000
1000
0000
,
0001
0000
0100
0000
,
0010
1000
0010
0100
,
0002
0000
1003
0100
,
1000
0000
0001
0000
,
0010
0000
0001
0000
,
1000
0100
1000
0010
,
0200
0000
0310
1000
,
0001
0000
1000
0000
,
0001
0000
1000
0100
,
0020
0000
0230
0000
,
0320
0000
0032
0000
,
1003
0010
0000
0010
,
0100
0010
1000
0001
,
0010
0100
0000
0100
,
0010
0001
1000
0010
,
0200
0000
0320
0000
,
0230
0001
0301
1000
,
0002
0000
2003
0000
,
3200
0000
0320
0000
,
0032
1000
1000
1003
,
2002
0000
0000
0000
,
0000
0000
0000
0000
0000
3003
0000
0000
;

//---------------dance-single - ----------------
#NOTES:
     dance-single:
     :
     Medium:
     5:
     0.261,0.311,0.118,0.251,0.000:
0000
0000
0000
0000
,
0000
0000
0000
0000
,
0000
0000
0000
0000
,
0000
0000
0000
0000
,
1000
0001
0100
0000
,
0001
1000
0100
0000
,
1000
0001
0010
0000
,
0001
1000
0001
0100
,
0020
0000
0230
0000
,
0320
1000
1030
0001
,
0200
0000
0302
0000
,
2003
0000
3020
0000
,
0230
0001
0301
0000
,
1001
1000
0010
0100
,
0001
1000
0100
0010
,
0001
1000
0010
0100
,
0001
0010
0001
0100
,
1001
0010
1000
0100
,
0010
0100
1000
0001
,
0100
0010
1000
0001
,
1100
1001
0101
1001
,
0001
0000
0100
0010
0100
0000
0001
0000
,
1000
0000
0100
0010
0100
0000
1000
0000
,
0001
0000
1000
0100
1000
0000
0001
0000
,
0101
1001
1010
1001
,
1000
0000
0100
0000
1000
0001
0000
0001
,
0100
0010
1000
0001
,
1000
0000
0100
0000
1000
0001
0000
0001
,
0010
0100
1000
0001
,
2000
0000
3002
0000
,
0203
0010
0310
0100
,
0002
0000
2003
0000
,
3200
0000
2300
0000
,
3002
0100
0103
0000
,
0101
0001
1000
0100
,
0010
0100
1000
0001
,
0200
0010
0310
0100
,
0001
0000
1000
0000
0100
1000
0100
1000
,
0001
1000
1000
0010
,
0100
0001
0001
1000
,
0200
0010
0310
0100
,
1100
0000
0000
1001
0000
0000
0101
0000
,
0001
0100
1000
0100
,
0001
1000
0100
0010
,
0002
0000
2003
0000
,
3020
0000
0230
0000
,
0310
0000
1000
0000
0001
0100
0000
0100
,
0001
0010
0100
1000
,
0001
0000
1000
0000
0100
0010
0000
0010
,
0100
1000
0001
0100
,
0020
0000
0230
0000
,
0302
1000
1003
0001
,
0200
0000
0320
0000
,
0230
0000
0302
0000
,
2003
0001
0100
3001
,
2002
0000
0000
0000
,
0000
0000
0000
0000
0000
3003
0000
0000
;

//---------------dance-single - ----------------
#NOTES:
     dance-single:
     :
     Hard:
     7:
     0.332,0.400,0.126,0.314,0.075:
0000
0000
0000
0000
,
0000
0000
0000
0000
,
0000
0000
0000
0000
,
0000
0000
0000
0000
,
1000
0000
0001
0000
0000
0100
0000
0000
0001
0000
0000
0000
1000
0000
0000
0000
,
0100
0000
0010
0000
0000
0001
0000
0000
1000
0000
0010
0000
0010
0000
0000
0000
,
0100
0000
0001
0000
0000
1000
0000
0000
0001
0000
0000
0000
0010
0000
0000
0000
,
0100
0010
0001
1000
0010
0000
0100
0000
,
0002
0000
2003
0000
,
3002
0100
1000
0013
,
2000
0100
3002
0010
,
2003
0010
3002
0100
,
2003
0001
3100
0000
,
0101
0000
0000
0000
0100
0000
0010
0000
1000
0000
0000
0001
0000
0000
0100
0000
,
0000
0000
0000
0000
0001
0000
1000
0000
0100
0000
0000
0010
0000
0000
0100
0000
,
0000
0000
0000
0000
0010
0000
0001
0000
1000
0000
0000
0010
0000
0000
0100
0000
,
0000
0000
0000
0000
0010
0000
1000
0000
0001
0000
0000
0100
0000
0000
0010
0000
,
1001
0000
0000
0000
0001
0000
0100
0000
0010
0000
0000
1000
0000
0000
0001
0000
,
0000
0000
0000
0000
0010
0000
0100
0000
1000
0000
0000
0100
0000
0000
0010
0000
,
0000
0000
0001
1000
0010
0000
0100
0000
,
0101
1001
0101
1100
,
1000
0000
0000
0001
0000
0000
0100
0000
0010
0000
0000
0000
1001
0000
0000
0000
,
0100
0000
0000
0001
0000
0000
1000
0000
0100
0000
0000
0000
0110
0000
0000
0000
,
0010
0000
0000
0001
0000
0000
1000
0000
0010
0000
0000
0000
1001
0000
0000
0000
,
0101
1001
1010
0011
,
0002
0000
1003
0000
0001
0010
0100
1000
,
0001
0000
0100
0000
1000
0100
0001
0000
,
2000
0000
3100
0000
1000
0100
0010
0001
,
1000
0100
0001
0100
,
2000
0000
3002
0000
,
0203
0001
0010
0301
,
2000
0100
3002
0010
,
2003
0100
3002
0100
,
2003
0000
0010
0000
3001
0100
0001
0100
,
0010
0000
0100
0000
0001
0000
1000
0100
,
0010
0000
0001
0000
1000
0000
0010
0100
,
0001
0000
0000
0001
0100
0000
0000
0100
0010
0000
0000
0010
1000
0000
0000
0000
,
0001
0000
0010
0000
0001
0100
1000
0000
,
0100
0010
1000
0000
0001
0000
0010
0000
,
0001
1000
0100
0000
0010
0000
0100
0000
,
1000
0000
0000
1000
0001
0000
0000
0001
0100
0000
0000
0100
0010
0000
0000
0000
,
2020
0000
3030
0202
0000
0303
1001
0000
,
1000
0000
0100
0000
0010
0100
1000
0000
,
0001
0000
0100
0000
0010
0100
0001
0000
,
2000
0000
3020
0000
,
0230
0000
0301
1000
,
0002
0000
0013
0000
0001
0100
0010
1000
,
0001
0000
0010
0000
1000
0010
0001
0000
,
2000
0000
3100
0000
1000
0010
0100
0001
,
1000
0010
0001
0010
,
2000
0000
3002
0000
,
0203
0010
0001
0310
,
2000
0100
3020
1000
,
0230
0001
0320
0100
,
2030
0001
0100
3001
,
2000
0000
0000
3002
0000
0000
0203
0000
,
0000
0000
0000
0000
0000
0000
0000
0000
0302
0000
0000
0000
0000
2000
0000
0000
0000
0000
0000
0000
3003
0000
0000
0000
0000
0000
0000
0000
0000
0000
0000
0000
;

//---------------dance-single - ----------------
#NOTES:
     dance-single:
     :
     Challenge:
     8:
     0.423,0.445,0.220,0.291,0.161:
0000
0000
0000
0000
,
0000
0000
0000
0000
,
0000
0000
0000
0000
,
0000
0000
0000
0000
,
1000
0000
0001
0000
0100
0001
0000
0001
1000
0000
0000
0000
0100
0000
0000
0000
,
0010
0000
0100
0000
1000
0001
0000
0001
0100
0000
0010
0000
0010
0000
0000
0000
,
0100
0000
0001
0000
1000
0010
0000
0010
0100
0000
0000
0000
0001
0000
0000
0000
,
1000
0000
0100
0000
0010
0001
0010
0001
0000
0000
0000
0100
0010
0000
0000
0000
,
2000
0010
3002
0100
,
0023
0001
1000
0130
,
0021
0031
2100
3010
,
0201
0000
0301
0000
1002
0100
0003
1000
,
0120
0001
1030
0000
,
1010
0000
0000
0000
1000
0000
0100
0000
0001
0000
0000
0100
0000
0000
0010
0000
,
0001
0000
0000
0000
1000
0000
0010
0000
0001
0000
0000
0010
0000
0000
0100
0000
,
0001
0000
0000
0000
1000
0000
0001
0000
0100
0000
0000
0010
0000
0000
0100
0000
,
0001
0000
0000
0000
1000
0000
0100
0000
0010
0000
0000
0001
0000
0000
1000
0000
,
1100
0000
0000
0000
0010
0000
0001
0000
1000
0000
0000
0010
0000
0000
0100
0000
,
0001
0000
0000
0000
1000
0000
0100
0000
0001
0000
0000
0100
0000
0000
1000
0000
,
0001
0000
1000
0010
0100
0000
0001
0000
,
1100
0101
0011
1010
,
1000
0000
0100
0010
0000
0100
0010
0000
0001
0000
0100
0000
1000
0000
0100
0000
,
0001
0000
0010
0100
0000
0010
0100
0000
1000
0000
0001
0000
0100
0000
1000
0000
,
0100
0000
0001
1000
0000
0001
1000
0000
0100
0000
0001
0000
0100
0000
1000
0000
,
1010
0101
0011
1100
,
1000
0000
0100
0000
0010
0000
0100
1000
0100
0000
0010
0000
0001
0000
0100
0000
,
0001
0000
0000
0001
0100
0000
0000
0100
1000
0000
0100
0000
0001
0000
1000
0000
,
0001
0000
0010
0000
0100
0000
0010
0001
0010
0000
0100
0000
1000
0000
0010
0000
,
1000
0000
0000
1000
0100
0000
0000
0100
0001
0000
0000
0000
0100
0000
0000
0000
,
2000
0100
3002
0010
,
0203
0010
1000
0301
,
0012
1003
2010
3001
,
0201
0000
0310
0000
2010
0001
3000
0010
,
1002
0000
0100
0000
1003
0100
0010
0001
,
1000
0000
0100
0000
1000
0100
0010
0001
,
1000
0010
0100
0001
0000
1000
0001
0010
,
0100
0000
1000
0100
1000
0000
0000
0100
0010
0000
0000
0010
0001
0000
0000
0000
,
2000
0000
0001
0000
3010
1000
0001
0000
,
1000
0100
0010
0001
0100
1000
0000
0100
,
0001
0010
0100
1000
0010
0001
0000
0010
,
0100
0000
0010
1000
0010
0000
0000
1000
0001
0000
0000
0001
0100
0000
0000
0000
,
0202
0000
0303
2002
0000
3003
1010
0000
,
1000
0100
0010
0001
0100
1000
0100
0010
,
1000
0001
0010
0100
0001
0100
0010
0001
,
2000
0000
3002
0000
,
0203
0000
0000
0000
0000
0000
0000
0000
0310
0000
1000
0001
0100
0000
0000
0000
,
0010
0000
1000
0000
0100
0000
0010
0001
0010
0000
0100
0000
1000
0000
0010
0000
,
0100
0000
0000
0100
0001
0000
0000
0001
1000
0000
0100
0000
0010
0000
0000
0000
,
0001
0000
0100
0000
0010
0000
1000
0100
1000
0000
0010
0000
0100
0000
0001
0000
,
0010
0000
0000
0010
0100
0000
0000
0100
1000
0000
0000
0000
0001
0000
0000
0000
,
0200
0001
0320
0001
,
2030
0100
0001
3010
,
2010
3001
0102
0013
,
2100
0000
3001
0000
1002
0010
0003
1000
,
0102
0010
1000
0103
,
0020
0000
0000
2030
0000
0000
3002
0000
,
0000
0000
0000
0000
0000
0000
0000
0000
2003
0000
0000
0000
0000
0200
0000
0000
0000
0000
0000
0000
3300
0000
0000
0000
0000
0000
0000
0000
0000
0000
0000
0000
;

//---------------dance-double - ----------------
#NOTES:
     dance-double:
     :
     Easy:
     3:
     0.206,0.222,0.008,0.346,0.000:
00000000
00000000
00000000
00000000
,
00000000
00000000
00000000
00000000
,
00000000
00000000
00000000
00000000
,
00000000
00000000
00000000
00000000
,
10000000
00000000
00010000
00000000
,
10000000
00000000
00100000
00000000
,
10000000
00000000
00010000
00000000
,
01000000
00001000
00010000
00000000
,
00002000
00000000
00023000
00000000
,
00032000
00100000
00100000
00103000
,
00200000
00000000
00320000
00000000
,
02030000
00000000
03002000
00000000
,
00023000
00001000
00031000
00000000
,
00010000
00000000
00000100
00000000
,
00010000
00000000
00001000
00000000
,
01000000
00000000
00001000
00000000
,
00010000
00000000
00000100
00000000
,
00001000
00000000
00000001
00000000
,
00000100
00000000
00001000
00000000
,
00010000
00000000
00100000
00000000
,
10000000
00010000
10000000
00010000
,
20000000
00000000
30010000
01000000
,
00020000
00000000
00130000
00001000
,
00200000
00000000
00301000
00010000
,
00000100
00000100
00001000
00001000
,
00000002
00000103
00000001
00000100
,
00000010
00001000
00000100
00010000
,
00002000
00013000
00001000
00010000
,
01000000
00100000
00010000
10000000
,
00020000
00000000
20030000
00000000
,
30020000
01000000
01000000
01030000
,
02000000
00000000
03020000
00000000
,
20030000
00000000
32000000
00000000
,
03200000
00010000
00310000
00000000
,
00100000
00000000
01000000
00000000
,
00100000
00000000
00001000
00000000
,
00020000
00000000
00030200
00000000
,
00002300
00000000
00003001
00000100
,
00000001
00000000
00001000
00000000
,
00000010
00000000
00000100
00000000
,
00000002
00000000
00002003
00000000
,
00003020
00000000
00000000
00000230
00000000
00000000
00000310
00000000
,
00001000
00000000
00000001
00000000
,
00000100
00000000
00000010
00000000
,
00020000
00000000
00032000
00000000
,
00203000
00000000
00320000
00000000
,
20030000
31000000
10000000
01000000
,
00100000
00010000
01000000
00001000
,
00020000
00031000
00010000
00001000
,
00000100
00000010
00001000
00000001
,
00002000
00000000
00003002
00000000
,
00000203
00000010
00000010
00000310
,
00000020
00000000
00002030
00000000
,
00003200
00000000
00020300
00000000
,
00032000
00010000
00010000
00013000
,
00022000
00000000
00000000
00000000
,
00000000
00000000
00000000
00000000
00000000
00033000
00000000
00000000
;

//---------------dance-double - ----------------
#NOTES:
     dance-double:
     :
     Medium:
     5:
     0.264,0.334,0.102,0.299,0.000:
00000000
00000000
00000000
00000000
,
00000000
00000000
00000000
00000000
,
00000000
00000000
00000000
00000000
,
00000000
00000000
00000000
00000000
,
00100000
00000000
01000000
00000000
,
00010000
00000000
00000000
00000000
00100000
01000000
00100000
00000000
,
00100000
00000000
00001000
00000000
,
00010000
00000000
00000100
00000000
,
00002000
00000000
00003002
00000000
,
00000203
00000010
00000010
00000310
,
00002000
00000000
00003200
00000000
,
00020300
00000000
00032000
00000000
,
02003000
00010000
03010000
00000000
,
10010000
00100000
01000000
00010000
,
10000000
01000000
00100000
00001000
,
00010000
00000100
00010000
00001000
,
01000000
00100000
10000000
00010000
,
10010000
00100000
10000000
00010000
,
01000000
00001000
00010000
00000100
,
00000010
00000001
00001000
00000010
,
00000101
00001001
00001100
00010100
,
00010000
00000000
00001000
00010000
00001000
00000000
01000000
00000000
,
00001000
00000000
00010000
00001000
00010000
00000000
00000100
00000000
,
00010000
00000000
00001000
00010000
00001000
00000000
01000000
00000000
,
01010000
01001000
00011000
00010100
,
00002000
00000000
00003100
00000000
00001000
00000000
00000001
00000100
,
00000001
00001000
00000010
00010000
,
00002000
00000000
00103000
00000000
00001000
00000000
01000000
00010000
,
01000000
00100000
10000000
00010000
,
20000000
00000000
30020000
00000000
,
02030000
00100000
00100000
03100000
,
02000000
00000000
03020000
00000000
,
00230000
00000000
00302000
00000000
,
00023000
00000100
00030100
00000000
,
00011000
00010000
00000100
00001000
,
00000100
00010000
00001000
01000000
,
00020000
10000000
10000000
10030000
,
02000000
00000000
00000000
00000000
03100000
00010000
10000000
00000000
,
10010000
00010000
01000000
00001000
,
00010000
00000100
00000010
00000001
,
00002000
00000001
00000001
00003001
,
00000200
00000000
00000000
00000320
00000000
00000000
00000130
00000000
,
00000010
00000000
00000100
00000000
00000001
00000100
00000001
00000000
,
00001000
00000000
00000010
00000000
00010000
00001000
00010000
00000000
,
00002000
00000000
00203000
00000000
,
00320000
00000000
10030000
00010000
,
02000000
00000000
03100000
00000000
01000000
00000000
00010000
10000000
,
00010000
01000000
00001000
00010000
,
00000200
00000000
00001300
00000000
00000100
00000000
00000010
00000001
,
00000010
00000100
00001000
00000010
,
00020000
00000000
00032000
00000000
,
00203000
00010000
00010000
00310000
,
00200000
00000000
00302000
00000000
,
00023000
00000000
00030200
00000000
,
00000320
00000001
00000100
00000031
,
00002002
00000000
00000000
00000000
,
00000000
00000000
00000000
00000000
00000000
00003003
00000000
00000000
;

//---------------dance-double - ----------------
#NOTES:
     dance-double:
     :
     Hard:
     7:
     0.349,0.400,0.220,0.314,0.079:
00000000
00000000
00000000
00000000
,
00000000
00000000
00000000
00000000
,
00000000
00000000
00000000
00000000
,
00000000
00000000
00000000
00000000
,
00000010
00000000
00000000
00000000
00001000
00000100
00000000
00000100
00001000
00000000
00000000
00000000
00000001
00000000
00000000
00000000
,
00000100
00000000
00000000
00000000
00000010
00010000
00000000
00010000
00000010
00000000
00001000
00000000
00001000
00000000
00000000
00000000
,
00000100
00000000
00000000
00000000
00010000
00001000
00000000
00001000
00010000
00000000
00000000
00000000
00001000
00000000
00000000
00000000
,
01000000
00100000
01000000
00010000
10000000
00000000
00010000
00000000
,
20000000
01000000
30020000
00100000
,
02030000
00001000
00010000
03001000
,
00021000
00030100
00010200
00010300
,
00012000
00000000
00103000
00000000
00210000
00000000
00001000
00300000
,
00021000
00000100
00000010
00030000
,
00010000
00000000
00000000
00000000
00000100
00000000
00001000
00000000
00000010
00000000
00000000
00000100
00000000
00000000
00000010
00000000
,
00000000
00000000
00000000
00000000
00000100
00000000
00000001
00000000
00001000
00000000
00000000
00000010
00000000
00000000
00010000
00000000
,
00000000
00000000
00000000
00000000
00001000
00000000
00010000
00000000
00001000
00000000
00000000
01000000
00000000
00000000
00010000
00000000
,
00000000
00000000
00000000
00000000
00100000
00000000
01000000
00000000
10000000
00000000
00000000
01000000
00000000
00000000
00100000
00000000
,
00000000
00000000
00000000
00000000
00010000
00000000
01000000
00000000
10000000
00000000
00000000
01000000
00000000
00000000
00100000
00000000
,
00000000
00000000
00000000
00000000
10000000
00000000
01000000
00000000
00010000
00000000
00000000
01000000
00000000
00000000
00100000
00000000
,
00000000
00000000
00001000
00010000
00000100
00000000
00000010
00000000
,
00000011
00000110
00001100
00010100
,
00010000
00000100
00001000
00000010
00000100
00000001
00001000
00000000
,
00000001
00000100
00000010
00001000
00000100
00010000
00001000
00000000
,
00010000
00000100
00010000
00001000
01000000
00100000
10000000
00000000
,
10100000
00110000
00001010
00000011
,
00000002
00000000
00001003
00000000
00000100
00001000
00000100
00010000
,
00001000
00000000
00100000
00000000
00001000
00010000
00001000
00000000
,
02000000
00000000
03010000
00000000
10000000
00100000
10000000
00010000
,
01000000
00001000
00010000
00011000
,
00020000
00000000
00030200
00000000
,
00002300
00000010
00000100
00003010
,
00000102
00001003
00001200
00010300
,
00012000
01003000
01020000
10030000
,
12000000
00100000
10000000
03000000
,
01000000
10000000
01000000
00100000
,
00001000
01000000
00001000
00010000
,
00000100
00000000
00000000
00000100
00000010
00000000
00000000
00000010
00000100
00000000
00000000
00000100
00001000
00000000
00000000
00000000
,
00000001
00000000
00000100
00000000
00001000
00000100
00000001
00000000
,
00001000
00000100
00000010
00001000
,
00010000
01000000
00100000
00010000
,
10000000
00000000
00000000
10000000
00010000
00000000
00000000
00010000
01000000
00000000
00000000
01000000
00100000
00000000
00000000
00000000
,
20200000
00000000
30300000
02020000
00000000
03030000
10010000
00000000
,
10000000
00100000
01000000
00001000
,
00100000
00010000
00000010
00000100
,
00002000
00000000
00003002
00000000
,
00000203
00000000
00000000
00000000
00000000
00000000
00000000
00000000
00000310
00000000
00001000
00000001
00001000
00000000
00000000
00000000
,
00000002
00000000
00000103
00000000
00000010
00001000
00000010
00000100
,
00000001
00000000
00001000
00000000
00000010
00000100
00000010
00000000
,
00020000
00000000
00031000
00000000
00010000
00000100
00001000
00000100
,
00000010
00000100
00001000
00010100
,
00020000
00000000
00032000
00000000
,
02003000
00100000
00010000
03100000
,
20100000
30010000
02010000
03001000
,
00021000
00030100
00002100
00003010
,
00000210
00000001
00001000
00000301
,
00002000
00000000
00000000
00003200
00000000
00000000
00020300
00000000
,
00000000
00000000
00000000
00000000
00000000
00000000
00000000
00000000
00032000
00000000
00000000
00000000
00000000
00200000
00000000
00000000
00000000
00000000
00000000
00000000
00303000
00000000
00000000
00000000
00000000
00000000
00000000
00000000
00000000
00000000
00000000
00000000
;

//---------------dance-double - ----------------
#NOTES:
     dance-double:
     :
     Challenge:
     8:
     0.415,0.445,0.204,0.314,0.177: // measure 1
00000000
00000000
00000000
00000000
,  // measure 2
00000000
00000000
00000000
00000000
,  // measure 3
00000000
00000000
00000000
00000000
,  // measure 4
00000000
00000000
00000000
00000000
,  // measure 5
00010000
00000000
01000000
00000000
00010000
10000000
00000000
10000000
01000000
00000000
00000000
00000000
00100000
00000000
00000000
00000000
,  // measure 6
00010000
00000000
01000000
00000000
00001000
00010000
00000000
00010000
00001000
00000000
00100000
00000000
00100000
00000000
00000000
00000000
,  // measure 7
00001000
00000000
00010000
00000000
00000100
00001000
00000000
00001000
00000010
00000000
00000000
00000000
00000100
00000000
00000000
00000000
,  // measure 8
00000001
00000000
00001000
00000010
00001000
00000010
00000100
00000001
00000000
00000000
00000000
00001000
00000100
00000000
00000000
00000000
,  // measure 9
00000020
00001000
00000032
00001000
,  // measure 10
00000203
00000010
00001300
01000000
,  // measure 11
20000000
00000000
30200000
00000000
,  // measure 12
00302000
00000000
02003000
00000000
,  // measure 13
03100000
00010000
00000110
00000000
,  // measure 14
00001001
00000000
00000000
00000000
00001000
00000000
00000001
00000000
00000100
00000000
00000000
00000010
00000000
00000000
00010000
00000000
,  // measure 15
00001000
00000000
00000000
00000000
00010000
00000000
00000100
00000000
00001000
00000000
00000000
00000010
00000000
00000000
00000100
00000000
,  // measure 16
00000001
00000000
00000000
00000000
00000100
00000000
00000010
00000000
00010000
00000000
00000000
00001000
00000000
00000000
00100000
00000000
,  // measure 17
00001000
00000000
01000000
00010000
10000000
00100000
00100000
00000000
,  // measure 18
10010000
00000000
00000000
00000000
10000000
00000000
00010000
00000000
00100000
00000000
00000000
01000000
00000000
00000000
00100000
00000000
,  // measure 19
00001000
00000000
00000000
00000000
00010000
00000000
00001000
00000000
01000000
00000000
00000000
00010000
00000000
00000000
00100000
00000000
,  // measure 20
00001000
00000000
00010000
00000100
00001000
00000000
00000010
00000000
,  // measure 21
00000101
00001010
00011000
01010000
,  // measure 22
01000000
00000000
00100000
10000000
00000000
10000000
00010000
00000000
02000000
00000000
00001000
00000000
03001000
00000000
00000000
00000000
,  // measure 23
00010000
00000000
00000100
00001000
00000000
00001000
00000010
00000000
00000200
00000000
00000001
00000000
00000301
00000000
00000000
00000000
,  // measure 24
00001000
00000000
00000010
00010000
00000000
00010000
00000100
00000000
00002000
00000000
00000010
00000000
00003010
00000000
00000000
00000000
,  // measure 25
00000110
00011000
01100000
00011000
,  // measure 26
00010000
00000000
00000100
00000000
00001000
00000000
00000010
00001000
00000010
00000000
00000100
00000000
00000001
00000000
00001000
00000010
,  // measure 27
00001000
00000000
00000000
00001000
00000001
00000000
00000000
00000001
00000100
00000000
00000010
00000000
00000010
00000000
00000000
00000000
,  // measure 28
00010000
00000000
00001000
00000000
00100000
00000000
00010000
01000000
00010000
00000000
10000000
00000000
00100000
00000000
01000000
00100000
,  // measure 29
01000000
00000000
00000000
01000000
00010000
00000000
00000000
00010000
10000000
00000000
00000000
00000000
01000000
00000000
00100000
00000000
,  // measure 30
00002000
01000000
00023000
00000010
,  // measure 31
00032000
00100000
01000000
00013000
,  // measure 32
00021000
01030000
21000000
30010000
,  // measure 33
02010000
03001000
00012000
00003100
,  // measure 34
00000120
00000000
00001000
00000000
00010030
00001000
00010000
00001000
,  // measure 35
00100000
00000000
00100000
01000000
00000000
10000000
00010000
01000000
,  // measure 36
00001000
00000000
00001000
00010000
00000000
00010000
00000100
00000000
,  // measure 37
00001000
00000000
00000001
00000010
00000001
00000000
00000000
00000010
00000100
00000000
00000000
00000100
00001000
00000000
00000000
00000000
,  // measure 38
00000022
00000000
00000000
00000033
00000001
00000010
00001000
00000000
,  // measure 39
00010000
00001000
00010000
01000000
10000000
00010000
00000000
01000000
,  // measure 40
00001000
00010000
00001000
00000100
00000001
00001000
00000000
00000001
,  // measure 41
00000010
00000000
00000100
00001000
00000100
00000000
00000000
00001000
00000010
00000000
00000000
00000010
00010000
00000000
00000000
00000000
,  // measure 42
00022000
00000000
00033000
00202000
00000000
00303000
00110000
00000000
,  // measure 43
00100000
00010000
01000000
00100000
10000000
00010000
01000000
00001000
,  // measure 44
00010000
01000000
00010000
00001000
00000010
00000100
00001000
00000001
,  // measure 45
00000200
00000000
00000320
00000000
,  // measure 46
00020030
00000000
00000000
00000000
00000000
00000000
00000000
00000000
00031000
00000000
01000000
00010000
00100000
00000000
00000000
00000000
,  // measure 47
01000000
00000000
10000000
00000000
01000000
00000000
00100000
00010000
00100000
00000000
01000000
00000000
00100000
00000000
00001000
00010000
,  // measure 48
00001000
00000000
00000000
00010000
00000100
00000000
00000000
00000100
00000010
00000000
00000001
00000000
00000001
00000000
00000000
00000000
,  // measure 49
00001000
00000000
00000010
00000000
00010000
00000000
00000100
00001000
00000100
00000000
00000010
00000000
00000100
00000000
00001000
00000001
,  // measure 50
00001000
00000000
00000000
00000001
00000100
00000000
00000000
00000100
00000010
00000000
00000000
00000000
00010000
00000000
00000000
00000000
,  // measure 51
00002000
00100000
00023000
00000100
,  // measure 52
00032000
01000000
00100000
00013000
,  // measure 53
00210000
01300000
21000000
30010000
,  // measure 54
02100000
03001000
00012000
00003010
,  // measure 55
00000210
00010000
00000010
00001300
,  // measure 56
00012000
00000000
00000000
00203000
00000000
00000000
00320000
00000000
,  // measure 57
00000000
00000000
00000000
00000000
00000000
00000000
00000000
00000000
20030000
00000000
00000000
00000000
00000000
00200000
00000000
00000000
00000000
00000000
00000000
00000000
30300000
00000000
00000000
00000000
00000000
00000000
00000000
00000000
00000000
00000000
00000000
00000000
;
