#TITLE:Kachoufuusetsu;
#SUBTITLE:;
#ARTIST:Byakko;
#TITLETRANSLIT:;
#SUBTITLETRANSLIT:;
#ARTISTTRANSLIT:;
#GENRE:;
#CREDIT:;
#MENUCOLOR:;
#METERTYPE:DDR;
#BANNER:Kachoufuusetsu-bn.png;
#BACKGROUND:Kachoufuusetsu-bg.png;
#LYRICSPATH:Lyrics.lrc;
#CDTITLE:ddrencorecdtitle.png;
#MUSIC:Kachoufuusetsu.mp3;
#OFFSET:-0.017;
#SAMPLESTART:30.154;
#SAMPLELENGTH:14.454;
#SELECTABLE:YES;
#LISTSORT:;
#BPMS:0.000=198.998;
#STOPS:31.500=1.206
;
#BGCHANGES:;
#ATTACKS:;

//---------------dance-single - ----------------
#NOTES:
     dance-single:
     :
     Beginner:
     3:
     0.267,0.326,0.184,0.074,0.000:
0000
0000
0000
0000
,
0000
0000
0000
0000
,
0000
0000
0000
0000
,
0000
0000
0000
0000
,
1000
0000
0000
0000
,
0000
0000
0000
0000
,
0001
0000
0000
0000
,
0000
0000
0000
0000
,
1000
0000
1000
0000
,
1000
0000
0001
0001
,
0001
0000
0001
0000
,
0001
0000
0100
0100
,
0100
0000
0100
0000
,
0100
0000
0010
0010
,
0010
0000
0010
0000
,
0010
0000
1000
0000
,
0001
0000
1000
0000
,
0001
0000
0010
0010
,
0010
0000
0100
0000
,
0010
0000
0001
0001
,
0001
0000
0100
0000
,
0001
0000
1000
1000
,
1000
0000
0010
0000
,
0100
0000
0001
0000
,
1000
0000
1001
0000
,
0010
0000
0001
0000
,
0100
0000
1001
0000
,
0010
0000
0010
0000
,
0100
0000
1001
0000
,
0010
0000
1000
0000
,
0100
0000
1001
0000
,
0010
0010
0010
0000
,
0001
0000
1001
0000
,
0100
0100
0100
0000
,
0010
0000
1000
0000
,
0001
0000
0010
0000
,
1001
0000
1001
0000
,
0010
0000
0001
0000
,
0110
0000
0110
0000
,
1000
0000
0001
0000
,
0110
0000
0110
0000
,
0001
0000
0100
0000
,
1001
0000
1001
0000
,
0010
0000
1000
0000
,
0001
0001
0001
0000
,
1000
1000
1000
0000
,
0001
0000
0100
0000
,
0001
0000
0010
0000
,
0100
0000
1000
0000
,
0100
0000
1000
0000
,
0010
0000
0100
0000
,
0001
0000
1000
0000
,
0001
0000
0010
0000
,
0100
0000
0010
0000
,
2002
0000
0000
0000
,
0000
0000
3003
0000
,
0000
0001
0001
0000
,
0100
0000
0010
0000
,
1000
0000
0100
0000
,
0010
0000
0001
0000
,
1000
1000
1000
0000
,
0010
0010
0010
0000
,
0100
0100
0100
0000
,
0001
0001
0001
0000
,
1000
0000
0001
0000
,
1000
0000
0100
0000
,
0010
0000
0010
0000
,
0100
0000
0100
0000
,
1000
0000
1001
0000
,
0100
0000
1001
0000
,
0010
0000
0001
0000
,
0100
0000
0010
0000
,
1000
0000
0110
0000
,
0001
0000
0110
0000
,
1000
0000
1001
0000
,
0100
0000
0010
0000
,
1000
1000
1000
0000
,
0001
0001
0001
0000
,
0010
0000
0001
0000
,
0100
0000
0010
0000
,
1000
0000
0100
0000
,
0010
0000
0001
0000
,
2000
0000
3000
0010
,
0020
0000
0030
0100
,
0200
0000
0300
0001
,
0002
0000
0003
0000
,
1000
0000
0010
0000
,
0100
0000
0001
0000
,
2002
0000
3003
0000
;

//---------------dance-single - ----------------
#NOTES:
     dance-single:
     :
     Easy:
     6:
     0.468,0.570,0.488,0.193,0.000:
0000
0000
0000
0000
,
0000
0000
0000
0000
,
0000
0000
0000
0000
,
0000
0000
0000
0000
,
0001
1000
0100
0100
,
1000
0010
0100
0001
,
0000
1000
0001
0100
,
0010
0010
0010
0010
,
0101
0000
0000
1100
0000
0000
0101
0000
,
0000
1100
0000
0000
0010
0000
1000
0000
,
1100
0000
0000
0101
0000
0000
1100
0000
,
0000
0101
0000
0000
0001
0000
0100
0000
,
1010
0000
0000
0011
0000
0000
1010
0000
,
0000
0011
0000
0000
1000
0000
0100
0000
,
0011
0000
0000
1010
0000
0000
0011
0000
,
0000
0001
0100
0010
,
0101
0000
0000
0110
0000
0000
1010
0000
,
0000
1001
0000
0000
0001
0000
0100
0000
,
1001
0000
0000
0101
0000
0000
0110
0000
,
0000
0010
1000
0001
,
0011
0000
0000
0110
0000
0000
1100
0000
,
0000
1001
0000
0000
0010
0000
0001
0000
,
0100
0010
0110
1000
,
0001
1001
0010
0010
,
0002
0000
0010
0000
,
0203
0000
0320
0000
,
2030
0000
0001
0000
,
3200
0000
0320
0000
,
0032
0000
1000
0000
,
0203
0000
0320
0000
,
2030
0000
0001
0000
,
3010
0100
1001
0000
,
0002
0000
1000
0000
,
0013
0100
1001
0000
,
0220
0000
0000
0330
,
0001
0100
0010
1000
,
0001
0011
1000
1010
,
0010
0100
0001
1000
,
0001
0101
1000
1100
,
0010
0001
0100
0010
,
1000
0101
0001
1100
,
1000
0001
0010
0100
,
1000
0011
0001
1010
,
1000
0001
0100
0010
,
1000
1000
0001
0001
,
1000
0001
1000
0001
1000
0000
1001
0000
,
0001
0100
0010
0010
,
1000
0100
0001
0100
,
1000
0010
0100
0100
,
0001
0010
1000
0010
,
0001
0100
0001
0001
,
1000
0010
0001
0010
,
1000
0100
1000
0001
,
0100
0001
0010
0000
,
0220
0000
0000
0000
,
0000
0000
0000
0330
,
0000
0001
0100
0010
,
1000
0100
0010
0001
,
1000
0100
0010
0001
,
0100
0010
1000
0001
,
0101
0010
1000
0001
,
0010
0100
0001
0100
,
1000
0010
0100
0001
,
1000
0010
0100
1000
,
0100
0001
0010
0100
,
1000
0000
0010
0000
,
1000
1000
0001
0001
,
0010
0001
0100
0010
,
1000
0000
1000
0010
0000
0000
0100
0000
,
0001
0000
0001
1000
0000
0000
0010
0000
,
1000
0100
0010
0001
,
0100
0010
1000
0100
,
0010
0000
0010
0001
0000
0000
0100
0000
,
0010
0000
0010
1000
0000
0000
0001
0000
,
1000
0000
1000
0010
0000
0000
0100
0000
,
0001
1000
0100
0010
,
0100
0100
0100
0100
,
0010
0010
0010
0010
,
0001
0100
1000
0100
,
0001
0010
1000
0010
,
0001
0100
0010
0001
,
0010
1000
0100
0010
,
0210
0000
0300
0010
,
0012
0000
0003
0100
,
0120
0000
0030
1000
,
2010
0000
3000
0001
,
0011
0000
0000
1010
0000
0000
1100
0000
,
0000
0101
0000
0000
0110
0000
0110
0000
,
2002
0000
3003
0000
;

//---------------dance-single - ----------------
#NOTES:
     dance-single:
     :
     Medium:
     8:
     0.623,0.652,0.552,0.184,0.000:
0000
0000
0000
0000
,
0000
0000
0000
0000
,
0000
0000
0000
0000
,
0000
0000
0000
0000
,
0001
0100
0010
0010
,
1000
0000
0010
0000
1000
0001
1000
0000
,
0010
0000
0100
0000
,
0010
0010
0010
0010
,
1100
0000
0000
0011
0000
0000
0110
0000
,
0000
0011
0000
0000
1100
0000
1001
0000
,
0011
0000
0000
0110
0000
0000
1100
0000
,
0000
1010
0000
0000
1001
0000
1001
0000
,
0101
0000
0000
0110
0000
0000
1010
0000
,
0000
1001
0000
0000
1100
0000
0110
0000
,
0011
0000
0000
0101
0000
0000
1100
0000
,
0000
1000
0010
0000
0100
0001
1000
0000
,
0011
0000
0000
0110
0000
0000
1100
0000
,
0000
1001
0000
0000
0101
0000
0110
0000
,
1010
0000
0000
1001
0000
0000
0101
0000
,
0000
0010
1000
0000
0001
1000
0100
0000
,
0110
0000
0000
1100
0000
0000
0011
0000
,
0000
0110
0000
0000
0011
0000
1001
0000
,
1000
0000
0100
1000
0010
0000
0100
0000
,
0001
0010
0100
0000
1001
0000
1001
0000
,
2000
0100
0001
3010
,
0020
0100
0230
0001
,
0302
0100
1000
0013
,
0002
0010
2003
0010
,
3002
0100
1000
0013
,
0020
0100
0230
1000
,
2300
0010
0001
3100
,
1000
0010
0100
0001
1000
0000
0010
0000
,
1002
0100
1000
0013
,
0001
0100
0010
1000
0001
0000
0100
0000
,
2001
0100
0001
3010
,
1000
0100
0010
0001
1000
0100
0010
0000
,
0001
0010
1000
0000
0001
0010
1000
0000
,
0010
0100
1100
0011
,
1000
0010
0001
0000
1000
0010
0001
0000
,
0010
0000
0100
0000
0001
1000
0010
0000
,
1000
0100
0001
0000
1000
0100
0001
0000
,
0100
0010
0011
1100
,
0001
0100
1000
0000
0001
0100
1000
0000
,
0100
0010
1000
0001
,
0110
0110
1001
1001
,
1000
0010
0001
0100
1000
0000
1001
0000
,
0001
0000
0010
0000
0001
0100
0001
0000
,
0010
0100
1000
0000
0100
1000
0010
0000
,
0100
0000
0001
0000
1000
0010
1000
0000
,
0100
0000
0010
0000
0100
1000
0001
0000
,
1000
0000
0001
0000
1000
0010
1000
0000
,
0100
0010
0001
0000
0010
0001
0100
0000
,
0010
0000
1000
0001
1000
0000
0100
0000
,
0010
0001
0100
0000
0010
0000
0000
0010
,
0100
0010
0000
1000
0000
0001
0000
0100
,
0000
0010
1000
0000
0001
0000
0010
0200
,
0000
1300
0100
0010
,
0001
0010
0100
1000
,
0001
0100
0010
1000
,
0010
0100
0001
1000
,
0100
1000
0100
1000
0010
0100
0001
0000
,
0010
0001
0010
0001
0100
0010
1000
0000
,
0001
0100
0010
1000
0100
0010
0001
0000
,
1000
0010
0100
0001
0010
0100
1000
0000
,
0100
1000
0100
0010
0001
0100
0001
1000
,
0000
0010
0200
0000
0000
0000
0301
0000
,
1000
0100
1000
0000
0001
0100
0001
0000
,
0010
0100
1000
0000
0010
0100
0001
0000
,
1000
0100
1000
0100
0000
0100
0010
0000
,
0001
0100
0001
0100
0000
0100
0010
0000
,
1000
0001
0010
0010
,
0001
0100
0010
0010
,
1000
0010
1000
0010
0000
0010
0100
0000
,
0001
0010
0001
0010
0000
0010
0100
0000
,
1000
0001
1000
0001
0000
0001
0100
0000
,
0010
0000
1000
0001
1000
0000
0001
0100
,
0010
0010
0010
0010
,
0100
0100
0100
0100
,
0001
0010
0100
1000
0100
0010
0001
0000
,
1000
0001
0100
0010
0100
0001
1000
0000
,
1000
0100
0010
0001
0010
0100
1000
0000
,
0001
1000
0010
0100
0010
1000
0001
0000
,
0201
0000
0000
0001
0300
0000
0010
0000
,
2010
0000
0000
0010
3000
0000
0001
0000
,
0021
0000
0000
0001
0030
0000
0100
0000
,
1002
0000
0000
1000
0003
0000
0100
0000
,
0110
0000
0000
1010
0000
0000
0101
0000
,
0000
0011
0000
0000
0110
0000
1100
0000
,
2002
0000
3003
0000
;

//---------------dance-single - ----------------
#NOTES:
     dance-single:
     :
     Hard:
     10:
     0.928,0.896,0.727,0.368,0.147:
0000
0000
0000
0000
,
0000
0000
0000
0000
,
0000
0000
0000
0000
,
0000
0000
0000
0000
,
0000
0100
0001
0010
0001
1000
0001
0100
,
0001
0010
0100
1000
0010
0001
0010
0100
,
0000
0010
1000
0100
1000
0000
0001
0100
,
1000
0000
0001
0010
1000
0100
0010
0100
,
1002
0000
0003
1020
0000
0030
0210
0000
,
0300
0102
0000
0100
1003
0000
0110
0000
,
0201
0000
0300
0012
0000
0003
0120
0000
,
0030
1200
0000
0300
1001
0000
0110
0000
,
1020
0000
0030
2001
0000
3000
0012
0000
,
0003
2100
0000
0100
3001
0000
0110
0000
,
1200
0000
0300
0021
0000
0030
0102
0000
,
0003
1010
0100
0001
1000
0010
0100
0001
,
0021
0000
0130
2000
0000
3001
0200
0000
,
0300
1020
0000
0030
0101
0000
0011
0000
,
2100
0000
3001
0020
0000
0031
0200
0000
,
0300
1001
0010
0001
0100
0010
1000
0100
,
0120
0000
0031
2000
0000
3010
0200
0000
,
0300
0102
0000
0003
1010
0000
0011
0000
,
0001
0100
1000
0100
0001
0000
0010
0100
,
0001
0100
1000
0000
0010
1000
1001
0000
,
1000
0100
0010
0001
1000
0100
0010
0001
,
0100
0000
0010
0000
1000
0000
0001
0000
0010
0000
0100
1000
0001
0000
0100
0000
,
0001
0010
0100
1000
0001
0010
0100
1000
,
0010
0000
0100
0000
0001
0000
1000
0000
0100
0000
0010
0001
1000
0000
0010
0000
,
1000
0100
0010
0001
1000
0010
0100
0001
,
1000
0000
0001
0000
0100
0000
0001
0000
0010
0000
0100
1000
0001
0000
0100
0000
,
0001
0010
1000
0010
0001
0010
0100
0010
,
0011
1000
0001
1000
1200
0000
0010
0000
,
1300
0010
0001
0010
1000
0010
0100
0010
,
1010
0001
1000
0001
0201
0000
0010
0000
,
0301
0100
0010
1000
0100
0010
0001
0000
,
0010
0001
0100
0100
0010
1000
0100
0010
,
0001
0100
0001
0100
0010
0000
1000
0000
0100
0010
0100
0010
0001
0000
1000
0000
,
0000
0100
1000
0001
0010
1000
0001
0100
,
1000
0010
1000
0010
0100
0000
0001
0000
0010
0100
0010
0100
1000
0000
0001
0000
,
0100
0010
0001
0010
1000
0001
0100
1000
,
0100
0010
0100
0010
1000
0000
0100
0000
0010
0100
0010
0100
1000
0000
0001
0000
,
0100
0001
0010
0000
0100
1000
0010
0100
,
0001
1000
0001
1000
0100
0000
0010
0000
0100
1000
0100
1000
0010
0000
0100
0000
,
0001
0010
0100
1000
0010
0100
1000
0000
,
1100
0101
0011
1010
,
1001
1100
1001
0101
1001
0000
0110
0000
,
0001
0010
0100
0001
1000
0010
0100
1000
,
0010
0001
1000
0100
0010
0100
1000
0001
,
0010
0100
0001
0010
1000
0010
0100
0001
,
1000
0010
0100
1000
0010
0100
0010
0100
,
0001
1000
0010
0100
1000
0001
0010
0100
,
0010
1000
0100
0001
1000
0010
0100
1000
,
0001
0100
0010
1000
0100
0000
0010
0100
,
1000
0001
0100
0000
1001
0000
0100
0001
,
0010
0100
0000
0010
0000
1100
0000
0001
,
0000
0100
0001
0000
1010
0000
0010
0200
,
0000
0000
0301
0010
0100
1000
0010
0100
,
0001
1000
0100
0001
0100
1000
0010
0100
,
0001
0001
1000
0100
0010
0001
0100
0010
,
1000
0001
0010
1000
0010
0001
0100
0010
,
1001
0100
0010
1000
0100
0010
0001
0010
,
0100
1000
0001
0100
0010
1000
0001
0010
,
0001
0100
0010
1000
0010
0100
0001
1000
,
0100
0010
0001
0100
0010
1000
0010
0100
,
0001
1000
0100
0010
0001
0100
0010
1000
,
0000
0010
0200
0000
0000
0301
0010
0100
,
1000
0010
0001
0010
1000
0100
0001
0100
,
1000
0010
0100
0010
0001
1000
0100
0001
,
0011
0010
0100
1100
0000
0010
0001
0100
,
1010
0100
0001
0011
0000
0100
1000
0010
,
0100
0001
0010
1000
0010
0001
0100
0100
,
0010
0000
1000
0010
0100
0001
1000
1000
,
0101
0010
1000
1100
0000
0010
0100
1000
,
1001
0100
0010
1010
0000
0100
0001
0010
,
0110
1000
0001
0101
0000
1000
0100
0010
,
0110
0000
0000
0000
0001
0000
0100
0000
0001
1000
0001
1000
0001
0000
0010
0000
,
1100
0110
0011
0110
,
1100
1010
0101
1001
,
0001
0010
0100
0010
1000
0010
0100
0010
,
0001
0100
0010
0100
1000
0100
0010
0100
,
0001
0010
1000
0010
0001
0100
1000
0100
,
0001
0000
0010
0000
0100
0000
1000
0000
0010
0100
0010
0100
0010
1000
0010
1000
,
0001
0000
0000
0000
0100
0000
0120
0000
0000
0000
1030
0000
0001
0010
0001
0010
,
0100
0000
0000
0000
0010
0000
0012
0000
0000
0000
0103
0000
0010
1000
0010
1000
,
0001
0000
0000
0000
1000
0000
1200
0000
0000
0000
0310
0000
0100
1000
0100
1000
,
0001
0000
0000
0000
0100
0000
0102
0000
0000
0000
1003
0000
0001
0100
0010
0000
,
0120
0000
1030
0102
0000
0013
2100
0000
,
3010
0210
0000
0301
1010
0000
0101
0000
,
2002
0000
3003
0000
;

//---------------dance-double - ----------------
#NOTES:
     dance-double:
     :
     Easy:
     5:
     0.416,0.448,0.166,0.239,0.000:
00000000
00000000
00000000
00000000
,
00000000
00000000
00000000
00000000
,
00000000
00000000
00000000
00000000
,
00000000
00000000
00000000
00000000
,
00100000
10000000
01000000
00010000
,
00001000
00000010
00000100
00000100
,
00000000
00000010
00000001
00000100
,
00000010
00000010
00000010
00000010
,
00011000
00000000
00000000
00001000
00000000
00000000
01000000
00000000
,
00000000
00100000
00000000
00000000
10000000
00000000
00010000
00000000
,
00110000
00000000
00000000
01000000
00000000
00000000
10000000
00000000
,
00000000
00010000
00000000
00000000
00100000
00000000
00001000
00000000
,
00011000
00000000
00000000
00010000
00000000
00000000
00000010
00000000
,
00000000
00000100
00000000
00000000
00000001
00000000
00000010
00000000
,
00000110
00000000
00000000
00001000
00000000
00000000
00000010
00000000
,
00000000
00000100
00000010
00010000
,
00011000
00000000
00000000
00001000
00000000
00000000
01000000
00000000
,
00000000
00100000
00000000
00000000
10000000
00000000
01000000
00000000
,
11000000
00000000
00000000
00100000
00000000
00000000
00010000
00000000
,
00000000
00100000
00001000
00010000
,
00011000
00000000
00000000
00010000
00000000
00000000
00000010
00000000
,
00000000
00000100
00000000
00000000
00000001
00000000
00000010
00000000
,
00000100
00000010
00001001
00001000
,
00000010
00000100
00000001
00001000
,
00000020
00000000
00000000
00000000
,
00020030
00000000
00032000
00000000
,
02003000
00000000
00000000
00000000
,
03200000
00000000
20300000
00000000
,
30020000
00000000
00000000
00000000
,
20030000
00000000
32000000
00000000
,
03200000
00000000
00000000
00000000
,
00301000
00010000
00011000
00000000
,
00020000
00000000
00000000
00000000
,
00030010
00001000
00001001
00000000
,
00000002
00000000
00000000
00000000
,
00002003
00000000
00000000
00000000
,
00003010
00001001
00000010
00000100
,
00010000
00001000
01000000
00010000
,
01000000
10010000
00100000
10000000
,
01000000
00100000
00001000
00010000
,
00000100
00011000
00010000
00000010
,
00001000
00000010
00010000
00001000
,
01000000
00011000
00100000
00010000
,
01000000
00100000
10000000
00010000
,
00100000
00100000
00100000
00100000
,
00010000
10000000
00010000
10000000
00010000
00000000
01000000
00000000
,
00100000
10000000
01000000
00100000
,
00001000
00010000
00000100
00000010
,
00000001
00000100
00000010
00010000
,
00001000
01000000
00100000
00100000
,
10000000
00010000
01000000
00001000
,
00010000
00000010
00001000
00000001
,
00000100
00000010
00001000
00001000
,
00000010
00000100
00000001
00000000
,
00002002
00000000
00000000
00000000
,
00000000
00000000
00000000
00003003
,
00000000
00000001
00001000
00000010
,
00000100
00000010
00001000
00000100
,
00010000
00001000
00100000
00010000
,
01000000
00100000
01000000
00010000
,
10010000
10000000
01000000
01000000
,
00100000
00010000
01000000
01000000
,
00001000
00010000
00000010
00000100
,
00000001
00001000
00000100
00000010
,
00000100
00010000
00001000
01000000
,
00100000
00000000
10000000
00000000
,
00010000
00100000
01000000
00100000
,
00001000
00010000
00000010
00001000
,
00000020
00000000
00000130
00000001
,
00002000
00000000
00003100
00000000
,
00010000
00001000
01000000
00010000
,
00100000
01000000
10000000
00010000
,
00200000
00000000
00310000
01000000
,
00002000
00000000
00013000
00000010
,
00000200
00000000
00000301
00001000
,
00000100
00000010
00000010
00000100
,
00001000
00001000
00001000
00001000
,
00000001
00000001
00000001
00000001
,
00000100
00000010
00010000
00001000
,
01000000
00100000
10000000
01000000
,
10000000
00100000
01000000
00001000
,
00010000
00000100
00001000
00000010
,
00020000
00000100
00030000
00000010
,
00000200
00000001
00000300
00000010
,
00002000
00000100
00003000
00010000
,
00002000
01000000
00003000
00100000
,
10010000
00000000
00000000
01000000
00000000
00000000
00001000
00000000
,
00000000
00010000
00000000
00000000
00000010
00000000
00010000
00000000
,
00022000
00000000
00033000
00000000
;

//---------------dance-double - ----------------
#NOTES:
     dance-double:
     :
     Medium:
     8:
     0.656,0.652,0.644,0.175,0.000:
00000000
00000000
00000000
00000000
,
00000000
00000000
00000000
00000000
,
00000000
00000000
00000000
00000000
,
00000000
00000000
00000000
00000000
,
00000100
00000000
00000001
00000010
00000001
00000000
00001000
00000000
,
00000010
00000000
00010000
00001000
00010000
00000000
00001000
01000000
,
00000000
00000000
01000000
00100000
10000000
00000000
01000000
00100000
,
00010000
10000000
00100000
10010000
,
00011000
00000000
00000000
00101000
00000000
00000000
00110000
00000000
,
00000000
01100000
00000000
00000000
11000000
00000000
10010000
00000000
,
01010000
00000000
00000000
00011000
00000000
00000000
00001100
00000000
,
00000000
00000110
00000000
00000000
00000011
00000000
00000110
00000000
,
00001100
00000000
00000000
00001001
00000000
00000000
00000101
00000000
,
00000000
00000110
00000000
00000000
00010010
00000000
00011000
00000000
,
01001000
00000000
00000000
01100000
00000000
00000000
10010000
00000000
,
00000000
00100000
10000000
00100000
01000000
00010000
00100000
01000000
,
11000000
00000000
00000000
00110000
00000000
00000000
00011000
00000000
,
00000000
00001100
00000000
00000000
00000110
00000000
00000011
00000000
,
00001001
00000000
00000000
00001100
00000000
00000000
00011000
00000000
,
00000000
00000100
00001000
00000010
00000100
00000001
00000100
00000010
,
00001010
00000000
00000000
00011000
00000000
00000000
00110000
00000000
,
00000000
01100000
00000000
00000000
11000000
00000000
10010000
00000000
,
00010000
01000000
00010000
00100000
01000000
00000000
10000000
01000000
,
10000000
00100000
01000000
00000000
01010000
00000000
00011000
00000000
,
00002000
00000000
01003000
00100000
,
20000000
00000000
32000000
00000000
,
03200000
00000000
00301000
00010000
,
00000020
00000000
00000230
00000000
,
00000302
00000000
00001003
00000001
,
00000200
00000000
00000320
00000000
,
00020030
00000000
00031000
01000000
,
00100000
10000000
00010000
01000000
00001000
00000000
00010000
00000000
,
00021000
00000000
00030100
00001000
,
00000010
00000100
00000001
00000010
00000100
00000000
00010000
00000000
,
00012000
00000000
00010000
00003000
,
00010000
00001000
01000000
01000000
00001000
00010000
00000100
00000100
,
00000010
00001001
00000010
00001001
,
00000001
00000100
00000010
00001000
00000100
00010000
00001000
01000000
,
00100000
10010000
01000000
10010000
,
10000000
01000000
00100000
00001000
01000000
00000000
00100000
00000000
,
10000000
01100000
00010000
01100000
,
10000000
00100000
01000000
00001000
00010000
00000010
00001000
00000001
,
00001000
00000110
00000001
00000110
,
00000001
00001000
00000100
00000010
00000001
00000100
00000010
00000000
,
00001010
00000101
00001100
00010100
,
00010000
00001000
01000000
00010000
10000000
00000000
01100000
00000000
,
10000000
01000000
10000000
00100000
01000000
00010000
00100000
00000000
,
00100000
00001000
00010000
00000100
00001000
00000010
00001000
00000000
,
00001000
00000001
00000100
00000010
00001000
00000100
00000010
00000000
,
00000001
00000100
00000001
00000010
00000100
00001000
00000010
00000010
,
00010000
00001000
01000000
00010000
00100000
01000000
00100000
00000000
,
00100000
00010000
10000000
01000000
10000000
00100000
01000000
00000000
,
00010000
00100000
01000000
10000000
01000000
00000000
00100000
00001000
,
00010000
00000100
00001000
00000000
00000010
00000000
00000000
00000100
,
00000001
00000100
00000000
00000010
00000000
00010000
00000000
00011000
,
00000000
00001000
01000000
00000000
00100000
00000000
10000000
02000000
,
00000000
13000000
01000000
00100000
,
00010000
00001000
00000100
00000010
,
00000001
00000001
00000010
00000100
,
00001000
00010000
00100000
01000000
,
10000000
00010000
01000000
00000000
00100000
10000000
01000000
00000000
,
00100000
00001000
00100000
00000000
00010000
01000000
00100000
00000000
,
10000000
01000000
00100000
00000000
00001000
00010000
00000100
00000000
,
00001000
00000010
00000100
00000000
00000010
00001000
00000010
00000000
,
00000100
00000001
00000100
00000001
00000010
00000100
00001000
00000010
,
00000000
00000010
00000100
00000000
00000000
00000001
00001000
00000000
,
00000010
00000100
00000001
00000000
00001000
00000100
00010000
00000000
,
00001000
01000000
00010000
00000000
00100000
01000000
10000000
00000000
,
00010000
01000000
00010000
01000000
00000000
01000000
00100000
00000000
,
10000000
01000000
10000000
01000000
00000000
01000000
00100000
00000000
,
00001000
00000000
00010000
00000000
00000100
00001000
00000010
00000000
,
00000100
00000000
00000001
00000000
00000010
00000100
00001000
00000000
,
00000001
00000100
00000001
00000100
00000000
00000100
00000010
00000000
,
00001000
00000100
00001000
00000100
00000000
00000100
00000010
00000000
,
00000001
00001000
00000001
00001000
00000000
00001000
00000100
00010000
,
00001000
00000000
01000000
00000000
00010000
00100000
01000000
10000000
,
01000000
01000000
11000000
01010000
,
00001000
00001000
00010100
00001100
,
00001000
00000100
00000010
00000001
00000010
00000100
00001000
00000000
,
00000001
00000100
00000010
00001000
00000010
00000100
00000001
00000000
,
00001000
00000100
00010000
00001000
01000000
00010000
10000000
00000000
,
00010000
01000000
00001000
00010000
00000100
00001000
00000001
00000000
,
00000201
00000000
00000000
00000010
00000300
00000000
00000010
00000000
,
00012000
00000000
00000000
01000000
00003000
00000000
00100000
00000000
,
02010000
00000000
00000000
00001000
03000000
00000000
00010000
00000000
,
21000000
00000000
00000000
30100000
00000000
00000000
01000000
00000000
,
01100000
00000000
00000000
10010000
00000000
00000000
00011000
00000000
,
00000000
00001001
00000000
00000000
00000011
00000000
00000110
00000000
,
00002002
00000000
00003003
00000000
;

//---------------dance-double - ----------------
#NOTES:
     dance-double:
     :
     Hard:
     10:
     0.885,0.896,0.617,0.506,0.143: // measure 1
00000000
00000000
00000000
00000000
,  // measure 2
00000000
00000000
00000000
00000000
,  // measure 3
00000000
00000000
00000000
00000000
,  // measure 4
00000000
00000000
00000000
00000000
,  // measure 5
00000000
00000100
00010000
00001000
01000000
00010000
00100000
00001000
,  // measure 6
00010000
00000010
00001000
00000100
00000010
00000100
00010000
00001000
,  // measure 7
00000000
00100000
00010000
01000000
00001000
00000000
00010000
00000100
,  // measure 8
00001000
00000000
00000010
00001000
00000100
00010000
00001000
01000000
,  // measure 9
20010000
00000000
30000000
01020000
00000000
00030000
00201000
00000000
,  // measure 10
00300000
00021000
00000000
00030000
00001100
00000000
00000110
00000000
,  // measure 11
00001002
00000000
00000000
00002103
00000000
00003000
00010200
00000000
,  // measure 12
00000300
00012000
00000000
00003000
01010000
00000000
01100000
00000000
,  // measure 13
10020000
00000000
00030000
00201000
00000000
00300000
02010000
00000000
,  // measure 14
03000000
20100000
00000000
30000000
01010000
00000000
01001000
00000000
,  // measure 15
00012000
00000000
00003000
00010200
00000000
00000300
00002010
00000000
,  // measure 16
00003000
00000101
00000010
00001000
00000100
00010000
00001000
01000000
,  // measure 17
20010000
00000000
30000000
01200000
00000000
00300000
01002000
00000000
,  // measure 18
00003000
00010200
00000000
00001300
00001010
00000000
00000101
00000000
,  // measure 19
00002001
00000000
00003000
00000210
00000000
00000300
00020010
00000000
,  // measure 20
00030000
00001100
00010000
00000010
00000100
00000001
00001000
00000100
,  // measure 21
00021000
00000000
00030000
00201000
00000000
00300000
20010000
00000000
,  // measure 22
30000000
01020000
00000000
10030000
10100000
00000000
01010000
00000000
,  // measure 23
00010000
00100000
10000000
00100000
00010000
00000000
01000000
00001000
,  // measure 24
00010000
00000010
00001000
00000000
00000001
00000100
00001000
00000000
,  // measure 25
00000200
00000000
00000010
00000000
00001300
00000100
00000001
00000010
,  // measure 26
00000200
00000001
00002300
00000010
,  // measure 27
00003002
00000000
00000100
00000000
00000013
00000001
00001000
00000100
,  // measure 28
00020000
01000000
00032000
00010000
,  // measure 29
02003000
00000000
00100000
00000000
13000000
01000000
00010000
00100000
,  // measure 30
02000000
00010000
23000000
00100000
,  // measure 31
30020000
00100000
10030000
01010000
,  // measure 32
11000000
00100000
01000000
00001000
00011000
00000000
00001000
00000000
,  // measure 33
00020000
00000100
00031000
00001010
,  // measure 34
00000011
00000100
00000010
00010000
00011000
00000000
01000000
00000000
,  // measure 35
10010000
00100000
01000000
10000000
00100000
01000000
00001000
00000000
,  // measure 36
00010000
00000100
00001000
00000010
00000100
00000001
00001000
00000100
,  // measure 37
00000010
00000001
00000010
00000001
00000100
00000000
00000010
00000000
00001000
00000001
00001000
00000001
00001000
00000000
00000010
00000000
,  // measure 38
00000000
00000100
00000001
00001000
00000100
00010000
00001000
01000000
,  // measure 39
00010000
00100000
00010000
00100000
01000000
00000000
10000000
00000000
00010000
10000000
00010000
10000000
00010000
00000000
01000000
00000000
,  // measure 40
00100000
10000000
01000000
00010000
00001000
00000010
00000100
00000100
,  // measure 41
00001000
00000010
00001000
00000010
00000100
00000000
00000001
00000000
00000010
00000100
00000010
00000100
00000010
00000000
00000001
00000000
,  // measure 42
00000100
00000010
00001000
00000000
00000010
00010000
00001000
01000000
,  // measure 43
00010000
00100000
00010000
00100000
01000000
00000000
10000000
00000000
00100000
01000000
00100000
01000000
00100000
00000000
10000000
00000000
,  // measure 44
01000000
10000000
00010000
00100000
00001000
00010000
00000010
00000000
,  // measure 45
00000101
00001001
00010100
00011000
,  // measure 46
00010000
01000000
10000000
01000000
00010000
00000000
00011000
00000000
,  // measure 47
00000010
00000100
00000001
00000010
00000100
00000001
00001000
00000010
,  // measure 48
00000100
00010000
00001000
01000000
00100000
00010000
10000000
01000000
,  // measure 49
00100000
10000000
01000000
00010000
00001000
00000010
00000100
00001000
,  // measure 50
00000010
00000100
00001000
00010000
00100000
10000000
00010000
01000000
,  // measure 51
00001000
00100000
01000000
10000000
00010000
00100000
01000000
00010000
,  // measure 52
00001000
00000010
00000001
00000100
00000010
00001000
00000100
00000010
,  // measure 53
00000001
00001000
00000100
00010000
00001000
00000000
01000000
00010000
,  // measure 54
00100000
01000000
10000000
00000000
00020000
00000000
00000000
01030000
,  // measure 55
00100000
10000000
00000000
01000000
00000000
00100000
00000000
00001000
,  // measure 56
00000000
00010000
00000010
00000000
00000100
00000000
00000001
00002000
,  // measure 57
00000000
00000000
00003100
00000010
00000001
00000010
00000100
00001000
,  // measure 58
00000010
00010000
00001000
01000000
00010000
00100000
01000000
10000000
,  // measure 59
01000000
00100000
00001000
00010000
00000010
00000100
00000001
00001000
,  // measure 60
00000010
00010000
00001000
01000000
00010000
00100000
01000000
00100000
,  // measure 61
10010000
10000000
01000000
00100000
00001000
00100000
01000000
10000000
,  // measure 62
00010000
00100000
00001000
00010000
00000010
00001000
00000010
00000100
,  // measure 63
00000001
00000010
00000100
00001000
00000010
00010000
00000100
00001000
,  // measure 64
00000010
00000100
00000001
00001000
00000100
00010000
00001000
01000000
,  // measure 65
00100000
10000000
00010000
00100000
01000000
00100000
00001000
00010000
,  // measure 66
00000000
01000000
20000000
00000000
00000000
30100000
01000000
00010000
,  // measure 67
10000000
01000000
00010000
00001000
00000010
00000001
00000010
00000001
,  // measure 68
00000001
00000100
00001000
00010000
00100000
10000000
00100000
10000000
,  // measure 69
00010000
00010000
00010000
10020000
00000000
00130000
00001000
00010000
,  // measure 70
00001000
00001000
00001000
00012000
00000000
01003000
00010000
10000000
,  // measure 71
01000000
00100000
01000000
00100000
00001000
00010000
00000010
00001000
,  // measure 72
00000100
00000010
00000100
00000010
00000001
00001000
00000010
00000100
,  // measure 73
00000001
00000001
00000001
00000102
00000000
00000013
00000100
00010000
,  // measure 74
00001000
00001000
00001000
00012000
00000000
00013000
00000010
00000100
,  // measure 75
00000010
00000010
00000010
00000120
00000000
00001030
00000001
00000100
,  // measure 76
00000010
00000000
00000010
00000000
00001000
00000000
00000100
00000000
00010000
00001000
00010000
00001000
00010000
00001000
00010000
00001000
,  // measure 77
01000000
00100000
10010000
10100000
,  // measure 78
01000000
00001000
00011000
00010100
,  // measure 79
00001000
00000010
00000001
00000010
00001000
00000100
00000001
00000100
,  // measure 80
00010000
00001000
01000000
00100000
00010000
00100000
10000000
10000000
,  // measure 81
00010000
01000000
10000000
01000000
00010000
00100000
10000000
00100000
,  // measure 82
00001000
00000000
00010000
00000000
00000010
00000000
00000100
00000000
00000010
00001000
00000010
00001000
00000100
00000010
00000001
00000010
,  // measure 83
00000200
00000000
00000000
00000000
00001300
00000000
00000010
00000000
00000000
00000000
00010000
00000000
00001000
00100000
00001000
00010000
,  // measure 84
00002000
00000000
00000000
00000000
01003000
00000000
00010000
00000000
00000000
00000000
00100000
00000000
00010000
01000000
00010000
10000000
,  // measure 85
00020000
00000000
00000000
00000000
10030000
00000000
01000000
00000000
00000000
00000000
00100000
00000000
01000000
10000000
01000000
00100000
,  // measure 86
02000000
00000000
00000000
00000000
13000000
00000000
00010000
00000000
00000000
00000000
00100000
00000000
00001000
00010000
00001000
00000000
,  // measure 87
00021000
00000000
00030000
00001020
00000000
00000030
00002001
00000000
,  // measure 88
00003000
00020100
00000000
00030000
00011000
00000000
01001000
00000000
,  // measure 89
20020000
00000000
30030000
00000000
;
