#TITLE:Just Dance;
#SUBTITLE:;
#ARTIST:Lady GaGa;
#TITLETRANSLIT:;
#SUBTITLETRANSLIT:;
#ARTISTTRANSLIT:;
#GENRE:;
#CREDIT:;
#MENUCOLOR:;
#METERTYPE:DDR;
#BANNER:Just Dance-bn.png;
#BACKGROUND:Just Dance-bg.png;
#LYRICSPATH:;
#CDTITLE:ddrencorecdtitle.png;
#MUSIC:Just Dance.mp3;
#OFFSET:-2.049;
#SAMPLESTART:83.660;
#SAMPLELENGTH:11.980;
#SELECTABLE:YES;
#LISTSORT:10;
#BPMS:0.000=119.000;
#STOPS:;
#BGCHANGES:9.000=Just Dance.avi=1.000=1=0=0,
99999=-nosongbg-=1.000=0=0=0 // don't automatically add -songbackground-
;
#ATTACKS:;

//---------------dance-single - ----------------
#NOTES:
     dance-single:
     :
     Beginner:
     1:
     0.139,0.143,0.122,0.000,0.000:
0000
0000
0000
0000
,
0000
0000
0000
0000
,
0000
0000
0000
0000
,
1000
0000
0001
0000
,
1000
0000
0000
0000
,
0001
0000
1000
0000
,
0001
0000
0000
0000
,
0100
0000
0010
0000
,
1000
0000
0000
0000
,
0001
0000
0100
0000
,
0001
0000
0000
0000
,
1000
0000
0001
0000
,
0010
0000
0001
0000
,
1000
0000
0100
0000
,
1000
0000
0000
0000
,
0000
1001
0000
0110
,
0000
1001
0000
0000
,
0010
0000
0100
0000
,
0001
0000
1000
0000
,
0000
0110
0000
1000
,
1000
0000
0001
0000
,
0100
0000
0010
0000
,
1000
0000
0001
0000
,
1001
0000
0000
1000
,
1000
0000
0001
0000
,
1001
0000
0010
0000
,
0100
0000
0010
0000
,
0110
0000
0000
0001
,
0001
0000
1000
0000
,
1001
0000
0100
0000
,
1000
0000
0001
0001
,
0001
0000
1000
0000
,
0010
0000
0100
0000
,
0001
0000
1000
0000
,
0001
0000
0100
0000
,
1001
0000
0100
0000
,
0000
1000
1000
0000
,
1001
0000
0010
0000
,
0000
0001
0001
0000
,
1000
0000
0010
0000
,
0100
0000
0001
0000
,
0100
0000
0010
0000
,
1000
0000
0001
0000
,
1001
0000
0100
0000
,
0001
0000
1000
0000
,
0001
0000
1000
0000
,
0100
0100
0000
0000
,
1001
0000
0000
0000
;

//---------------dance-single - ----------------
#NOTES:
     dance-single:
     :
     Easy:
     4:
     0.246,0.262,0.152,0.111,0.000:
0000
0000
0000
0000
,
0000
0000
0000
0000
,
0000
0000
0000
0000
,
1000
0010
0100
0001
,
2000
0000
3001
0000
,
0100
0001
1000
0100
,
0020
0000
0031
0000
,
1000
1000
0001
0001
,
0200
0000
0000
0301
,
0001
0001
1000
1000
,
0020
0000
0000
1030
,
1000
0000
0001
0100
,
0001
0000
1000
0000
,
0100
0010
0001
0000
,
2000
0000
3020
0000
,
1030
1001
0000
0110
,
0000
0001
1000
0100
,
0000
0010
0000
0001
,
0001
1000
1000
0200
,
0300
1001
0000
0110
,
0001
0000
0100
0010
,
1000
0000
0001
1000
,
0200
0300
0200
0310
,
1001
1000
0001
1000
,
0001
0001
1000
1000
,
0110
0100
0010
0100
,
0010
0010
0100
0100
,
1001
1000
0100
0001
,
0100
1000
0100
0001
,
1001
0000
0110
0000
,
1001
0010
0010
0010
,
1000
0000
0001
0100
,
0001
0000
1000
0100
,
1000
0000
0010
0001
,
0010
0000
0100
1000
,
0200
1000
0000
1300
,
0002
0100
0000
0103
,
0010
0000
1000
0000
,
0001
0100
0010
1000
,
1001
0001
1000
0001
,
1000
1000
0001
0001
,
0110
0010
0100
0010
,
0100
0100
0010
0010
,
1001
0001
0010
1000
,
0010
0001
0010
1000
,
1001
0001
0100
1000
,
0100
0001
0100
1000
,
0110
0000
0000
0000
;

//---------------dance-single - ----------------
#NOTES:
     dance-single:
     :
     Medium:
     6:
     0.310,0.311,0.091,0.122,0.020:
0000
0000
0000
0000
,
0000
0000
0000
0000
,
0000
0000
0000
0000
,
1000
0000
0000
0001
0010
0000
0000
0100
,
1000
0001
0100
0001
,
1000
0000
0000
0010
0100
0000
0000
0001
,
1000
0010
0100
0001
,
1000
1000
0010
0010
,
0200
0000
0301
0001
,
1000
0100
1000
0001
,
0020
0000
0130
0100
,
1000
0000
0010
0000
0100
0001
0100
0000
,
0010
1000
0010
0000
0100
0000
0100
0000
,
0001
0000
0010
0000
0100
0000
1000
0001
,
1000
0000
1001
0000
,
0020
0130
0002
0103
,
0020
1030
0200
1300
,
0001
0100
0010
0100
,
0001
0000
1000
0000
0100
1000
0100
1000
,
0002
0013
0200
0310
,
0002
1003
0200
1300
,
0010
0100
0001
1000
,
0100
0010
0000
0100
0010
0000
0001
0000
,
1001
0000
0000
1000
0100
1000
0010
0000
,
0100
0001
1000
0010
,
0110
0000
0000
0001
0100
0001
1000
0000
,
0010
0010
0100
0001
,
1001
0000
0000
0010
0100
0001
1000
0000
,
0100
0100
0010
0010
,
0001
0000
0000
1001
0000
0000
1000
0000
,
0010
0000
0100
0000
0001
0001
0001
0000
,
1000
0000
0000
0000
0100
0000
0000
0010
0000
0000
0001
0000
0100
0000
0010
0000
,
1000
0000
0000
0000
0001
0000
0000
0100
0000
0000
0010
0000
1000
0000
0100
0000
,
1000
0000
0000
0000
0010
0000
0000
0010
0000
0000
0100
0000
0001
0000
1000
0000
,
0001
0000
0000
0000
0100
0000
0000
0100
0000
0000
0001
0000
1000
0000
0100
0000
,
0020
0000
0031
0001
,
0000
1000
0000
0010
0000
0000
1000
0000
,
1000
0000
0000
0001
0100
0000
0000
1000
,
0100
0000
0000
0010
0000
0010
0000
0001
,
0100
0000
0001
0000
1000
0010
1000
0000
,
0001
0010
0100
1000
,
1001
0000
0100
0000
0001
0010
0001
0000
,
1000
0010
0100
0001
,
1001
0000
0010
0000
1000
0010
1000
0000
,
0010
0000
0100
0000
0001
0010
0001
0000
,
1001
0010
0100
1000
,
1001
0000
0010
0000
0100
0100
0100
0000
,
0020
0030
0000
0000
;

//---------------dance-single - ----------------
#NOTES:
     dance-single:
     :
     Hard:
     7:
     0.395,0.381,0.071,0.162,0.020:
0000
0000
0000
0000
,
0000
0000
0000
0000
,
0000
0000
0000
0000
,
1000
0000
0100
0010
0001
0000
0100
0010
,
1000
0100
0001
0100
0000
0010
0000
0001
,
1000
0000
0001
0010
0100
0000
1000
0010
,
0001
0010
1000
0100
0000
1000
0000
0001
,
0010
0000
0001
0000
0100
0010
0100
0001
,
1000
0100
0001
0010
,
1000
0000
0001
0000
0010
0100
1000
0001
,
0100
1000
0010
0001
,
0100
0000
0010
0000
1000
0100
0001
0000
,
0001
0100
1000
0010
0001
0010
1000
0000
,
0001
0010
1000
0100
,
0001
0000
1000
0000
0010
0100
0001
0010
,
0100
0210
1300
1002
,
0103
0000
1020
0000
1030
0001
0100
0010
,
1000
0100
0001
0000
0100
0001
0010
0000
,
0001
0010
1000
0000
0010
1000
0100
0000
,
0001
0201
0310
1010
,
1001
0000
0100
0001
1000
0100
1000
0000
,
0010
0001
1000
0000
0001
0100
0001
0010
,
0200
0000
1300
0100
0200
0000
0300
0000
,
0001
0001
0002
0100
0100
0100
0103
0000
,
0010
1000
0100
1000
1000
0000
0010
0000
,
1000
1000
2000
0100
0100
0100
3100
0000
,
0010
0001
1000
0100
1000
0000
0001
0000
,
0010
0010
0020
0100
0100
0100
0130
0000
,
1000
0010
0100
0001
0001
0000
1000
0000
,
0010
0000
0000
0100
0001
0000
1000
0100
,
0000
0000
0010
0000
0001
0001
0001
0000
,
1000
0000
0000
0000
0010
0000
0000
0100
0001
0000
1000
0000
0100
0000
1000
0000
,
0010
0000
0000
0000
0100
0000
0000
0001
0010
0000
0100
0000
1000
0000
0001
0000
,
0010
0000
0000
0000
0001
0000
0000
0100
0010
0000
1000
0000
0100
0000
1000
0000
,
0001
0000
0000
0000
0010
0000
0000
0001
0100
0000
0001
0000
1000
0000
0100
0000
,
2000
0000
0010
0000
0001
0001
3001
0000
,
0100
0001
0010
1000
,
0002
0000
0003
0010
0200
0000
0300
1000
,
0020
0000
0030
1000
0000
0001
0000
0010
,
0001
0001
0002
1000
1000
1000
1003
0000
,
0010
0100
0001
1000
,
0100
0100
0200
0010
0010
0010
0310
0000
,
0001
0100
0010
1000
0001
1000
0010
0000
,
0100
0100
0200
0001
0001
0001
0301
0000
,
1000
0010
0100
0001
,
1000
0010
0100
0001
0000
1000
0100
0001
,
0000
0001
0100
0000
1000
0000
0010
0000
,
1001
0000
0000
0000
;

//---------------dance-double - ----------------
#NOTES:
     dance-double:
     :
     Easy:
     3:
     0.191,0.238,0.122,0.142,0.000:
00000000
00000000
00000000
00000000
,
00000000
00000000
00000000
00000000
,
00000000
00000000
00000000
00000000
,
10000000
00000000
00010000
00000000
,
01000000
00000000
00001000
00010000
,
00001000
00000000
00010000
00000000
,
00000010
00000000
00000100
00000001
,
00000200
00000301
00000002
00001003
,
00000100
00000000
00000100
00000000
,
00020000
00031000
00002000
00013000
,
00001000
00000000
00100000
00000000
,
00010000
00010000
00010000
00000000
,
10000000
10000000
10000000
00000000
,
00200000
01300000
02000000
03100000
,
01000000
00000000
00001000
00000000
,
00000000
00011000
00000000
00000100
,
00000000
00001000
00000001
00001000
,
00000000
00000010
00000000
00000100
,
00000000
00000001
00000100
00000001
,
00001000
00001000
00000000
00011000
,
00000000
00000000
00010000
00000000
,
00001000
00000000
01000000
00000000
,
00100000
00100000
00100000
00000000
,
10010000
00000000
01000000
00000000
,
00010000
00000000
00100000
00000000
,
00011000
00000000
00000100
00000000
,
00001000
00000000
00000010
00000000
,
00001001
00000000
00000100
00000000
,
00000001
00000000
00001000
00000000
,
00001001
00000000
00000100
00000000
,
00010000
00000000
00001000
00000000
,
00011000
00000000
00010000
00001000
,
00010000
00000000
00001000
01000000
,
00010000
00000000
10000000
00010000
,
10000000
00000000
01000000
00001000
,
00020000
00030000
00200000
00300000
,
00002000
00003000
00020000
00030000
,
00000200
00000300
00002000
00003000
,
00000020
00000030
00000200
00000300
,
00001001
00000000
00000100
00000000
,
00010000
00000000
00001000
00000000
,
00011000
00000000
01000000
00000000
,
00010000
00000000
10000000
00000000
,
10010000
00000000
00100000
00000000
,
01000000
00000000
00010000
00000000
,
10010000
00000000
01000000
00000000
,
00001000
00000000
00010000
00000000
,
00011000
00000000
00000000
00000000
;

//---------------dance-double - ----------------
#NOTES:
     dance-double:
     :
     Medium:
     5:
     0.272,0.333,0.071,0.172,0.000:
00000000
00000000
00000000
00000000
,
00000000
00000000
00000000
00000000
,
00000000
00000000
00000000
00000000
,
00001000
00010000
00000100
00001000
,
00000020
00000030
00000020
00000030
,
00001000
00000100
00010000
00001000
,
00200000
00300000
00020000
00030000
,
01000000
01000000
00010000
00010000
,
00200000
00000000
00001000
00301000
,
00010000
00000100
00001000
00000100
,
00020000
00000000
00001000
00031000
,
00100000
00010000
01000000
00010000
,
00100000
00100000
00001000
00001000
,
00010000
00000100
00001000
00000010
,
00000200
00000000
00000310
00000010
,
00000000
00001010
00000000
00011000
,
00000000
01010000
00010000
00100000
,
00020000
01030000
02000000
03001000
,
00020000
00030020
00020030
00030200
,
00001300
00011000
00000000
00100000
,
00110000
01000000
00010000
00100000
,
00001000
00010000
00001000
00010000
,
00000200
00000300
00000200
00000300
,
00001000
00000010
00001000
00000100
,
00010000
00000000
00001000
00000000
00010000
00001000
00010000
00000000
,
00001000
01000000
00010000
00100000
,
00010000
00000000
01000000
00000000
00010000
01000000
00010000
00000000
,
00100000
00001000
00010000
00000100
,
00001000
00000000
00000010
00000000
00001000
00000010
00001000
00000000
,
00000010
00010000
00001000
00010000
,
00000100
00001000
00000010
00001000
,
00000100
00000000
00010000
00000100
,
00001000
00000000
00000010
00010000
,
00001000
00000000
01000000
00010000
,
00100000
00000000
00001000
00010000
,
00012000
00000000
01003000
02000000
,
00000000
03010000
00010000
00000000
,
00100000
00001000
00010000
00000100
,
00001000
00000000
00000010
00000000
00001000
00000100
00001000
00000000
,
00000100
00010000
00001000
00100000
,
00010000
00000000
01000000
00000000
00010000
00100000
00010000
00000000
,
01000000
00001000
00010000
00000100
,
00001000
00000000
00000010
00000000
00001000
00000100
00001000
00000000
,
00000100
00010000
00001000
00100000
,
00010000
00000000
00100000
00000000
00001000
00010000
00001000
00000000
,
01000000
00010000
00100000
00001000
,
00000000
00010000
00000000
00000000
00001000
00010000
00001000
00000000
,
00011000
00000000
00000000
00000000
;

//---------------dance-double - ----------------
#NOTES:
     dance-double:
     :
     Hard:
     8:
     0.402,0.381,0.132,0.071,0.020: // measure 1
00000000
00000000
00000000
00000000
,  // measure 2
00000000
00000000
00000000
00000000
,  // measure 3
00000000
00000000
00000000
00000000
,  // measure 4
10000000
00100000
00010000
00100000
00000000
01000000
00010000
00100000
,  // measure 5
00000000
01000000
00010000
00001000
00000010
00000000
00000001
00000000
,  // measure 6
00000100
00000001
00000010
00000100
00000000
00010000
00001000
00000100
,  // measure 7
00000000
00000010
00001000
00000100
00010000
00000000
00001000
00000000
,  // measure 8
00011000
00000000
00100000
00000000
00010000
01000000
00010000
00100000
,  // measure 9
00002000
00010000
01000000
00013000
,  // measure 10
00011000
00000000
00000010
00000000
00001000
00000100
00001000
00000010
,  // measure 11
00020000
00000100
00001000
00030100
,  // measure 12
00010000
00000000
00001000
00000000
00100000
00010000
01000000
00000000
,  // measure 13
00100000
10000000
01000000
00010000
00001000
00010000
00000100
00000000
,  // measure 14
00001000
00000000
00000010
00000000
00000100
00000001
00000010
00000001
,  // measure 15
00002000
00000100
00000001
00003100
,  // measure 16
00010000
00010100
00001000
01001000
,  // measure 17
00100000
00000000
00101000
00000000
00010000
00000100
00001000
00000010
,  // measure 18
00000100
00000001
00001000
00000100
00000001
00000100
00010000
00001000
,  // measure 19
01000000
10000000
01000000
00010000
00100000
00010000
01000000
00000000
,  // measure 20
00010000
01010000
00100000
00101000
,  // measure 21
00011000
00000000
00000100
00000000
00001000
00000010
00000100
00000000
,  // measure 22
00000001
00001000
00000100
00000010
00001000
00010000
00100000
10000000
,  // measure 23
01000000
01000000
10000000
00010000
00010000
00000000
01000000
00000000
,  // measure 24
20010000
00000000
00100000
00000000
30010000
00010000
00010000
00000000
,  // measure 25
01000000
00000000
00001000
00000000
00100000
00001000
00010000
00000100
,  // measure 26
00001200
00000000
00010000
00000000
00001300
00001000
00001000
00000000
,  // measure 27
00000010
00000000
00000100
00000000
00000001
00001000
00000100
00000010
,  // measure 28
00000012
00000000
00000100
00000000
00001000
00001000
00001003
00000000
,  // measure 29
00000100
00000000
00010000
00000000
00001000
00100000
00010000
01000000
,  // measure 30
00001000
00000000
00100000
00000000
00010000
01000000
00100000
00000000
,  // measure 31
10000000
00000000
01000000
00000000
00100000
00010000
01000000
00001000
,  // measure 32
00010000
00000000
00000000
00000000
00000100
00000000
00000000
00001000
00000010
00000000
00000100
00000000
00000001
00000000
00001000
00000000
,  // measure 33
00000010
00000000
00000000
00000000
00010000
00000000
00000000
00000100
00001000
00000000
00000100
00000000
00010000
00000000
00001000
00000000
,  // measure 34
00100000
00000000
00000000
00000000
00010000
00000000
00000000
01000000
00010000
00000000
00100000
00000000
01000000
00000000
10000000
00000000
,  // measure 35
00010000
00000000
00000000
00000000
01000000
00000000
00000000
00010000
00100000
00000000
00001000
00000000
00010000
00000000
00000100
00000000
,  // measure 36
00002100
00000000
00000010
00000000
00003001
00000001
00000001
00000000
,  // measure 37
00001000
00000000
00000100
00000000
00010000
00000000
00001000
00100000
,  // measure 38
00010000
00000000
01000000
00010000
00010000
00000000
01000000
00100000
,  // measure 39
00100000
10000000
00010000
00100000
,  // measure 40
00001000
00010000
01000000
10000000
00100000
01000000
00100000
00000000
,  // measure 41
01000000
00010000
00100000
00001000
00010000
00000100
00000010
00000000
,  // measure 42
00000001
00000100
00000010
00000001
00000010
00001000
00000100
00000000
,  // measure 43
00010000
00001000
00100000
00010000
,  // measure 44
01000000
00010000
00100000
10000000
00100000
00001000
00010000
00000000
,  // measure 45
00000100
00001000
00000010
00000100
00000001
00000100
00001000
00000000
,  // measure 46
00010000
00100000
00010000
01000000
00001000
00010000
00001000
00000000
,  // measure 47
00100000
00000000
00001000
00000000
00010000
00000100
00010000
00000000
,  // measure 48
00011000
00000000
00000000
00000000
;
