#TITLE:Just Dance;
#SUBTITLE:[ANOTHER];
#ARTIST:Lady Gaga;
#TITLETRANSLIT:;
#SUBTITLETRANSLIT:;
#ARTISTTRANSLIT:;
#GENRE:;
#CREDIT:;
#MENUCOLOR:;
#METERTYPE:DDR;
#BANNER:Just Dance [A]-bn.png;
#BACKGROUND:Just Dance [A]-bg.png;
#LYRICSPATH:;
#CDTITLE:currentcdtitle.png;
#MUSIC:Just Dance [A].mp3;
#OFFSET:0.029;
#SAMPLESTART:44.520;
#SAMPLELENGTH:15.780;
#SELECTABLE:YES;
#LISTSORT:;
#BPMS:0.000=128.000,128.000=64.000,175.000=128.000;
#STOPS:175.000=5.625
;
#BGCHANGES:;
#ATTACKS:;

//---------------dance-single - ----------------
#NOTES:
     dance-single:
     :
     Challenge:
     9:
     0.541,0.917,0.348,0.096,0.452: // measure 1
0000
0000
0000
0000
,  // measure 2
0000
0000
0000
0000
,  // measure 3
0000
0000
0000
0000
,  // measure 4
0000
0000
0000
0010
,  // measure 5
2001
0000
0010
0010
3020
0000
1000
0000
,  // measure 6
0230
0000
0001
0302
0010
0000
1000
2003
,  // measure 7
3200
0000
0010
0010
0320
0000
0100
0000
,  // measure 8
0032
0000
1000
2003
0001
0000
0100
3100
,  // measure 9
0110
0010
0001
0100
1000
0100
0001
0010
,  // measure 10
0100
1000
0001
0010
0001
1000
0010
1000
,  // measure 11
0100
0001
0100
1000
0010
1000
0001
0010
,  // measure 12
0001
0100
1000
0100
0001
1000
0001
0100
,  // measure 13
1000
0100
0010
1000
0010
0100
0001
1000
,  // measure 14
0001
0010
0100
0001
0100
0010
0001
1000
,  // measure 15
0010
1000
0100
0001
0100
0010
0100
1000
,  // measure 16
0010
1000
0001
0010
0000
1001
0000
0001
,  // measure 17
1000
0001
0101
0000
0001
1000
1100
0000
,  // measure 18
1000
0100
0011
0000
0010
0001
1000
0010
,  // measure 19
0100
1000
0100
0001
0100
0010
0100
0001
,  // measure 20
1000
0010
0100
0010
0001
0010
0100
0010
,  // measure 21
1000
0000
1001
0000
0001
0010
1001
0000
,  // measure 22
0101
0000
1100
1000
0001
0010
0100
1000
,  // measure 23
0001
0100
0100
0001
1000
1000
0010
0100
,  // measure 24
0001
1000
0001
0010
0001
0000
0011
0000
,  // measure 25
1001
0000
0100
0000
0001
0000
0100
0010
1000
0000
0010
0000
0100
0000
0100
0000
,  // measure 26
0001
0010
1000
0010
0001
0010
0100
0000
,  // measure 27
1100
0000
0100
0000
0001
0000
0100
0010
0100
0000
0010
0000
0001
0000
0000
0000
,  // measure 28
1000
0010
0010
0001
0001
0010
1000
0100
,  // measure 29
1000
0000
0001
0000
0010
0000
0001
1000
0100
0000
1000
0000
1000
0000
0010
0000
,  // measure 30
0100
0101
0100
1100
0100
0101
0100
1100
,  // measure 31
0000
0010
0000
0101
0000
0010
0000
1100
,  // measure 32
0000
0001
0011
0000
1010
1001
0011
0000
,  // measure 33
2002
0000
0000
0000
0000
0000
0000
3003
,  // measure 34
1000
0100
1000
0100
0000
0000
1000
0000
0001
0100
0001
0100
0000
0000
0001
0000
1000
0010
1000
0010
0000
0000
1000
0001
1000
0001
1000
0001
1000
0000
0010
0000
,  // measure 35
0100
0001
0100
0001
0000
0000
1000
0000
0100
1000
0100
1000
0000
0000
0001
0000
0010
0001
0010
0001
0000
0000
1000
0010
1000
0010
1000
0010
0100
0000
0001
0000
,  // measure 36
1000
0100
1000
0100
0000
0000
0010
0000
0001
0100
0001
0100
0000
0000
0010
0000
1000
0001
1000
0001
0000
0000
0010
0001
0100
0010
0100
0010
1000
0000
0001
0000
,  // measure 37
1000
0000
0000
0000
0100
0000
0010
0001
0010
0000
0100
0000
1000
0001
1000
0000
0010
0000
1000
0010
1000
0000
0001
0000
0100
0000
0100
0000
1001
0000
0000
0000
,  // measure 38
0110
0000
0000
0000
0100
0000
0001
0100
0001
0000
1000
0000
0010
0000
1000
0000
0100
1000
0100
0000
0010
0000
0001
0000
1000
0000
1000
0000
0001
0000
0000
0000
,  // measure 39
1001
0000
0000
0000
1000
0000
0010
1000
0010
0000
0100
0000
0001
0100
0001
0000
1000
0010
0100
0001
0010
0100
1000
0000
0001
0000
0100
0000
0101
0000
0000
0000
,  // measure 40
1001
0000
0000
0000
0000
0000
0000
0000
0000
0010
0000
0001
0010
0000
0100
1000
0000
0010
0100
0000
0001
0010
0000
0000
0100
0000
0000
1000
0000
0000
0001
0000
0000
0100
0000
0000
0001
0000
0000
1000
0000
0000
0101
0000
0000
0000
0000
0000
,  // measure 41
1100
0010
0100
1000
0100
0010
0100
0001
0010
0001
1000
0001
0100
1000
0100
0001
,  // measure 42
1000
0000
0001
0100
1000
0100
0010
0100
0001
0010
0100
0000
1100
0000
0101
0000
,  // measure 43
1100
1000
0010
0001
0010
1000
0100
0010
0001
1000
0010
0100
0001
0010
0001
1000
,  // measure 44
0100
0000
0000
0000
0010
0000
0001
1000
0001
0000
0010
0000
0100
0000
1000
0100
1000
0000
0010
0000
0100
0000
0001
0000
1000
0000
0000
0000
0000
0000
0000
0000
,  // measure 45
0000
0000
0000
0000
,  // measure 46
0000
0000
0000
0000
1001
0000
0100
0000
0001
0000
0100
0010
1000
0000
0010
0000
,  // measure 47
0100
0100
0001
0010
1000
0010
0001
0010
,  // measure 48
0100
0000
0000
0000
1100
0000
0100
0000
0001
0000
0100
0010
0100
0000
0010
0000
,  // measure 49
0001
0000
1000
0010
0010
0001
0001
0010
,  // measure 50
1000
0000
0100
0000
1000
0000
0001
0000
0010
0000
0001
1000
0100
0000
1000
0000
,  // measure 51
1000
0010
0100
0101
0100
1100
0100
0101
,  // measure 52
0100
1100
0000
0010
0000
0101
0000
0010
,  // measure 53
0000
1100
0000
0001
0011
0000
1010
1001
,  // measure 54
0011
2002
0000
0000
,  // measure 55
0000
0000
0000
0000
,  // measure 56
3003
0000
0000
0000
;

//---------------dance-double - ----------------
#NOTES:
     dance-double:
     :
     Challenge:
     9:
     0.516,0.917,0.400,0.044,0.448:
00000000
00000000
00000000
00000000
,
00000000
00000000
00000000
00000000
,
00000000
00000000
00000000
00000000
,
00000000
00000000
00000000
00011000
,
00100010
00000000
00000000
00000000
,
10010000
00000000
00000000
00001001
00000000
00010000
00000000
00010000
,
00001000
00000000
00100000
00010000
01000000
00000000
00100000
10000000
,
00010000
00000000
00100000
00001000
00010000
00000100
00001000
00000010
,
00000110
00000100
00000001
00000100
00001000
00000100
00000001
00000010
,
00000100
00000000
00000000
00011000
00000000
00110000
00000000
10000000
,
01000000
00010000
01000000
10000000
00100000
00010000
00100000
10000000
,
00010000
00000000
00100000
00001000
00011000
00000000
00001010
00000000
,
00000110
00000100
00001000
00000100
00000001
00000100
00001000
00000000
,
00000100
00000010
00001000
00000100
00010000
00001000
01000000
00000000
,
10000000
01000000
00010000
00100000
01000000
00010000
01000000
00100000
,
00001000
00000000
00010000
00001100
00000000
00000110
00000000
00001000
,
00000011
00000100
00000101
00000000
00001100
00010000
00011000
00000000
,
00011000
00100000
00110000
00000000
01100000
01000000
10000000
00100000
,
00010000
00100000
10000000
01000000
00100000
00001000
00010000
00000100
,
00001000
00000010
00000001
00000010
00001000
00001000
00000100
00010000
,
00001000
00001100
00000000
00011000
,
01010000
00000000
10000000
01000000
00010000
01000000
10000000
00100000
,
01000000
00010000
00010000
00010000
00100000
00100000
00001000
00001000
,
00100000
00100000
00001000
00010000
00000100
00000000
00001100
00000000
,
00001001
00000000
00000001
00000000
00001000
00000000
00000010
00001000
00000100
00000000
00010000
00000000
00011000
00000000
00000000
00000000
,
00110000
00100000
00010000
10000000
10000000
01000000
00010000
00000000
,
01010000
01000000
00100000
00001000
00010000
00010000
00001000
00000000
,
00010000
00000100
00001000
00000001
00000100
00000000
00000101
00000000
,
00001100
00000000
00000100
00000000
00010000
00000000
00001000
01000000
00001000
00000000
01000000
00000000
00100000
00000000
00000000
00000000
,
10000000
00100000
10000000
00100000
00010000
00100000
00010000
00100000
,
01000000
00000000
00010000
00100000
00001000
00000000
00010000
00000010
,
00001000
00000000
00001010
00000000
00000101
00001100
00011000
00000000
,
00200020
00000000
00000000
00000000
00000000
00000000
00000000
00300030
,
00001000
00010000
00001000
00010000
00000000
00000000
00001000
00000000
01000000
00010000
01000000
00010000
00000000
00000000
01000000
00000000
00001000
00010000
00001000
00010000
00000000
00000000
00000100
00010000
00000100
00010000
00000100
00010000
00000100
00000000
00010000
00000000
,
00001000
00010000
00001000
00010000
00000000
00000000
00001000
00000000
00010000
00000010
00010000
00000010
00000000
00000000
00010000
00000000
00001000
00010000
00001000
00010000
00000000
00000000
00000010
00001000
00000010
00001000
00000010
00010000
00001000
00000000
00010000
00000000
,
00001000
01000000
00001000
01000000
00000000
00000000
00010000
00000000
00100000
00001000
00100000
00001000
00000000
00000000
00010000
00000000
00000100
00010000
00000100
00010000
00000000
00000000
00001000
00010000
00001000
00100000
00010000
00100000
00001000
00000000
00010000
00000000
,
00001000
00000000
00000000
00000000
00100000
00000000
00010000
00100000
00010000
00000000
00100000
00000000
01000000
10000000
01000000
00000000
10000000
00000000
00010000
00100000
00010000
00000000
00001000
00000000
00010000
00000000
00100000
00000000
00001000
00000000
00000000
00000000
,
00011000
00000000
00000000
00000000
00000100
00000000
00001000
00000100
00001000
00000000
00000010
00000000
00000100
00000000
00000001
00000000
00001000
00000001
00001000
00000000
00000001
00000000
00000010
00000000
00000011
00000000
00000010
00000000
00001100
00000000
00000000
00000000
,
00011000
00000000
00000000
00000000
00100000
00000000
00010000
00100000
00010000
00000000
01000000
00000000
00010000
01000000
00010000
00000000
10000000
00100000
10000000
01000000
00100000
00001000
00010000
00000000
00011000
00000000
00000010
00000000
00000100
00000000
00000000
00000000
,
00000101
00000000
00000000
00000000
00000000
00000000
00000000
00000000
00000000
00000001
00000000
00000010
00000100
00000000
00001000
00000100
00000000
00010000
00001000
00000000
01000000
00010000
00000000
00000000
10000000
00000000
00000000
01000000
00000000
00000000
00010000
00000000
00000000
01000000
00000000
00000000
10000000
00000000
00000000
00100000
00000000
00000000
01000000
00000000
00000000
00010000
00000000
00000000
,
00110000
10000000
01000000
00100000
00010000
01000000
00100000
00010000
00001000
00100000
00010000
00001000
00000100
00010000
00001000
00000100
,
00000020
00000000
00001030
00000100
00000100
00000001
00000001
00000100
00000100
00010000
00001000
00000000
00011000
00000000
00000100
00000000
,
00001100
00000001
00000010
00000100
00001000
00000010
00000100
00001000
00010000
00000100
00001000
00010000
00100000
00001000
00010000
00100000
,
02000000
00000000
00000000
00000000
13000000
00000000
00100000
10000000
00100000
00000000
01000000
00000000
00010000
00000000
00100000
00010000
00100000
00000000
00001000
00000000
00010000
00000000
00000100
00000000
00001000
00000000
00000000
00000000
00000000
00000000
00000000
00000000
,
00000000
00000000
00000000
00000000
,
00000000
00000000
00000000
00000000
00100010
00000000
00000000
00000000
00000000
00000000
00000010
00001000
00000100
00000000
00010000
00000000
,
00011000
00000000
00110000
00100000
00010000
10000000
10000000
01000000
,
00010000
00000000
01010000
01000000
00100000
00001000
00010000
00010000
,
00001000
00000000
00010000
00000100
00001000
00000001
00000100
00000000
,
00000101
00000000
00000000
00000000
00001100
00000000
00000100
00000000
00010000
00000000
00001000
01000000
00001000
00000000
01000000
00000000
,
00100000
00000000
10000000
00100000
10000000
00100000
00010000
00100000
,
00010000
00100000
01000000
00000000
00010000
00100000
00001000
00000000
,
00010000
00000010
00001000
00000000
00001010
00000000
00000101
00001100
,
00011000
00200020
00000000
00000000
,
00000000
00000000
00000000
00000000
,
00300030
00000000
00000000
00000000
;
