#TITLE:Jumping and Pumping;
#SUBTITLE:(Mainfield Mix);
#ARTIST:Roxx;
#TITLETRANSLIT:;
#SUBTITLETRANSLIT:;
#ARTISTTRANSLIT:;
#GENRE:;
#CREDIT:;
#MENUCOLOR:;
#METERTYPE:DDR;
#BANNER:Jumping and Pumping (Mainfield Mix)-bn.png;
#BACKGROUND:Jumping and Pumping (Mainfield Mix)-bg.png;
#LYRICSPATH:;
#CDTITLE:ddrencorecdtitle.png;
#MUSIC:Jumping and Pumping (Mainfield Mix).mp3;
#OFFSET:-0.009;
#SAMPLESTART:65.100;
#SAMPLELENGTH:13.800;
#SELECTABLE:YES;
#LISTSORT:;
#BPMS:0.000=139.999,82.000=130.000,82.500=120.000,83.000=110.000,84.000=101.000,84.250=91.000,84.500=80.000,85.000=69.999,102.000=104.999,126.000=139.999;
#STOPS:;
#BGCHANGES:;
#ATTACKS:;

//---------------dance-single - ----------------
#NOTES:
     dance-single:
     :
     Hard:
     8:
     0.490,0.599,0.105,0.201,0.583: // measure 1
0000
0000
0000
0000
,  // measure 2
0000
0000
0000
0000
,  // measure 3
0000
0000
0000
0000
,  // measure 4
0000
0000
0000
0000
,  // measure 5
0001
0010
0001
0100
,  // measure 6
0010
1000
0001
0001
,  // measure 7
1000
0010
1000
0100
,  // measure 8
0010
0001
1000
1000
,  // measure 9
0001
0000
0000
0010
0001
0000
0000
0000
1000
0000
0000
0010
1000
0000
0000
0000
,  // measure 10
0100
0000
0000
0010
0001
0000
0000
0000
0100
0000
0000
0010
1000
0000
0000
0000
,  // measure 11
0001
0000
0000
0001
0100
0000
0000
0000
0010
0000
0000
0010
1000
0000
0000
0000
,  // measure 12
0001
0010
0100
1000
0010
0000
0010
0000
,  // measure 13
1001
0000
0000
0000
1000
0000
0010
0000
0100
0000
0000
0001
0000
1000
0000
0100
,  // measure 14
0000
0000
0010
0000
0010
0000
0100
0000
0100
0000
0000
1000
0000
0001
0100
0000
,  // measure 15
0000
0000
0100
0000
0001
0000
0010
0000
0100
0000
0000
1000
0000
0001
0000
0100
,  // measure 16
0000
0000
0010
0000
0010
0000
0100
0000
0100
0001
0000
0010
0000
0100
1000
0000
,  // measure 17
0000
0000
1000
0000
0001
0100
0001
0000
0100
0000
0100
0010
0000
1000
0000
0001
,  // measure 18
0000
0000
0100
0000
0100
0000
0010
0000
0010
1000
0000
0100
0000
0010
0001
0000
,  // measure 19
0000
0000
1000
0000
0100
0000
1000
0000
0010
0000
0010
0100
0000
0001
0000
1000
,  // measure 20
0000
0001
0010
0001
0100
0000
0010
0000
,  // measure 21
2002
0000
0000
0000
,  // measure 22
0000
0000
0000
0000
3003
0000
0000
0000
0100
0000
0000
0100
1000
0010
1000
0100
,  // measure 23
0010
0000
0000
0010
0001
0100
0001
0010
0100
0000
0000
1000
0000
0000
0010
0100
,  // measure 24
0000
0000
0000
0000
0010
0000
0000
0010
0100
0000
0000
0100
0001
0010
0001
0100
,  // measure 25
0010
0000
0000
0010
1000
0100
1000
0010
0100
0000
0000
0001
0000
0000
0010
0100
,  // measure 26
0000
0000
0000
0000
0000
0000
0000
0000
0010
0000
0000
0000
0000
0000
0000
0000
1001
0000
0000
0000
0000
0000
0001
0000
0000
0100
0000
0000
0010
0000
0000
0000
,  // measure 27
0000
1000
0000
0000
0000
0000
0000
0001
0000
0000
0000
0000
0000
0010
0000
0000
0000
0000
0000
0000
0000
0000
0100
0000
0000
0000
0000
0000
0100
0000
0000
0000
0000
0000
0010
0000
0000
0000
0000
0000
0010
0000
0000
0000
0000
0000
0000
0000
0000
0001
0000
0000
0000
0000
0000
1000
0000
0000
0010
0000
0000
0000
0000
0000
,  // measure 28
0000
0000
0000
0000
0000
0000
0010
0000
0000
0000
0000
0000
1000
0000
0000
0000
0000
0000
0100
0000
0000
0000
0000
0000
0010
0000
0000
0000
0000
0000
0000
0000
0000
0001
0000
0000
0000
0000
0000
1000
0000
0000
0000
0000
0000
0010
0000
0000
0000
0000
0000
0000
0000
0000
0100
0000
0000
0000
0000
0000
0100
0000
0000
0000
,  // measure 29
0000
0000
0010
0000
0000
0000
0000
0000
0010
0000
0000
1000
0000
0000
0000
0000
0000
0100
0000
0000
0000
0000
0000
0010
0000
0000
0001
0000
0000
0000
0000
0000
0000
0000
0000
0000
0000
0000
0001
0000
0000
0000
0000
0000
1000
0000
0000
0010
0000
0000
1000
0000
0000
0000
0000
0000
0010
0000
0000
0000
0000
0000
0010
0000
,  // measure 30
0000
0100
0000
0000
0000
0000
0000
0001
0000
0000
0000
0000
0000
1000
0000
0000
0000
0000
0000
0000
0000
0000
0010
0000
0000
0000
0000
0000
0010
0000
0000
0000
0000
0000
0100
0000
0000
0000
0000
0000
0100
0000
0000
0001
0000
0000
0000
0000
0000
0010
0000
0000
0000
0000
0000
0100
0000
0000
1000
0000
0000
0000
0000
0000
,  // measure 31
0000
0000
0000
0000
0000
0000
0001
0000
0000
0000
0000
0000
0010
0000
0000
0000
0000
0000
0001
0000
0000
0000
0000
0000
0100
0000
0000
0000
0000
0000
0100
0000
0000
0010
0000
0000
0000
0000
0000
1000
0000
0000
0000
0000
0000
0001
0000
0000
0000
0000
0000
0000
0000
0000
1000
0000
0000
0000
0000
0000
0100
0000
0000
0000
,  // measure 32
0000
1000
0000
0000
0010
0000
0000
0000
0000
0000
0100
0000
0000
0000
0000
0000
1001
0000
0000
0000
0001
0000
0000
0000
0010
0000
0000
0000
0001
0000
0000
0000
,  // measure 33
0100
0000
0010
0001
0000
0010
0000
0100
0001
0000
0010
0000
0100
0000
0001
0000
,  // measure 34
0100
0010
0000
0001
0000
0100
0020
0000
0000
0000
1030
0000
0100
0000
1000
0000
,  // measure 35
0010
0000
0100
1000
0000
0100
0000
0010
1000
0000
0100
0000
0010
0000
1000
0000
,  // measure 36
0010
0100
0000
1000
0000
0010
0100
0000
0010
0000
1000
0000
0010
0001
0010
0000
,  // measure 37
1000
0000
0001
0010
0000
1000
0000
0010
0001
0000
1000
0000
0010
0000
0001
0000
,  // measure 38
0010
1000
0000
0001
0000
0001
2000
0000
0000
0000
3001
0000
0100
0000
1000
0000
,  // measure 39
0100
0000
0001
1000
0000
0100
0000
0001
0100
0000
1000
0000
0001
0000
0100
0000
,  // measure 40
1000
0100
0000
0001
0000
1000
0001
0000
2002
0000
0000
0000
0000
0000
0000
0000
,  // measure 41
0000
0000
3003
0000
1000
0010
0100
0000
,  // measure 42
0001
0000
0010
0100
0010
0000
0000
0000
0001
0000
0000
0000
0101
0000
1000
0000
,  // measure 43
0000
1100
0010
0000
2000
0000
3200
0000
,  // measure 44
0302
0023
2030
3001
,  // measure 45
0020
0000
0100
0200
0000
0330
1000
0000
,  // measure 46
0001
0100
0010
1000
0100
0000
0011
1000
,  // measure 47
0000
1010
0100
0000
0002
0000
0023
0000
,  // measure 48
2030
3200
0302
1003
,  // measure 49
0200
0000
0000
0020
0000
0330
0001
0000
,  // measure 50
1000
0001
0000
0000
1001
0000
0000
0000
1000
0000
0000
0000
0100
0000
0000
0000
,  // measure 51
1000
0010
0100
0001
,  // measure 52
1000
0010
0010
0100
,  // measure 53
0001
0010
0100
1000
,  // measure 54
0001
1000
0000
0000
1001
0000
0000
0000
0200
0000
0000
0000
0000
0000
0000
0000
,  // measure 55
0000
0000
0300
0000
;

//---------------dance-single - ----------------
#NOTES:
     dance-single:
     :
     Beginner:
     1:
     0.093,0.153,0.038,0.038,0.000:
0000
0000
0000
0000
,
0000
0000
0000
0000
,
0000
0000
0000
0000
,
0000
0000
0000
0000
,
1000
0000
0000
0000
,
0001
0000
0000
0000
,
0001
0000
0000
0000
,
1000
0000
0000
0000
,
0010
0000
0000
0000
,
0100
0000
0000
0000
,
0100
0000
0000
0000
,
1001
0000
0000
0000
,
0001
0000
0000
0000
,
0100
0000
0000
0000
,
0001
0000
0000
0000
,
0100
0000
0000
0000
,
0010
0000
0000
0000
,
1000
0000
0000
0000
,
0010
0000
0000
0000
,
1000
0000
0000
0000
,
2002
0000
0000
0000
,
0000
3003
1000
0000
,
0010
0000
1000
0000
,
0001
0000
1000
0000
,
0100
0000
1000
0000
,
0001
0000
1001
0000
,
0000
0000
0000
0000
,
0001
0000
0000
0000
,
0000
0000
0010
0000
,
0000
0000
0000
0000
,
0100
0000
0000
0000
,
0000
0000
1000
0000
,
1000
0000
1000
0000
,
0000
0000
0001
0000
,
0001
0000
0001
0000
,
0000
0000
1000
0000
,
0001
0000
1000
0000
,
0000
0000
0001
0000
,
1000
0000
0001
0000
,
0000
0000
1001
0000
,
0000
0000
0000
0000
,
0000
0000
0002
0000
,
0003
0100
0100
0000
,
0010
0000
1000
0000
,
0000
0000
0010
0000
,
0010
0000
2000
0000
,
3000
0100
0100
0000
,
0010
0000
0001
0000
,
0000
0000
0100
0000
,
0000
0000
0010
0000
,
0000
0000
0010
0000
,
0000
0000
0010
0000
,
0000
0000
0010
0000
,
0000
0000
0100
0000
;

//---------------dance-single - ----------------
#NOTES:
     dance-single:
     :
     Easy:
     3:
     0.182,0.208,0.067,0.076,0.000:
0000
0000
0000
0000
,
0000
0000
0000
0000
,
0000
0000
0000
0000
,
0000
0000
0000
0000
,
0100
0010
0000
0010
,
0000
0010
0000
1000
,
0001
0100
0000
0100
,
0000
0100
0000
0010
,
1000
0001
0000
0001
,
0000
0001
0000
0010
,
0001
1000
0000
2000
,
0002
0000
0000
3003
,
1001
0000
0100
0001
,
0010
0000
0100
0000
,
1000
0000
0010
1000
,
0100
0000
0010
0000
,
0001
0000
0010
0001
,
1000
0000
0100
0000
,
1000
0000
0100
1000
,
0001
0000
0010
0000
,
2002
0000
0000
0000
,
0000
3003
0001
0000
,
1000
0000
0100
0000
,
0001
0000
1000
0000
,
0001
0000
0100
0000
,
1000
0000
0000
0000
1001
0000
0000
1000
,
0000
0000
0010
0000
0000
0100
0000
0000
,
0001
0000
0000
1000
0000
0000
0100
0000
,
0000
0010
0000
0000
0001
0000
0000
0100
,
0000
0000
0010
0000
0000
1000
0000
0000
,
0001
0000
0000
0010
0000
0000
0100
0000
,
0000
1000
0000
0000
0001
0000
0000
0000
,
0100
0001
1000
0000
,
0100
0000
1000
0000
,
0010
1000
0001
0000
,
0100
0000
0010
0000
,
0100
0001
0010
0000
,
0100
0000
0010
0000
,
0100
1000
0010
0000
,
0100
0000
2002
0000
,
0000
3003
1001
0000
,
0000
0000
1000
0000
,
0100
0000
0010
0001
,
0100
0010
1000
0000
,
0001
0000
0001
0010
,
0000
0010
0001
0000
,
0100
0000
0010
1000
,
0100
0010
0001
0000
,
1000
0000
0001
0000
,
1001
0000
0010
0100
,
0000
0100
0000
0100
,
0000
0001
1000
0010
,
0000
0010
0000
0010
,
0000
0100
2002
0000
,
0000
0000
3003
0000
;

//---------------dance-single - ----------------
#NOTES:
     dance-single:
     :
     Medium:
     5:
     0.272,0.286,0.143,0.191,0.043:
0000
0000
0000
0000
,
0000
0000
0000
0000
,
0000
0000
0000
0000
,
0000
0000
0000
0000
,
0010
1000
0000
1000
,
0001
0010
0000
0010
,
0001
0100
0000
0100
,
0010
1000
0000
1000
,
0001
0101
0000
0001
,
1000
1100
0000
1000
,
0001
0110
0000
0002
,
2000
0000
0000
3003
,
1001
0000
0100
0000
,
0001
1000
0010
0100
,
0100
0000
0010
0000
,
1000
0100
0010
0001
,
1000
0000
0010
0000
,
1000
0010
1000
0001
,
0100
0000
0001
0000
,
0001
0000
0100
0000
0001
1000
0010
0000
,
2002
0000
0000
0000
,
0000
3003
1000
0100
,
1000
0000
0000
0000
0100
0000
0000
0000
0010
0000
0000
0010
0000
0000
0100
0000
,
2000
3000
0001
0100
,
0001
0000
0000
0000
0100
0000
0000
0000
0010
0000
0000
0010
0000
0000
0100
0000
,
0002
0000
0003
0000
1001
0000
0000
0010
,
0000
0000
0000
0000
1000
0000
0000
0001
0000
0000
0100
0000
0000
0010
0000
0000
,
0010
0000
0000
0000
0000
0000
0100
0000
0000
0000
0000
0000
0001
0000
0000
0010
,
0000
0000
0100
0000
0000
1000
0000
0000
0001
0000
0000
0000
0000
0000
0100
0000
,
0000
0000
0000
0000
0001
0000
0000
0100
0000
0000
0001
0000
0000
1000
0000
0000
,
0010
0000
0000
0000
0000
0000
1000
0000
0000
0000
0000
0000
0001
0000
0000
1000
,
0000
0010
0000
0000
1000
0000
0100
0000
,
1000
0100
0010
0001
,
0100
0000
0001
0100
0001
0000
0010
0000
,
0001
0010
0100
1000
,
0010
1000
0001
0000
0100
0000
0010
0000
,
0100
0010
1000
0100
,
0010
0000
0001
0010
0001
0000
1000
0000
,
0001
1000
0010
0100
,
0001
1000
2002
0000
,
0000
3003
1001
0000
,
0000
0000
0110
0000
0002
0000
0000
0023
,
0000
0130
1000
0001
,
0100
0010
2000
0010
,
3001
0000
0200
0020
0000
0000
0330
0000
,
1000
0001
1000
0000
2000
0000
0000
3200
,
0000
0310
0001
1000
,
0010
0100
0002
0000
,
0023
0000
0000
0200
0000
0000
0330
0000
,
0000
1001
0100
0101
,
0000
0001
1000
1100
,
0000
0100
1000
1010
,
0000
0010
0100
0110
,
0010
0000
2002
0000
,
0000
0000
3003
0000
;

//---------------dance-double - ----------------
#NOTES:
     dance-double:
     :
     Hard:
     8:
     0.490,0.521,0.210,0.134,0.559:
00000000
00000000
00000000
00000000
,
00000000
00000000
00000000
00000000
,
00000000
00000000
00000000
00000000
,
00000000
00000000
00000000
00000000
,
10000000
00000000
00000000
00000000
00010000
00000000
00000000
00000000
00100000
00000000
00000000
00100000
00001000
00000000
00000000
00000000
,
00010000
00000000
00000000
00000000
00000010
00000000
00000000
00000000
00001000
00000000
00000000
00000001
00000100
00000000
00000000
00000000
,
00000001
00000000
00000000
00000000
00001000
00000000
00000000
00000000
00000010
00000000
00000000
00000010
00010000
00000000
00000000
00000000
,
00001000
00000000
00000000
00000000
01000000
00000000
00000000
00000000
00010000
00000000
00000000
10000000
00010000
00000000
00000000
00000000
,
10000000
00000000
00010000
00000000
01000000
00000000
00000000
00000000
00100000
00000000
00000000
00100000
01000000
00000000
00000000
00000000
,
00010000
00000000
01000000
00000000
00001000
00000000
00000000
00000000
00010000
00000000
00000000
00010000
00001000
00000000
00000000
00000000
,
00010000
00000000
00000100
00000000
00001000
00000000
00000000
00000000
00000010
00000000
00000000
00000010
00000100
00000000
00000000
00000000
,
00000001
00001000
00000001
00000000
00001000
00000001
00001000
00000000
00000000
00000000
00000000
00000000
00000010
00000000
00000000
00000000
,
00001000
00000000
00000100
00000000
00001000
00000000
00000000
00000000
00000010
00000000
00000000
00010000
00000000
00001000
00000000
00010000
,
00000000
00000000
00010000
00000000
00000100
00000000
00000000
00000000
00001000
00000000
00000000
00000010
00000000
00000000
00010000
00000000
,
00000000
00000000
00010000
00000000
00001000
00000000
00000000
00000000
00100000
00000000
00000000
00010000
00000000
01000000
00000000
00010000
,
00000000
00000000
00010000
00000000
10000000
00000000
00000000
00000000
00100000
10000000
00000000
00010000
00000000
10000000
00100000
00000000
,
00000000
00000000
10000000
00000000
01000000
00000000
01000000
00000000
00100000
00000000
00000000
00001000
00000000
00010000
00000000
00001000
,
00000000
00000000
00001000
00000000
01000000
00000000
00000000
00000000
00010000
00000000
00000000
00100000
00000000
00000000
00001000
00000000
,
00000000
00000000
00001000
00000000
00010000
00000000
00010000
00000000
00000010
00000000
00000000
00001000
00000000
00000100
00000000
00001000
,
00000000
00000000
00001000
00000000
00000001
00000000
00000000
00000000
00000100
00000001
00000000
00001000
00000000
00000001
00000100
00000000
,
00000020
00000000
00000000
00000000
,
00000000
00000000
00000000
00000000
00000000
00000000
00000030
00000000
00000100
00000000
00000000
00000100
00000001
00000010
00001000
00010000
,
01000000
00000000
00000000
01000000
10000000
00100000
00010000
00100000
10000000
00000000
00000000
01000000
00000000
00000000
00100000
00000000
,
00002000
00000000
00000000
00000000
01003000
00000000
00000000
00000000
00100000
00000000
00000000
00100000
10000000
01000000
00010000
00001000
,
00000010
00000000
00000000
00000010
00000001
00000100
00001000
00000100
00000001
00000000
00000000
00000010
00000000
00000000
00000100
00000000
,
00020000
00000000
00000000
00000000
00000000
00000000
00000000
00000000
00030010
00000000
00000000
00000000
00000000
00000000
00000000
00000000
00001000
00000000
00000000
00000100
00000000
00000000
00001000
00000000
00000000
00000000
00000000
00000000
00000010
00000000
00000000
00000000
,
00000000
00010000
00000000
00000000
00000000
00000000
00000000
00001000
00000000
00000000
00000000
00000000
00000000
00010000
00000000
00000000
00000000
00000000
00000000
00000000
00000000
00000000
00010000
00000000
00000000
00000000
00000000
00000000
00000100
00000000
00000000
00000000
00000000
00000000
00000000
00000000
00000000
00000000
00000000
00000000
00001000
00000000
00000000
00000000
00000000
00000000
00000000
00000000
00000000
00000010
00000000
00000000
00000000
00000000
00000000
00000000
00000000
00000000
00010000
00000000
00000000
00000000
00000000
00000000
,
00000000
00000000
00000000
00000000
00000000
00000000
00010000
00000000
00000000
00000000
00000000
00000000
00001000
00000000
00000000
00000000
00000000
00000000
00000000
00000000
00000000
00000000
00000000
00000000
00100000
00000000
00000000
00000000
00000000
00000000
00000000
00000000
00000000
00010000
00000000
00000000
00000000
00000000
00000000
01000000
00000000
00000000
00000000
00000000
00000000
00010000
00000000
00000000
00000000
00000000
00000000
00000000
00000000
00000000
00010000
00000000
00000000
00000000
00000000
00000000
10000000
00000000
00000000
00000000
,
00000000
00000000
00000000
00000000
00000000
00000000
00000000
00000000
00100000
00000000
00000000
10000000
00000000
00000000
00000000
00000000
00000000
00010000
00000000
00000000
00000000
00000000
00000000
10000000
00000000
00000000
00100000
00000000
00000000
00000000
00000000
00000000
00000000
00000000
00000000
00000000
00000000
00000000
10000000
00000000
00000000
00000000
00000000
00000000
01000000
00000000
00000000
00000000
00000000
00000000
01000000
00000000
00000000
00000000
00000000
00000000
00100000
00000000
00000000
00000000
00000000
00000000
00000000
00000000
,
00000000
00001000
00000000
00000000
00000000
00000000
00000000
00010000
00000000
00000000
00000000
00000000
00000000
00001000
00000000
00000000
00000000
00000000
00000000
00000000
00000000
00000000
00001000
00000000
00000000
00000000
00000000
00000000
01000000
00000000
00000000
00000000
00000000
00000000
00000000
00000000
00000000
00000000
00000000
00000000
00010000
00000000
00000000
00000000
00000000
00000000
00000000
00000000
00000000
00100000
00000000
00000000
00000000
00000000
00000000
00000000
00000000
00000000
00001000
00000000
00000000
00000000
00000000
00000000
,
00000000
00000000
00000000
00000000
00000000
00000000
00001000
00000000
00000000
00000000
00000000
00000000
00010000
00000000
00000000
00000000
00000000
00000000
00010000
00000000
00000000
00000000
00000000
00000000
00000010
00000000
00000000
00000000
00000000
00000000
00000000
00000000
00000000
00001000
00000000
00000000
00000000
00000000
00000000
00000100
00000000
00000000
00000000
00000000
00000000
00001000
00000000
00000000
00000000
00000000
00000000
00000000
00000000
00000000
00001000
00000000
00000000
00000000
00000000
00000000
00000001
00000000
00000000
00000000
,
00000000
00000000
00000000
00000000
00000000
00000000
00000000
00000000
00000100
00000000
00000000
00000000
00000000
00000000
00000010
00000000
00000000
00000100
00000000
00000000
00000010
00000000
00000000
00000000
00000000
00000000
00000000
00000000
00000000
00000000
00000000
00000000
00001000
00000000
00000000
00000000
00000000
00000000
00000000
00000000
00000010
00000000
00000000
00000000
00000000
00000000
00000000
00000000
00000100
00000000
00000000
00000000
00000000
00000000
00000000
00000000
00000001
00000000
00000000
00000000
00000000
00000000
00000000
00000000
,
00000010
00000000
00000100
00010000
00000000
00001000
00000000
00010000
00000100
00000000
00001000
00000000
00000010
00000000
00010000
00000000
,
00001000
01000000
00000000
00100000
00000000
01000000
00001000
00000000
00100000
00000000
00010000
00000000
01000000
00000000
00100000
00000000
,
10000000
00000000
01000000
00100000
00000000
00010000
00000000
00100000
01000000
00000000
10000000
00000000
00010000
00000000
01000000
00000000
,
00100000
10000000
00000000
00100000
00000000
01000000
00020000
00000000
00000000
00000000
00130000
00000000
00001000
00010000
00001000
00000000
,
00010000
00000000
00000010
00001000
00000000
00000100
00000000
00001000
00000010
00000000
00000100
00000000
00000001
00000000
00001000
00000000
,
00000100
00000010
00000000
00000001
00000000
00000010
00000100
00000000
00001000
00000000
00000010
00000000
00010000
00000000
00001000
00000000
,
01000000
00000000
00010000
00100000
00000000
00001000
00000000
00100000
00010000
00000000
01000000
00000000
00100000
00000000
10000000
00000000
,
00010000
01000000
00000000
00001000
00000000
01000000
00010000
00000000
10000000
00000000
00000000
00000000
00100000
00000000
00000000
00000000
,
01000000
00000000
00010000
00000000
00100000
00000000
00000000
00000000
00001000
00010000
00001000
00000000
00010000
00001000
00010000
00000000
,
00000010
00000000
00010000
00001000
00010000
00000000
00000000
00000000
00001200
00000000
00000000
00000000
00000300
00000000
00000012
00000000
,
00000000
00000003
00001001
00000000
00001010
00000000
00010010
00000000
,
00011000
00101000
00021000
00030100
,
00012000
00000000
00103000
00010000
01000000
00000000
10010000
00000000
,
00100000
01000000
00001000
00100000
00210000
00000000
00300000
12000000
,
00000000
03000000
10010000
00000000
00110000
00000000
00101000
00000000
,
00011000
00010010
00012000
01003000
,
00021000
00000000
00030000
00001020
00000000
00000000
00000130
00000000
,
00000001
00001000
00000000
00000000
00001001
00000000
00000000
00000000
00000010
00000000
00000000
00000000
00001000
00000000
00000000
00000000
,
00000100
00000000
00000000
00000100
00010000
00000000
00000000
00000000
00001000
00000000
00000000
00000000
01000000
00000000
00000000
00000000
,
00010000
00000000
00000000
00010000
01000000
00000000
00000000
00000000
00001000
00000000
00000000
00000000
00010000
00000000
00000000
00000000
,
00000010
00000000
00000000
00000010
00000100
00000000
00000000
00000000
00000001
00000000
00001000
00000000
00000010
00000000
00000000
00000000
,
00010000
00001000
00000000
00000000
00011000
00000000
00000000
00000000
02000000
00000000
00000000
00000000
00000000
00000000
00000000
00000000
,
00000000
00000000
03000000
00000000
;

//---------------dance-double - ----------------
#NOTES:
     dance-double:
     :
     Easy:
     2:
     0.128,0.156,0.019,0.096,0.000:
00000000
00000000
00000000
00000000
,
00000000
00000000
00000000
00000000
,
00000000
00000000
00000000
00000000
,
00000000
00000000
00000000
00000000
,
00000000
00010000
00000000
00001000
,
00000000
00010000
00000000
00001000
,
00000000
00100000
00000000
01000000
,
00000000
00100000
00000000
00100000
,
00000000
00001000
00000000
00010000
,
00000000
00001000
00000000
00010000
,
00000000
00000100
00000000
00000010
,
00000200
00000000
00000000
00000300
,
00000010
00000000
00000010
00000000
,
00000000
00000000
00000000
00000000
,
00000001
00000000
00000001
00000000
,
00000000
00000000
00000000
00000000
,
00001000
00000000
00001000
00000000
,
00000000
00000000
00000000
00000000
,
00000100
00000000
00000100
00000000
,
00000000
00000000
00010000
00000000
,
00022000
00000000
00000000
00000000
,
00000000
00000000
00000000
00033000
00001000
00000000
00000000
00000000
,
01000000
00000000
00010000
00000000
,
20000000
00000000
30010000
00000000
,
01000000
00000000
00001000
00000000
,
00020000
00000000
00000000
00000000
00031000
00000000
00000000
00001000
,
00000000
00000000
00000000
00000000
,
01000000
00000000
00000000
01000000
00000000
00000000
00000000
00000000
,
00000000
00000000
00000000
00000000
00010000
00000000
00000000
00010000
,
00000000
00000000
00000000
00000000
,
10000000
00000000
00000000
10000000
00000000
00000000
00000000
00000000
,
00000000
00010000
00000000
00000000
10000000
00000000
00000000
00000000
,
01000000
00000000
00100000
00000000
,
00100000
00000000
00001000
00000000
,
00010000
00000000
00000010
00000000
,
00000010
00000000
00000100
00000000
,
00000001
00000000
00001000
00000000
,
00001000
00000000
00000010
00000000
,
00010000
00000000
00001000
00000000
,
00001000
00000000
00011000
00000000
,
00000000
00000000
00000000
00000000
,
00000000
00000000
00100000
00000000
,
00001000
00000000
00010000
00000000
,
00000010
00000000
00000100
00000000
,
00000002
00000000
00002000
00000000
,
00003003
00000000
00000010
00000000
,
00010000
00000000
00001000
00000000
,
01000000
00000000
00100000
00000000
,
20000000
00000000
00020000
00000000
,
30030000
00000000
10000000
00000000
,
00010000
00000000
01000000
00000000
,
00001000
00000000
00010000
00000000
,
00000010
00000000
00001000
00000000
,
00000001
00000000
00000200
00000000
,
00000000
00000000
00000300
00000000
;

//---------------dance-double - ----------------
#NOTES:
     dance-double:
     :
     Medium:
     5:
     0.280,0.312,0.076,0.134,0.110:
00000000
00000000
00000000
00000000
,
00000000
00000000
00000000
00000000
,
00000000
00000000
00000000
00000000
,
00000000
00000000
00000000
00000000
,
00000010
00000100
00000000
00000010
,
00010000
00001000
00000000
01000000
,
00010000
00100000
00000000
01000000
,
10000000
00010000
01000000
00010000
,
00100000
01000000
00000000
00100000
,
00001000
00010000
00000000
00000100
,
00001000
00000010
00000000
00000100
,
00002002
00000000
00000000
00003003
,
00000010
00000000
00000000
00000000
00000010
00000000
00000000
00000000
00001000
00000000
00000000
00000001
00000000
00000100
00000000
00000001
,
00000000
00000001
00000100
00000010
,
00010000
00000000
00000000
00000000
00010000
00000000
00000000
00000000
00000100
00000000
00000000
00010000
00000000
00001000
00000000
00010000
,
00000000
00010000
00001000
01000000
,
00100000
00000000
00000000
00000000
00100000
00000000
00000000
00000000
10000000
00000000
00000000
00010000
00000000
01000000
00000000
00010000
,
00000000
00010000
00100000
00001000
,
00010000
00000000
00000000
00000000
00010000
00000000
00000000
00000000
00000010
00000000
00000000
00010000
00000000
00001000
00000000
00010000
,
00000000
00010000
00000100
00001000
,
00002002
00000000
00000000
00000000
,
00000000
00000000
00000000
00003003
00000001
00000000
00000100
00000001
,
00000100
00000000
00000000
00000000
00000010
00000000
00001000
00000000
00000010
00000000
00000000
00010000
00000000
00000000
00002000
00000000
,
00000000
00000000
00000000
00000000
00103000
00000000
01000000
10000000
,
01000000
00000000
00000000
00000000
00100000
00000000
00010000
00000000
00100000
00000000
00000000
00001000
00000000
00000000
00020000
00000000
,
00000000
00000000
00000000
00000000
00031000
00000000
00000000
00001000
,
00000000
00000000
00000000
00000000
01000000
00000000
00000000
00010000
00000000
00000000
00100000
00000000
00000000
01000000
00000000
00000000
,
10000000
00000000
00000000
00000000
00000000
00000000
00010000
00000000
00000000
00000000
00000000
00000000
01000000
00000000
00000000
00010000
,
00000000
00000000
00100000
00000000
00000000
00001000
00000000
00000000
00010000
00000000
00000000
00000000
00000000
00000000
00001000
00000000
,
00000000
00000000
00000000
00000000
00010000
00000000
00000000
00000100
00000000
00000000
00001000
00000000
00000000
00000010
00000000
00000000
,
00000100
00000000
00000000
00000000
00000000
00000000
00000010
00000000
00000000
00000000
00000000
00000000
00001000
00000000
00000000
00000001
,
00000000
00001001
00000000
00000000
00000001
00000000
00000100
00000000
,
00000001
00001000
00000010
00010000
,
00001000
00000000
00000000
00010000
00000000
00000000
00001000
00000000
00000000
00000000
00000000
00000000
00100000
00000000
00000000
00000000
,
00001000
01000000
00010000
10000000
,
01000000
00100000
00010000
00100000
01000000
00000000
10000000
00000000
,
00010000
00100000
00001000
00010000
,
00010000
00000000
00000000
00001000
00000000
00000000
00010000
00000000
00000000
00000000
00000000
00000000
00000010
00000000
00000000
00000000
,
00010000
00000100
00001000
00000001
,
00000100
00000010
00001000
00000000
00002002
00000000
00000000
00000000
,
00000000
00003003
00000220
00000000
,
00000000
00000000
00000330
00000000
00001000
00000000
00000000
00000100
,
00000000
00010000
00001000
01000000
,
00100000
10000000
00010000
10010000
,
01000000
00000000
01000000
00002000
00010000
00000000
00013000
00000000
,
00010000
00100000
01000000
10000000
00010000
00000000
00000000
01000000
,
00000000
00001000
00010000
00000010
,
00000100
00000001
00001000
00001001
,
00000010
00000000
00000000
00020000
00001000
00000000
00031000
00000000
,
00010000
00001000
01000000
00100000
,
00000000
01000000
00010000
00100000
,
00000000
00001000
00010000
00000100
,
00000000
00010000
00001000
00000000
,
01000000
00000000
00022000
00000000
,
00000000
00000000
00033000
00000000
;
