#TITLE:Jump;
#SUBTITLE:;
#ARTIST:Bus Stop;
#TITLETRANSLIT:;
#SUBTITLETRANSLIT:;
#ARTISTTRANSLIT:;
#GENRE:;
#CREDIT:;
#MENUCOLOR:;
#METERTYPE:DDR;
#BANNER:Jump.png;
#BACKGROUND:Jump-bg.png;
#LYRICSPATH:;
#CDTITLE:ddrencorecdtitle.png;
#MUSIC:Jump.mp3;
#OFFSET:-0.308;
#SAMPLESTART:37.173;
#SAMPLELENGTH:15.280;
#SELECTABLE:YES;
#LISTSORT:;
#BPMS:0.000=132.095;
#STOPS:;
#BGCHANGES:;
#ATTACKS:;

//---------------dance-single - ----------------
#NOTES:
     dance-single:
     :
     Hard:
     5:
     0.282,0.351,0.313,0.000,0.000:
0000
0000
0000
0000
,
0000
0000
0000
0000
,
0000
0000
0000
0000
,
0000
0000
0000
0000
,
0000
0010
0000
1000
,
0000
0001
0000
0010
,
0000
0001
0000
0100
,
0000
0010
0000
1000
,
0110
0000
1000
0000
0000
0001
0000
0000
,
0100
0000
0000
0010
0000
1000
0000
0001
,
0000
0000
0010
0000
0000
0001
0000
1000
,
0000
0001
0000
1001
0000
0000
0000
0000
,
0010
0000
0100
0000
0000
0010
0000
0000
,
1000
0000
0000
0001
0000
0010
0000
0100
,
0000
0000
0010
0000
0000
0100
0000
1000
,
0000
0001
0000
0000
1000
0010
0100
0001
,
1000
0000
0100
0000
0000
1000
0000
0000
,
0010
0000
0000
0100
0000
0001
0000
0010
,
0000
0000
0001
0000
0000
1000
0000
0001
,
0000
0100
0000
0000
0001
1000
0100
0010
,
0001
0000
0100
0000
0000
0001
0000
0000
,
0010
0000
0000
0001
0000
0100
0000
0010
,
0000
0000
1000
0000
0000
0001
0000
0010
,
0000
0100
0000
0110
0000
0000
1001
0000
,
0010
0000
0100
0000
0001
0100
1000
0000
,
0001
0000
0010
0000
1000
0100
0001
0000
,
0100
0000
0010
0000
0100
1000
0010
0000
,
0100
0000
0001
0000
0010
0001
0100
0000
,
0100
0000
0001
0000
1000
0100
0001
0000
,
1000
0000
0010
0000
0001
0100
1000
0000
,
0100
0010
1000
0100
,
0010
0000
0000
1001
,
1000
0000
0010
0000
0000
0110
0000
0000
,
0010
1000
0001
0010
,
0100
0000
1000
0000
0000
1001
0000
0000
,
0100
0010
1000
1001
,
0001
0000
0100
0000
0000
0110
0000
0000
,
1000
0001
0010
0100
,
0010
0000
0001
0000
0000
1001
0000
0000
,
0010
0000
0100
0000
0001
1000
0100
0000
,
1001
0000
0010
0000
0000
0100
0000
0000
,
0010
0000
0000
1000
0000
0001
0000
0010
,
0000
0000
0001
0000
0000
1000
0000
0100
,
0000
1000
0000
0000
0001
1000
0100
1000
,
0001
0000
0100
0000
0000
0010
0000
0000
,
1000
0000
0000
0001
0000
0010
0000
0001
,
0000
0000
1000
0000
0000
0010
0000
0100
,
0000
0001
0000
0000
1000
0100
0010
0001
,
1000
0000
0101
0000
0000
0101
0000
0000
,
0101
0000
0000
0101
0000
1001
0000
1010
,
0000
0000
1010
0000
0000
1010
0000
1010
,
0000
1001
0000
0110
0000
0100
0001
0000
,
1001
0000
1001
0000
0000
1001
0000
0000
,
1001
0000
0000
1001
0000
1100
0000
0011
,
0000
0000
0011
0000
0000
0011
0000
1001
,
0000
1010
0000
0110
0000
0000
0010
0000
,
1001
0000
0000
0000
;

//---------------dance-single - ----------------
#NOTES:
     dance-single:
     :
     Medium:
     4:
     0.243,0.275,0.134,0.000,0.000:
0000
0000
0000
0000
,
0000
0000
0000
0000
,
0000
0000
0000
0000
,
0000
0000
0000
0000
,
0000
0010
0000
0100
,
0000
0010
0000
0100
,
0000
0001
0000
1000
,
0000
0001
0000
0010
,
1001
0000
1000
0000
0000
1000
0000
0000
,
1000
0000
0000
1000
0000
0001
0000
1000
,
0000
0000
0001
0000
0000
0100
0000
0100
,
0000
0100
0000
0010
0000
0000
0100
0000
,
1001
0000
0100
0000
0000
0100
0000
0000
,
0100
0000
0000
0100
0000
0010
0000
0100
,
0000
0000
0010
0000
0000
0100
0000
0001
,
0000
0001
0000
1000
0000
0000
0100
0000
,
1001
0000
1000
0000
0000
0010
0000
0000
,
1000
0000
0000
0010
0000
1000
0000
0010
,
0000
0000
0100
0000
0000
0001
0000
1000
,
0000
0001
0000
0010
0000
0000
0100
0000
,
1001
0000
0100
0000
0000
1000
0000
0000
,
0100
0000
0000
0010
0000
0001
0000
0010
,
0000
0000
0100
0000
0000
1000
0000
0001
,
0000
0100
0000
0010
0000
0000
1001
0000
,
0010
1000
0001
0100
,
0010
0001
1000
0100
,
0010
1000
0001
0010
,
0100
0001
1000
0110
,
0010
0001
1000
0010
,
0001
1000
0010
0100
,
1000
0010
0100
1000
,
0001
0000
0000
1001
,
0010
0100
0000
0001
,
1000
0010
0001
1000
,
0100
0010
0000
0001
,
1000
0000
0010
0000
,
0110
0010
0000
1000
,
0001
0100
0010
0001
,
1000
0100
0000
0010
,
0001
0100
0010
1000
,
1001
0000
0001
0000
0000
0001
0000
0000
,
0001
0000
0000
1000
0000
0010
0000
1000
,
0000
0000
0001
0000
0000
0010
0000
0100
,
0000
0010
0000
0001
0000
0000
1000
0000
,
1001
0000
0001
0000
0000
0001
0000
0000
,
0001
0000
0000
0010
0000
0100
0000
0010
,
0000
0000
0001
0000
0000
1000
0000
0010
,
0000
0100
0000
0001
0000
0000
1000
0000
,
0110
0010
1000
0001
,
0010
0001
1000
1010
,
0010
0100
0001
1000
,
0001
0100
0010
1000
,
1001
0001
0100
0010
,
1000
0100
0010
0110
,
0010
0001
1000
0010
,
0100
0010
1000
0010
,
1001
0000
0000
0000
;

//---------------dance-single - ----------------
#NOTES:
     dance-single:
     :
     Easy:
     3:
     0.192,0.200,0.072,0.000,0.000:
0000
0000
0000
0000
,
0000
0000
0000
0000
,
0000
0000
0000
0000
,
0000
0000
0000
0000
,
0000
0100
0000
0100
,
0000
0010
0000
0010
,
0000
1000
0000
1000
,
0000
0001
0000
0010
,
0100
0010
0000
0001
,
1000
0000
0010
0100
,
0001
0000
1000
0000
,
0100
0010
0001
1000
,
0001
0100
0000
0010
,
0100
0000
0010
1000
,
0001
0000
0010
0000
,
0001
1000
0001
0000
,
1001
0100
0000
0010
,
0100
0000
0010
1000
,
0001
0000
0010
0000
,
0001
1000
0100
0010
,
0001
0100
0000
0010
,
0100
0000
0010
1000
,
0001
0000
1000
0000
,
0001
0000
0100
1001
,
0100
0000
0100
0000
,
0010
0000
0010
0000
,
1000
0000
1000
0000
,
0001
0000
0001
0000
,
0010
0000
0001
1000
,
0100
0000
0010
0000
,
0001
0000
0100
0010
,
1000
0000
0001
0000
,
1000
0001
0100
0000
,
0010
0000
1001
0000
,
0100
0010
1000
0000
,
0001
0000
0110
0000
,
0010
1000
0001
0000
,
0010
0000
1001
0000
,
0010
0001
1000
0000
,
0010
0000
0100
0010
,
1000
0001
0000
0010
,
0100
0000
0010
0001
,
1000
0000
0010
0000
,
0100
0001
1000
0100
,
0010
0001
0000
0100
,
0010
0000
1000
0001
,
0010
0000
0001
0000
,
0100
0010
1000
0001
,
1001
1000
0000
0010
,
0100
0000
0010
1000
,
0001
0000
0010
0000
,
0001
1000
0100
0010
,
1001
0100
0000
0010
,
0001
0000
0100
0010
,
1000
0000
0001
0000
,
0010
0001
0100
0010
,
1001
0000
0000
0000
;

//---------------dance-single - ----------------
#NOTES:
     dance-single:
     :
     Challenge:
     8:
     0.468,0.433,0.859,0.027,0.174: // measure 1
0000
0000
0000
0000
,  // measure 2
0000
0000
0000
0000
,  // measure 3
0000
0000
0000
0000
,  // measure 4
0000
0000
0000
0000
,  // measure 5
1000
0000
0000
0001
0000
0000
0100
0000
0000
0010
0000
0000
1000
0000
0001
0000
,  // measure 6
0010
0000
0000
0001
0000
0000
0100
0000
0000
0010
0000
0000
1000
0000
0001
0000
,  // measure 7
1000
0000
0000
0010
0000
0000
1000
0000
0000
0001
0000
0000
0010
0000
0100
0000
,  // measure 8
1000
0000
0000
0010
0000
0000
0100
0000
0000
0001
0000
0000
1000
0000
0001
0000
,  // measure 9
1001
0000
0110
0000
0000
1010
0000
0000
,  // measure 10
0110
0000
0000
0011
0000
0110
0000
1100
,  // measure 11
0000
0000
1001
0000
0000
0110
0000
1010
,  // measure 12
0000
1001
0000
0001
1000
0010
0100
0010
,  // measure 13
1001
0000
0101
0000
0000
1001
0000
0000
,  // measure 14
0101
0000
0000
0110
0000
0011
0000
1001
,  // measure 15
0000
0000
0110
0000
0000
0110
0000
1001
,  // measure 16
0000
0011
0000
0010
0001
0100
0010
1000
,  // measure 17
1100
0000
0110
0000
0001
1001
0000
1000
,  // measure 18
1010
0000
0010
0101
0000
0110
0000
1010
,  // measure 19
0000
0000
1001
0000
0001
0101
0000
1100
,  // measure 20
0000
0011
0000
1000
0001
1000
0100
0010
,  // measure 21
1001
0000
0101
0000
0010
0110
0000
1000
,  // measure 22
1001
0000
0010
0110
0000
1010
0000
0101
,  // measure 23
0000
0000
1001
0000
0010
0110
0000
1001
,  // measure 24
0000
1010
0000
0110
0000
0000
1001
0000
,  // measure 25
0000
0000
1000
0000
0000
0001
0000
0000
0010
0000
0000
0001
0000
0100
0010
0100
,  // measure 26
0000
0000
0001
0000
0000
0010
0000
0000
0100
0000
0000
0010
0000
0001
1000
0001
,  // measure 27
0000
0000
0100
0000
0000
0010
0000
0000
1000
0000
0000
0001
0000
0010
0001
0010
,  // measure 28
0001
0000
0000
0001
1000
0000
0001
0000
1000
0001
0000
1000
0000
0010
1000
0001
,  // measure 29
0000
0000
0001
0000
0000
1000
0000
0000
0010
0000
0000
0001
0000
0100
0010
0100
,  // measure 30
0000
0000
0010
0000
0000
1000
0000
0000
0001
0000
0000
0010
0000
0100
1000
0100
,  // measure 31
0000
0000
1000
0000
0000
0010
0000
0000
0100
0000
0000
0001
0000
1000
0001
1000
,  // measure 32
0002
0000
0000
0000
0000
0000
0000
0000
0103
0000
0000
0000
1000
0001
1000
0001
,  // measure 33
0100
0000
0010
0000
0000
1010
0000
0000
,  // measure 34
0010
1000
0001
0010
0001
0100
0010
1000
,  // measure 35
0100
0000
1000
0000
0000
0101
0000
0000
,  // measure 36
0010
1000
0001
0100
0010
1000
0100
0010
,  // measure 37
0001
0000
1000
0000
0000
0110
0000
0000
,  // measure 38
0010
1000
0001
0010
0001
0100
0010
1000
,  // measure 39
0100
0000
1000
0000
0000
0101
0000
0000
,  // measure 40
0010
0100
0001
1000
0100
0010
0001
1000
,  // measure 41
0101
0000
0110
0000
0000
1010
0000
0000
,  // measure 42
0110
0000
0000
1010
0000
1001
0000
0101
,  // measure 43
0000
0000
0110
0000
0000
0101
0000
1001
,  // measure 44
0000
1100
0000
0010
0001
1000
0010
0100
,  // measure 45
1001
0000
0101
0000
0000
0110
0000
0000
,  // measure 46
1010
0000
0000
0101
0000
1001
0000
1100
,  // measure 47
0000
0000
0110
0000
0000
0011
0000
1001
,  // measure 48
0000
1010
0000
0100
0010
1000
0001
0010
,  // measure 49
0101
0000
0110
0000
0010
1001
0000
0100
,  // measure 50
1100
0000
1000
0101
0000
0110
0000
1010
,  // measure 51
0000
0000
0101
0000
1000
1001
0000
0101
,  // measure 52
0000
0110
0000
0010
1000
0001
0010
0001
,  // measure 53
1100
0000
0110
0000
0001
1100
0000
0100
,  // measure 54
0110
0000
0001
1001
0000
0110
0000
0101
,  // measure 55
0000
0000
0110
0000
1000
0101
0000
0110
,  // measure 56
0000
1010
0000
1001
0000
0100
0010
1000
,  // measure 57
2002
0000
0000
0000
,  // measure 58
3003
0000
0000
0000
;

//---------------dance-double - ----------------
#NOTES:
     dance-double:
     :
     Challenge:
     9:
     0.473,0.459,0.948,0.018,0.179:
00000000
00000000
00000000
00000000
,
00000000
00000000
00000000
00000000
,
00000000
00000000
00000000
00000000
,
00000000
00000000
00000000
00000000
,
00001000
00000000
00000000
01000000
00000000
00000000
00100000
00000000
00000000
10000000
00000000
00000000
00010000
00000000
01000000
00000000
,
00001000
00000000
00000000
00100000
00000000
00000000
00001000
00000000
00000000
00000100
00000000
00000000
00000010
00000000
00010000
00000000
,
00000100
00000000
00000000
00001000
00000000
00000000
00000001
00000000
00000000
00000010
00000000
00000000
00000100
00000000
00001000
00000000
,
00000010
00000000
00000000
00010000
00000000
00000000
00001000
00000000
00000000
00000010
00000000
00000000
00000100
00000000
00001000
00000000
,
00001001
00000000
00011000
00000000
00000000
01100000
00000000
00000000
,
10100000
00000000
00000000
00011000
00000000
00000110
00000000
00000011
,
00000000
00000000
00010100
00000000
00000000
00110000
00000000
00011000
,
00000000
00001100
00000000
00011000
00010000
00100000
01000000
00010000
,
11000000
00000000
00101000
00000000
00000000
01010000
00000000
00000000
,
00011000
00000000
00000000
00000011
00000000
00000110
00000000
00010100
,
00000000
00000000
00101000
00000000
00000000
10010000
00000000
00011000
,
00000000
00001001
00000000
00011000
00001000
00000010
00000100
00001000
,
00000011
00000000
00001010
00000000
00000100
00010010
00000000
00001000
,
00110000
00000000
01000000
10010000
00000000
01100000
00000000
01001000
,
00000000
00000000
00000110
00000000
00010000
00011000
00000000
01100000
,
00000000
00011000
00000000
00000110
00000010
00000001
00001000
00000010
,
00011000
00000000
10100000
00000000
01000000
10010000
00000000
00100000
,
00011000
00000000
00000100
00000011
00000000
00001100
00000000
00010010
,
00000000
00000000
00101000
00000000
00010000
01100000
00000000
10010000
,
00000000
00011000
00000000
00001001
00000000
00000000
00001100
00000000
,
00000000
00000000
00000001
00000000
00000000
00000100
00000000
00000000
00001000
00000000
00000000
00000100
00000000
00000010
00010000
00001000
,
00000000
00000000
00100000
00000000
00000000
01000000
00000000
00000000
10000000
00000000
00000000
00010000
00000000
00100000
00001000
00010000
,
00000000
00000000
00000100
00000000
00000000
00010000
00000000
00000000
00000010
00000000
00000000
00000100
00000000
00000001
00001000
00000010
,
00010000
00000100
00000000
00010000
00001000
00000000
01000000
00000000
00010000
00100000
00000000
01000000
00000000
10000000
00010000
01000000
,
00000000
00000000
00100000
00000000
00000000
10000000
00000000
00000000
00010000
00000000
00000000
00100000
00000000
00001000
00010000
00000100
,
00000000
00000000
00000010
00000000
00000000
00000100
00000000
00000000
00001000
00000000
00000000
00000010
00000000
00010000
00001000
01000000
,
00000000
00000000
00100000
00000000
00000000
10000000
00000000
00000000
00010000
00000000
00000000
00100000
00000000
00001000
00010000
00000010
,
00000100
00000000
00000000
00000000
00000000
00000000
00000000
00000000
00000000
00000000
00000000
00000000
00000010
00010000
00001000
00100000
,
01000000
00000000
11000000
00000000
00000000
00011000
00000000
00000000
,
00000010
00000100
00000001
00001000
00000010
00010000
00001000
01000000
,
00001000
00000000
00011000
00000000
00000000
00000110
00000000
00000000
,
00000001
00000100
00001000
00000001
00000010
00010000
01000000
00000000
,
00100000
00000000
10010000
00000000
00000000
00010100
00000000
00000000
,
00000100
00010000
00001000
01000000
00100000
10000000
00100000
00000000
,
01000000
00000000
10010000
00000000
00000000
00011000
00000000
00000000
,
00010000
01000000
00100000
00001000
00000010
00000100
00001000
00000000
,
00001001
00000000
00000011
00000000
00000000
00010100
00000000
00000000
,
00110000
00000000
00000000
11000000
00000000
10010000
00000000
01001000
,
00000000
00000000
00011000
00000000
00000000
00001100
00000000
00000011
,
00000000
00010100
00000000
00101000
00010000
01000000
00100000
10000000
,
01010000
00000000
00101000
00000000
00000000
00001001
00000000
00000000
,
00011000
00000000
00000000
11000000
00000000
00101000
00000000
00001100
,
00000000
00000000
01100000
00000000
00000000
10010000
00000000
00011000
,
00000000
00000110
00000000
00001001
00000001
00000100
00000010
00001000
,
00010100
00000000
00101000
00000000
00010000
11000000
00000000
00100000
,
01010000
00000000
10000000
01100000
00000000
01001000
00000000
00011000
,
00000000
00000000
00000110
00000000
00000001
00001010
00000000
00010100
,
00000000
00101000
00000000
10010000
00000000
00100000
01000000
00001000
,
00011000
00000000
01100000
00000000
00010000
11000000
00000000
00000000
,
00011000
00000000
00000100
00000011
00000000
00001100
00000000
00000110
,
00000000
00000000
00011000
00000000
01000000
10010000
00000000
01001000
,
00000000
00010100
00000000
00011000
00000000
00000010
00000100
00000001
,
00000220
00000000
00000000
00000000
,
00000330
00000000
00000000
00000000
;

//---------------dance-double - ----------------
#NOTES:
     dance-double:
     :
     Medium:
     4:
     0.258,0.301,0.170,0.000,0.000:
00000000
00000000
00000000
00000000
,
00000000
00000000
00000000
00000000
,
00000000
00000000
00000000
00000000
,
00000000
00000000
00000000
00000000
,
00100000
01000000
00000000
00001000
,
00000000
00010000
00000000
00000100
,
00000000
00000010
00000000
00000100
,
00000000
00001000
00000000
00000010
,
00010000
00000000
00001000
00000000
00000000
00010000
00000000
00000000
,
01000000
00000000
00000000
00100000
00000000
10000000
00000000
00010000
,
00000000
00000000
00011000
00000000
00000000
00000100
00000000
00000010
,
00000000
00000001
00000000
00001000
00000000
00000000
00000010
00000000
,
00010000
00000000
00000100
00000000
00000000
00010000
00000000
00000000
,
00001000
00000000
00000000
01000000
00000000
00100000
00000000
10000000
,
00000000
00000000
10010000
00000000
00000000
00010000
00000000
01000000
,
00000000
00001000
00000000
00010000
00000000
00000000
00000100
00000000
,
00000010
00000000
00001001
00000000
00000000
00000010
00000000
00000000
,
00000100
00000000
00000000
00010000
00000000
00001000
00000000
00000100
,
00000000
00000000
00001001
00000000
00000000
00000010
00000000
00010000
,
00000000
00001000
00000000
01000000
00000000
00000000
00100000
00000000
,
10000000
00000000
00110000
00000000
00000000
01000000
00000000
00000000
,
10000000
00000000
00000000
00010000
00000000
01000000
00000000
00001000
,
00000000
00000000
00011000
00000000
00000000
00000100
00000000
00001000
,
00000000
00000010
00000000
00000100
00000000
00000000
00000001
00000000
,
00001000
00000000
00000010
00000000
00010000
00000000
00001000
01000000
,
00100000
00000000
10000000
00000000
00010000
00000000
00100000
00001000
,
00010000
00000000
00000100
00000000
00001000
00000000
00000010
00000100
,
00000001
00000000
00001000
00000000
00000010
00010000
00000010
00001000
,
00000100
00000000
00010000
00000000
00001000
00000000
01000000
00100000
,
10000000
00000000
00010000
00000000
00100000
00000000
00001000
00010000
,
00000100
00000000
00010000
00000000
00001000
00000000
01000000
00100000
,
10000000
00000000
00000000
00010000
,
01000000
00000000
00001000
00000000
00000000
00011000
00000000
00000000
,
00000100
00001000
00000010
00000100
,
00000001
00000000
00001000
00000000
00000000
00000110
00000000
00000000
,
00000010
00010000
00001000
01000000
,
00100000
00000000
10000000
00000000
00000000
00110000
00000000
00000000
,
01000000
10000000
00010000
01000000
,
00001000
00000000
00010000
00000000
00000000
00001100
00000000
00000000
,
00001000
00000100
00010000
00001000
00100000
00001000
00010000
00000000
,
00000100
00000000
00001000
00000000
00000000
00000010
00000000
00000000
,
00000100
00000000
00000000
00000001
00000000
00001000
00000000
00000010
,
00000000
00000000
00011000
00000000
00000000
00001000
00000000
00100000
,
00000000
00010000
00000000
01000000
00000000
00000000
00100000
00000000
,
10000000
00000000
00010000
00000000
00000000
00100000
00000000
00000000
,
00001000
00000000
00000000
00010000
00000000
00000100
00000000
00000010
,
00000000
00000000
00001001
00000000
00000000
00000010
00000000
00001000
,
00000000
00000100
00000000
00010000
00000000
00000000
00001000
00000000
,
00100000
00000000
00011000
00000000
00000000
01000000
00000000
00000000
,
10100000
00000000
00000000
00010000
00000000
00100000
00000000
00001000
,
00000000
00000000
00011000
00000000
00000000
00000010
00000000
00000100
,
00000000
00000001
00000000
00001000
00000000
00000000
00000010
00000000
,
00000100
00000000
00001100
00000000
00000000
00000010
00000000
00000000
,
00001001
00000000
00000000
00000010
00000000
00010000
00000000
00001000
,
00000000
00000000
00110000
00000000
00000000
01000000
00000000
10000000
,
00000000
00010000
00000000
01000000
00000000
00000000
00001000
00000000
,
00011000
00000000
00000000
00000000
;

//---------------dance-double - ----------------
#NOTES:
     dance-double:
     :
     Hard:
     5:
     0.284,0.326,0.250,0.000,0.000:
00000000
00000000
00000000
00000000
,
00000000
00000000
00000000
00000000
,
00000000
00000000
00000000
00000000
,
00000000
00000000
00000000
00000000
,
00000010
00000100
00000001
00001001
,
00001000
00000010
00010000
00011000
,
00001000
01000000
00100000
10010000
,
10000000
00010000
00100000
00011000
,
00001000
00000000
01000000
00000000
00000000
00010000
00000000
00000000
,
00100000
00000000
00000000
01000000
00000000
10000000
00000000
00010000
,
00000000
00000000
01001000
00000000
00000000
00010000
00000000
00000100
,
00000000
00001000
00000000
00000010
00000000
00000000
00000100
00000000
,
00000001
00000000
00001000
00000000
00000000
00000010
00000000
00000000
,
00010000
00000000
00000000
00001000
00000000
00100000
00000000
00010000
,
00000000
00000000
11000000
00000000
00000000
00100000
00000000
00010000
,
00000000
01000000
00000000
00001000
00000000
00000000
00010000
00000000
,
00000100
00000000
00010100
00000000
00000000
00001000
00000000
00000000
,
00101000
00000000
00000000
00010000
00000000
01000000
00000000
00100000
,
00000000
00000000
10010000
00000000
00000000
00100000
00000000
01000000
,
00000000
00001000
00000000
00010000
00000000
00000000
00000100
00000000
,
00000010
00000000
00001001
00000000
00000000
00000010
00000000
00000000
,
00010100
00000000
00000000
00001000
00000000
00100000
00000000
00001000
,
00000000
00000000
00011000
00000000
00000000
00010000
00000000
00000100
,
00000000
00000010
00000000
00000001
00000000
00000000
00001000
00000000
,
00000010
00000000
00000100
00000000
00000001
00001000
00000010
00010000
,
00000100
00000000
00001000
00000000
00000010
00010000
00001000
00100000
,
00010000
00000000
01000000
00000000
00100000
10000000
00010000
01000000
,
00100000
10000000
00010000
10010000
,
00010000
00000000
01000000
00000000
00001000
00010000
00000100
00001000
,
00000010
00000000
00000100
00000000
00000001
00001000
00000010
00001000
,
00000100
00000000
00010000
00000000
00000010
00010000
00001000
00100000
,
00010000
00000000
00000000
10000000
,
00100000
00000000
01000000
00000000
00000000
10010000
00000000
00000000
,
00100000
01000000
00001000
00010000
,
00000100
00000000
00000010
00000000
00000000
00001001
00000000
00000000
,
00000010
00000100
00001000
00000010
,
00010000
00000000
00001000
00000000
00000000
00011000
00000000
00000000
,
00010000
01000000
00100000
00010000
,
10000000
00000000
00100000
00000000
00000000
10010000
00000000
00000000
,
00100000
01000000
00001000
01000000
00100000
10000000
00010000
00000000
,
00100000
00000000
00001000
00000000
00000000
00010000
00000000
00000000
,
00000100
00000000
00000000
00001000
00000000
00000010
00000000
00000100
,
00000000
00000000
00001001
00000000
00000000
00000010
00000000
00010000
,
00000000
00001000
00000000
00100000
00000000
00000000
01000000
00000000
,
10000000
00000000
00010000
00000000
00000000
01000000
00000000
00000000
,
00001000
00000000
00000000
00010000
00000000
00000010
00000000
00000100
,
00000000
00000000
00001001
00000000
00000000
00000010
00000000
00001000
,
00000000
00000100
00000000
00000010
00000000
00000000
00000001
00000000
,
00001000
00000000
00001010
00000000
00000000
00010010
00000000
00000000
,
00011000
00000000
00000000
00001000
00000000
00100000
00000000
01000000
,
00000000
00000000
11000000
00000000
00000000
10000000
00000000
00010000
,
00000000
00100000
00000000
00001000
00000000
00000000
00010000
00000000
,
00000010
00000000
00001001
00000000
00000000
00000110
00000000
00000000
,
00000101
00000000
00000000
00000010
00000000
00001000
00000000
00000100
,
00000000
00000000
00011000
00000000
00000000
00001000
00000000
00100000
,
00000000
01000000
00000000
10000000
00000000
00000000
00010000
00000000
,
10010000
00000000
00000000
00000000
;

//---------------dance-double - ----------------
#NOTES:
     dance-double:
     :
     Easy:
     3:
     0.220,0.275,0.027,0.000,0.000:
00000000
00000000
00000000
00000000
,
00000000
00000000
00000000
00000000
,
00000000
00000000
00000000
00000000
,
00000000
00000000
00000000
00000000
,
00000000
10000000
00000000
10000000
,
00000000
00010000
00000000
00010000
,
00000000
00100000
00000000
00100000
,
00000000
00001000
00000000
00001000
,
00010000
00000000
00000100
00000000
00000000
00001000
00000000
00000000
,
00000010
00000000
00000000
00001000
00000000
00000001
00000000
00001000
,
00000000
00000000
00000010
00000000
00000000
00010000
00000000
00001000
,
00000000
00010000
00000000
00000100
00000000
00000000
00000000
00000000
,
00001000
00000000
00000100
00000000
00000000
00010000
00000000
00000000
,
00001000
00000000
00000000
01000000
00000000
00100000
00000000
01000000
,
00000000
00000000
00001000
00000000
00000000
00010000
00000000
00100000
,
00000000
01000000
00000000
10000000
00000000
00000000
00010000
00000000
,
01000000
00000000
00100000
00000000
00000000
10000000
00000000
00000000
,
00010000
00000000
00000000
00100000
00000000
00001000
00000000
00100000
,
00000000
00000000
00001000
00000000
00000000
00010000
00000000
00000100
,
00000000
00001000
00000000
00000010
00000000
00000000
00000100
00000000
,
00000001
00000000
00001000
00000000
00000000
00000010
00000000
00000000
,
00000100
00000000
00000000
00000010
00000000
00010000
00000000
00000010
,
00000000
00000000
00001000
00000000
00000000
00000100
00000000
00010000
,
00000000
00001000
00000000
00100000
00000000
00000000
00000000
00000000
,
01000000
10000000
00010000
01000000
,
01000000
00010000
00100000
00001000
,
00001000
00010000
00000100
00000010
,
00000001
00001001
00000010
00001001
,
00001000
00000010
00000100
00000001
,
00000001
00001000
00000010
00010000
,
00010000
00001000
01000000
00100000
,
00100000
00000000
00000000
10000000
,
01000000
00000000
10000000
00000000
00000000
00010000
00000000
00000000
,
00100000
00001000
00100000
01000000
,
10000000
00000000
00010000
00000000
00000000
01000000
00000000
00000000
,
00001000
00010000
00000100
00000010
,
00000100
00000000
00001000
00000000
00000000
00000010
00000000
00000000
,
00000100
00000001
00000100
00000010
,
00001000
00000000
00000100
00000000
00000000
00010000
00000000
00000000
,
00000100
00001000
00000010
00000100
,
00000001
00000000
00001000
00000000
00000000
00000010
00000000
00000000
,
00000100
00000000
00000000
00000010
00000000
00001000
00000000
00000010
,
00000000
00000000
00010000
00000000
00000000
00001000
00000000
00100000
,
00000000
01000000
00000000
10000000
00000000
00000000
00010000
00000000
,
01000000
00000000
00100000
00000000
00000000
10000000
00000000
00000000
,
00010000
00000000
00000000
00100000
00000000
00001000
00000000
00100000
,
00000000
00000000
00010000
00000000
00000000
01000000
00000000
00001000
,
00000000
00010000
00000000
00000100
00000000
00000000
00001000
00000000
,
00000010
00000000
00000100
00000000
00000000
00000010
00000000
00000000
,
00001000
00000000
00000000
00000100
00000000
00010000
00000000
00001000
,
00000000
00000000
00100000
00000000
00000000
00001000
00000000
00010000
,
00000000
00000100
00000000
00000010
00000000
00000000
00000001
00000000
,
00001000
00000000
00000010
00000000
00000000
00000100
00000000
00000000
,
00000001
00000000
00000000
00001000
00000000
00000010
00000000
00010000
,
00000000
00000000
00001000
00000000
00000000
00100000
00000000
01000000
,
00000000
10000000
00000000
00010000
00000000
00000000
10000000
00000000
,
10010000
00000000
00000000
00000000
;

//---------------dance-single - ----------------
#NOTES:
     dance-single:
     :
     Beginner:
     1:
     0.111,0.125,0.018,0.000,0.000:
0000
0000
0000
0000
,
0000
0000
0000
0000
,
0000
0000
0000
0000
,
0000
0000
0000
0000
,
0000
1000
0000
1000
,
0000
0001
0000
0001
,
0000
1000
0000
1000
,
0000
0001
0000
0001
,
0001
0000
0000
0000
,
1000
0000
0000
0000
,
0010
0000
0000
0000
,
0100
0000
0010
0010
,
0010
0000
0000
0000
,
1000
0000
0000
0000
,
0001
0000
0000
0000
,
0010
0000
0100
0100
,
0100
0000
0000
0000
,
1000
0000
0000
0000
,
0010
0000
0000
0000
,
0100
0000
0001
0001
,
0001
0000
0000
0000
,
0010
0000
0000
0000
,
0100
0000
0000
0000
,
1000
0000
0000
0000
,
0010
0000
0100
0000
,
0001
0000
1000
0000
,
0010
0000
1000
0000
,
0001
0000
0010
0000
,
0001
0000
1000
0000
,
0010
0000
0100
0000
,
0001
0000
1000
0000
,
1001
0000
0000
0000
,
1000
1000
0000
0000
,
0001
0000
0010
0000
,
0100
0100
0000
0000
,
1000
0000
0010
0000
,
0100
0100
0000
0000
,
0001
0000
0010
0000
,
0001
0001
0000
0000
,
1000
0000
0010
0000
,
0100
0000
0000
0000
,
0010
0000
0000
0000
,
1000
0000
0000
0000
,
0001
0000
0010
0010
,
0010
0000
0000
0000
,
0100
0000
0000
0000
,
1000
0000
0000
0000
,
0010
0000
0100
0100
,
0100
0000
0000
0000
,
0010
0000
0000
0000
,
1000
0000
0000
0000
,
0001
0000
0010
0010
,
0010
0000
0000
0000
,
0100
0000
0000
0000
,
1000
0000
0000
0000
,
0001
0000
0100
0000
,
1001
0000
0000
0000
;
