#TITLE:Jig;
#SUBTITLE:;
#ARTIST:Tom Encore;
#TITLETRANSLIT:;
#SUBTITLETRANSLIT:;
#ARTISTTRANSLIT:;
#GENRE:;
#CREDIT:;
#MENUCOLOR:;
#METERTYPE:DDR;
#BANNER:Jig-bn.png;
#BACKGROUND:Jig-bg.png;
#LYRICSPATH:;
#CDTITLE:ddrencorecdtitle.png;
#MUSIC:Jig.mp3;
#OFFSET:-0.022;
#SAMPLESTART:55.560;
#SAMPLELENGTH:14.000;
#SELECTABLE:YES;
#LISTSORT:;
#BPMS:0.000=138.000;
#STOPS:;
#BGCHANGES:;
#ATTACKS:;

//---------------dance-single - ----------------
#NOTES:
     dance-single:
     :
     Hard:
     8:
     0.491,0.632,0.029,0.191,0.359:
0000
0000
0000
0000
,
0000
0000
0000
0000
,
0000
0000
0000
0000
,
0000
0000
0000
0000
,
1000
0010
0000
0000
0000
0000
0100
0001
,
1000
0100
0000
0000
0000
0000
0000
0000
,
0010
0100
1000
0000
0000
0000
0001
0100
,
0010
0100
0000
0000
0000
0000
0000
0000
,
0001
1000
0100
0000
0000
0000
0010
0001
,
1000
0010
0100
0000
0000
0000
0010
0000
,
1000
0001
0010
0000
0000
0000
0100
1000
,
0001
0100
0010
0000
0000
0000
1000
0000
,
0001
0010
0100
0010
0001
1000
0100
1000
,
0001
1000
0010
0100
0001
0010
0100
1000
,
0010
0100
1000
0100
0001
0010
0100
1000
,
0002
2000
0000
3003
0000
0000
0000
0000
,
1000
0010
0100
0002
0000
0000
0013
0100
1000
0010
0100
0001
,
2000
0000
0000
3020
0000
0000
0130
0000
0100
0001
0000
0001
,
0010
0000
0010
0100
0000
0100
1000
0001
0100
0001
1000
0100
,
0010
0000
0000
0000
0010
0000
0001
0000
0000
0000
0001
0000
1000
0000
0100
0000
1000
0000
0010
0000
0000
0010
0000
0000
,
0200
0000
0000
0301
0000
0000
0010
0100
1000
0001
0010
0100
,
1000
0000
1000
0010
0000
0010
0200
0000
0000
0302
0000
0000
,
1003
0000
1000
0100
0000
0100
0000
0000
0000
0020
0000
0000
,
0031
0100
0010
0100
0010
1000
0001
0010
0100
0000
0000
0000
,
2000
0000
0000
0000
3001
0100
0000
0010
,
0000
1000
0000
0001
0010
0000
0100
0000
,
2000
0000
0000
0000
3010
0100
0000
0001
,
0000
1000
0000
0100
0010
0000
0001
0000
,
0200
0000
0010
0000
0301
1000
0000
0100
,
0000
1000
0000
0010
0100
0000
0001
0000
,
0020
0000
0000
0000
0100
0000
0000
0000
0130
0000
0000
0100
1000
0000
0000
1000
,
0010
0000
0000
0010
0001
0000
0000
0001
0100
0000
0000
0100
1000
0000
0000
1000
,
0010
0100
0001
0010
0100
1000
0010
1000
,
0001
0010
0100
1000
0001
0100
0001
0010
,
0200
0000
0000
0000
1300
0010
0100
0001
,
0100
0010
1000
0001
0010
0001
1000
0100
,
2000
0000
3010
0000
0100
0001
0010
0100
,
1000
0100
0010
0001
1000
0010
0100
0001
,
0020
0000
0000
0000
0130
1000
0100
0010
,
0001
1000
0010
0100
0001
1000
0100
0000
,
0010
0001
1000
0002
0000
0000
0103
0010
1000
0010
0100
0001
,
1000
0000
1000
0100
0000
0100
0010
0001
0010
0001
1000
0001
,
0100
0000
0100
0010
0000
0010
1000
0100
0010
0001
0010
0100
,
1000
0000
1000
0001
0000
0001
0100
0010
0100
0010
1000
0010
,
2000
0000
0000
3001
0000
0000
0010
0100
1000
0100
0010
0001
,
1000
0010
0100
0001
,
1000
0010
0100
0001
0010
0100
0001
0100
,
1000
0000
0000
0001
0000
0000
1000
0000
0000
0000
0000
0000
0010
0000
0100
0000
,
0001
0000
0000
0000
1000
0000
0010
0100
0000
0000
0000
0000
0001
0000
1000
0100
,
0000
0000
0000
0000
0010
0000
0001
0010
0000
0100
0000
0000
1100
0000
0000
0000
,
1000
0000
0000
0000
0001
0000
0100
0010
0000
0000
0000
0000
0100
0000
0001
1000
,
0000
0000
0000
0000
0001
0000
0010
0100
0000
1000
0000
0000
1001
0000
0000
0000
,
0001
0100
0010
1000
0010
0100
0001
1000
,
0100
1000
0001
0010
0100
1000
0010
0100
,
0001
0100
0010
1000
0001
0010
0100
1000
,
0010
0100
0001
0100
0010
1000
0001
1000
,
2002
0000
0000
0000
,
0000
0000
0000
0000
,
0000
0000
0000
0000
,
0000
0000
0000
0000
,
3003
0000
0000
0000
;

//---------------dance-double - ----------------
#NOTES:
     dance-double:
     :
     Hard:
     9:
     0.529,0.632,0.038,0.153,0.431: // measure 1
00000000
00000000
00000000
00000000
,  // measure 2
00000000
00000000
00000000
00000000
,  // measure 3
00000000
00000000
00000000
00000000
,  // measure 4
00000000
00000000
00000000
00000000
,  // measure 5
10000000
00000000
00000000
01000000
00000000
00000000
00100000
00000000
00010000
00000000
00000000
10000000
00000000
00000000
00100000
00000000
,  // measure 6
01000000
00000000
00000000
00001000
00000000
00000000
00010000
00000000
00000100
00000000
00000000
00000010
00000000
00000000
00000100
00000000
,  // measure 7
00001000
00000000
00000000
00000010
00000000
00000000
00000100
00000000
00000001
00000000
00000000
00001000
00000000
00000000
00000100
00000000
,  // measure 8
00010000
00000000
00000000
00001000
00000000
00000000
01000000
00000000
00100000
00000000
00000000
10000000
00000000
00000000
00010000
00000000
,  // measure 9
00100000
00000000
00000000
01000000
10000000
00000000
00100000
00000000
01000000
00000000
00000000
00010000
00100000
00000000
00001000
00000000
,  // measure 10
00010000
00000000
00000000
00000010
00000100
00000000
00000010
00000000
00001000
00000000
00000000
00000001
00000010
00000000
00000100
00000000
,  // measure 11
00010000
00000000
00000000
00001000
01000000
00000000
00100000
00000000
10000000
00000000
00000000
00010000
00100000
00000000
01000000
00000000
,  // measure 12
10000000
00000000
00000000
00100000
01000000
00000000
00001000
00000000
00010000
00000000
00000000
00000100
00000010
00000000
00000001
00000000
,  // measure 13
00000000
00001010
00000000
00000101
00000000
00000011
00000000
00000100
,  // measure 14
00010000
00001000
01000000
00100000
10000000
01000000
00100000
00010000
,  // measure 15
00000010
00000001
00001000
00000010
00000100
00000001
00001000
00000100
,  // measure 16
00010000
00000000
00000000
00000000
,  // measure 17
00001000
01000000
00001000
02000000
00000000
00000000
03100000
10000000
00010000
00100000
01000000
10000000
,  // measure 18
00100000
00000000
00000000
01000000
00000000
00000000
00001000
00000000
00000000
00010000
00000000
00000000
00000100
00000000
00000000
00000000
00000100
00000000
00000010
00000000
00000000
00000000
00000010
00000000
,  // measure 19
00000001
00000000
00000001
00000100
00000000
00000100
00000010
00001000
00000010
00000100
00000001
00001000
,  // measure 20
00000100
00000000
00000000
00000000
00000100
00000000
00010000
00000000
00000000
00000000
00010000
00000000
00001000
00000000
01000000
00000000
00001000
00000000
00100000
00000000
00000000
00100000
00000000
00000000
,  // measure 21
02000000
00000000
00000000
23000000
00000000
00000000
30100000
01000000
00010000
00100000
00001000
00010000
,  // measure 22
00000100
00000000
00000000
00000000
00000100
00000000
00001000
00000000
00000000
00000000
00001000
00000000
00000010
00000000
00000000
00000100
00000000
00000000
00000001
00000000
00000000
00000010
00000000
00000000
,  // measure 23
00000100
00000000
00000100
00001000
00000000
00001000
00000001
00000000
00000000
00000020
00000000
00000000
,  // measure 24
00000130
00010000
00001000
00100000
00010000
10000000
00100000
01000000
00010000
00000000
00000000
00000000
,  // measure 25
20000000
00000000
31000000
00100000
,  // measure 26
00010000
00000000
00000000
01000000
00100000
00000000
01000000
00000000
,  // measure 27
00002000
00000000
00013000
00000100
,  // measure 28
00000010
00000000
00000000
00000100
00001000
00000000
00000010
00000000
,  // measure 29
00000200
00000001
00000310
00001000
,  // measure 30
00000100
00000000
00000000
00010000
00001000
00000000
01000000
00000000
,  // measure 31
00200000
00000000
00000000
00000000
10000000
00000000
00000000
00000000
01300000
00000000
00000000
01000000
00010000
00000000
00000000
00010000
,  // measure 32
00100000
00000000
00000000
00100000
00001000
00000000
00000000
00001000
00010000
00000000
00000000
00010000
00000010
00000000
00000000
00000010
,  // measure 33
00001000
00000100
00000010
00000100
00010000
00001000
01000000
00100000
,  // measure 34
10000000
01000000
00100000
00010000
00000010
00000100
00001000
00000001
,  // measure 35
00000200
00000000
00000000
00000000
00000310
00001000
00000100
00000010
,  // measure 36
00000001
00000100
00001000
00100000
00010000
10000000
00100000
01000000
,  // measure 37
00020000
00000000
00230000
00000000
00301000
00010000
00000100
00001000
,  // measure 38
00000010
00000100
00000001
00000010
00000100
00010000
00001000
01000000
,  // measure 39
00200000
00000000
10000000
00000000
10300000
00010000
00100000
00001000
,  // measure 40
00010000
00000010
00000100
00000010
00010000
00000000
00000000
00000000
,  // measure 41
00001000
01000000
00001000
02000000
00000000
00000000
03100000
10000000
00010000
10000000
00010000
00100000
,  // measure 42
00001000
00000000
00001000
00010000
00000000
00010000
00000010
00000100
00000010
00001000
00000001
00001000
,  // measure 43
00000001
00000000
00000001
00000010
00000000
00000010
00000100
00010000
00001000
00100000
00010000
10000000
,  // measure 44
00100000
00000000
00000000
00000000
00100000
00000000
01000000
00000000
00000000
00000000
01000000
00000000
00010000
00000000
00100000
00000000
00010000
00000000
10000000
00000000
00000000
10000000
00000000
00000000
,  // measure 45
00020000
00000000
00000000
01030000
00000000
00000000
00010000
00100000
00001000
00010000
00000010
00000100
,  // measure 46
00000001
00000010
00000100
00010000
,  // measure 47
00001000
01000000
00100000
10000000
01000000
00100000
00001000
00010000
,  // measure 48
00000010
00000000
00000000
00000100
00000000
00000000
00000010
00000000
00000000
00000000
00000000
00000000
00001000
00000000
00001000
00000100
,  // measure 49
00000010
00000000
00000001
00000000
00001000
00000000
00000010
00000100
00000010
00000000
00000100
00000000
00000001
00000000
00001000
00000100
,  // measure 50
00001000
00000000
00000100
00000000
00000010
00000000
00000001
00001000
00000000
00000010
00000000
00000000
00010000
00000000
00000000
00000000
,  // measure 51
00001000
00000000
01000000
00000000
00100000
00000000
10000000
01000000
10000000
00000000
00010000
00000000
00100000
00000000
00010000
10000000
,  // measure 52
00010000
00000000
01000000
00000000
00100000
00000000
10000000
01000000
00000000
00100000
00000000
00000000
00001000
00000000
00000000
00000000
,  // measure 53
00010000
00000010
00000100
00000001
00000010
00000100
00001000
00000010
,  // measure 54
00000100
00001000
00010000
00100000
01000000
00010000
00100000
01000000
,  // measure 55
10000000
00010000
01000000
00100000
10000000
01000000
00010000
00001000
,  // measure 56
00000010
00000100
00001000
00000010
00000100
00000001
00001000
00000100
,  // measure 57
00020200
00000000
00000000
00000000
,  // measure 58
00000000
00000000
00000000
00000000
,  // measure 59
00000000
00000000
00000000
00000000
,  // measure 60
00000000
00000000
00000000
00000000
,  // measure 61
00030300
00000000
00000000
00000000
;

//---------------dance-single - ----------------
#NOTES:
     dance-single:
     :
     Medium:
     6:
     0.341,0.460,0.010,0.134,0.096:
0000
0000
0000
0000
,
0000
0000
0000
0000
,
0000
0000
0000
0000
,
0000
0000
0000
0000
,
0010
0000
0000
0100
,
0001
0000
0000
0000
,
1000
1000
0000
0100
,
0010
0000
0000
0000
,
0001
1000
0000
0010
,
0100
0001
0000
0010
,
0100
0100
0000
1000
,
0001
0100
0000
0010
,
1000
0001
0010
0001
,
1000
0010
0100
0001
,
1000
0100
1000
0001
0010
0001
1000
0010
,
0000
0000
0000
0000
,
0100
0001
0100
0002
0000
0000
1003
0000
0100
0010
0000
0001
,
1000
0010
0100
0010
0100
0000
0001
0000
,
1000
0000
0000
0100
0000
0000
0010
0000
0001
1000
0000
0010
,
0100
0000
0010
0000
1000
0000
0001
0010
,
0200
0000
0000
1300
0000
0000
0010
0000
0100
0001
0000
0100
,
0010
1000
0001
0010
,
0100
1000
0010
0200
,
0301
0000
1000
0100
0000
0010
0001
0000
0100
0000
0000
0000
,
0020
0000
0130
0000
,
0001
0000
0000
1000
0100
0000
0000
0000
,
0020
0000
0130
0000
,
1000
0000
0000
0001
0100
0000
0000
0000
,
0020
1000
0130
0000
,
0001
0000
0000
1000
0100
0000
0010
0000
,
0200
1000
1300
0010
,
0100
0001
1000
0100
,
0010
0001
0010
0000
0100
1000
0100
0000
,
1000
0001
1000
0000
0001
0100
0001
0000
,
2000
0000
0000
0000
3010
0100
0010
0000
,
0100
0001
0100
0000
0001
1000
0001
0000
,
0020
0000
0130
0000
1000
0010
0100
0000
,
0001
1000
0001
0000
1000
0100
1000
0000
,
0002
1000
1003
0001
,
1000
0001
1000
0001
1000
0001
0000
0000
,
0100
0010
0100
0020
0000
0000
0130
0000
0100
0001
0000
0001
,
1000
0100
0010
0001
,
1000
0000
0000
0001
0000
0000
0100
0000
0010
1000
0000
0001
,
0010
0000
0100
0000
1000
0000
0001
0100
,
0020
0000
0000
0130
0000
0000
0001
0000
1000
0100
0000
0010
,
0100
1000
0010
0100
,
0001
0000
0010
0000
0100
1000
0100
1000
,
0001
0000
0000
1000
0000
0000
0001
0000
0000
0000
0000
0000
0100
0000
0000
0000
,
0010
1000
0001
0010
,
0001
0000
0100
0000
0010
1000
0100
0000
,
0010
0100
1000
0001
,
0100
0000
0010
0000
0100
0001
0010
0000
,
0100
1000
0100
0000
1000
0001
1000
0000
,
0001
0100
0001
0000
0100
0010
1000
0000
,
0001
0010
0001
0000
0010
0100
0010
0000
,
0100
1000
0100
0000
0010
0001
0100
0000
,
0220
0000
0000
0000
,
0000
0000
0000
0000
,
0000
0000
0000
0000
,
0000
0000
0000
0000
,
0330
0000
0000
0000
;

//---------------dance-double - ----------------
#NOTES:
     dance-double:
     :
     Medium:
     5:
     0.326,0.431,0.010,0.182,0.077:
00000000
00000000
00000000
00000000
,
00000000
00000000
00000000
00000000
,
00000000
00000000
00000000
00000000
,
00000000
00000000
00000000
00000000
,
10000000
00000000
00000000
00010000
,
00100000
00000000
00000000
00000000
,
00001000
00001000
00000000
00010000
,
00000010
00000000
00000000
00000000
,
00000100
00000001
00000000
00001000
,
00000100
00000010
00000000
00000100
,
00010000
00010000
00000000
00001000
,
01000000
00100000
00000000
10000000
,
01000000
10000000
00100000
01000000
,
00001000
00010000
00000100
00001000
,
00000010
00000000
00000100
00000000
00000001
00000000
00000010
00000100
,
00000010
00000000
00000000
00000000
,
00000100
00000000
00000000
00000100
00000000
00000000
00001000
00000000
00000001
00000100
00000000
00000010
,
00020000
00032000
00103000
01000000
,
10000000
00000000
00000000
00100000
00000000
00000000
01000000
00000000
00001000
00010000
00000000
00000100
,
00000010
00000000
00000001
00000000
00001000
00000000
00000010
00000100
,
00000020
00000000
00000000
00002030
00000000
00000000
00003100
00000000
00010000
00001000
00000000
00100000
,
00010000
01000000
00200000
20300000
,
31000000
00100000
00001000
00020000
,
00030010
00000000
00000100
00000001
00000000
00001000
00000100
00000000
00010000
00000000
00000000
00000000
,
00002000
00000000
01003000
00000000
,
00100000
00000000
00000000
10000000
00010000
00000000
00000000
00000000
,
00200000
00000000
00301000
00000000
,
00010000
00000000
00000000
00000010
00000100
00000000
00000000
00000000
,
00000002
00000010
00001003
00000000
,
00000010
00000000
00000000
00000100
00000001
00000000
00000000
00000000
,
00002000
00000100
00003001
00000100
,
00000010
00010000
00001000
01000000
,
00100000
00000000
01000000
00010000
01000000
00000000
00010000
00100000
,
00010000
00000000
00100000
00001000
00100000
00000000
00001000
00000000
,
00020000
00000000
00000000
00000000
00030010
00000000
00000100
00000001
,
00000100
00000000
00000001
00001000
00000001
00000000
00001000
00000000
,
00000200
00000000
00020300
00000000
00031000
00000000
01000000
00010000
,
01000000
00000000
00100000
10000000
00100000
00000000
01000000
00000000
,
00020000
00000000
10030000
00000000
,
00010000
10000000
00010000
00000000
,
00100000
00000000
00000000
00100000
00000000
00000000
00001000
00000000
00010000
00000010
00000000
00000100
,
00000001
00000010
00000100
00001000
,
00000010
00000000
00000000
00001000
00000000
00000000
00000100
00000000
00010000
00001000
00000000
00100000
,
00010000
00000000
10000000
00000000
00100000
00000000
01000000
00001000
,
00020000
00000000
00000000
00030200
00000000
00000000
00000310
00000000
00000001
00001000
00000000
00000010
,
00000100
00000010
00001000
00000100
,
00000010
00000000
00000001
00000000
00000010
00000100
00001000
00000100
,
00010000
00000000
00000000
00010000
00000000
00000000
00010000
00000000
00000000
00000000
00000000
00000000
00001000
00000000
01000000
00000000
,
00100000
01000000
00010000
10000000
,
01000000
00000000
00100000
00000000
00001000
00010000
00000010
00000000
,
00000100
00000001
00000010
00000100
,
00010000
00000000
00001000
00000000
01000000
00100000
10000000
00000000
,
01000000
00000000
00100000
00010000
00100000
00000000
00001000
00010000
,
00001000
00000000
00010000
00001000
00010000
00000100
00001000
00000000
,
00000010
00000000
00000100
00000001
00000100
00000000
00000001
00001000
,
00000001
00000000
00001000
00000100
00001000
00000010
00000100
00000000
,
00000202
00000000
00000000
00000000
,
00000000
00000000
00000000
00000000
,
00000000
00000000
00000000
00000000
,
00000000
00000000
00000000
00000000
,
00000303
00000000
00000000
00000000
;

//---------------dance-single - ----------------
#NOTES:
     dance-single:
     :
     Beginner:
     1:
     0.153,0.188,0.000,0.048,0.000:
0000
0000
0000
0000
,
0000
0000
0000
0000
,
0000
0000
0000
0000
,
0000
0000
0000
0000
,
1000
0000
0000
0000
,
0010
0000
0000
0000
,
0100
0000
0000
0000
,
0001
0000
0000
0000
,
0010
0000
0000
0000
,
0100
0000
0000
0000
,
1000
0000
0000
0000
,
0001
0000
0000
0000
,
0100
0000
0000
0000
,
0010
0000
0000
0000
,
0100
0000
0001
0000
,
1000
0000
0000
0000
,
0001
0000
0010
0010
,
0010
0000
0001
0000
,
1000
0000
0010
0010
,
0010
0000
0100
0000
,
0001
0000
1000
1000
,
1000
0000
0100
0000
,
0010
0000
0001
0000
,
0100
0100
0100
0000
,
0020
0030
1000
0000
,
0001
0000
0010
0000
,
0200
0300
1000
0000
,
0001
0000
0100
0000
,
0010
0010
0010
0000
,
0100
0000
0001
0000
,
1000
1000
1000
0000
,
0100
0000
0010
0000
,
0002
0003
1000
0000
,
0010
0000
0100
0000
,
0020
0030
0100
0000
,
0001
0000
1000
0000
,
0100
0000
1000
0000
,
0001
0000
1000
0000
,
0020
0030
0100
0000
,
0100
0100
0100
0000
,
0001
0000
1000
1000
,
1000
0000
0100
0000
,
1000
0000
0001
0001
,
0001
0000
0100
0000
,
0010
0000
0100
0100
,
0100
0000
0001
0000
,
1000
0000
0100
0000
,
0010
0000
0000
0000
,
0001
0000
1000
0000
,
0001
0000
0100
0100
,
0100
0000
0010
0000
,
1000
0000
0001
0001
,
0001
0000
0010
0000
,
0100
0000
1000
1000
,
1000
0000
0001
0000
,
0100
0000
0010
0010
,
0010
0000
0000
0000
;

//---------------dance-single - ----------------
#NOTES:
     dance-single:
     :
     Easy:
     3:
     0.201,0.241,0.000,0.057,0.000:
0000
0000
0000
0000
,
0000
0000
0000
0000
,
0000
0000
0000
0000
,
0000
0000
0000
0000
,
1000
0000
0000
0000
,
0010
0000
0000
0000
,
0100
0000
0000
0000
,
0001
0000
0000
0000
,
0010
0100
0000
1000
,
0000
0001
0000
0100
,
0000
0010
0000
0100
,
0000
0001
0000
0010
,
0100
0000
1000
0000
,
0001
0000
0100
0000
,
0001
1000
0001
1000
,
0000
0000
0000
0000
,
0100
0000
0010
0001
,
0010
0000
0001
0100
,
0010
0000
0100
0001
,
0100
0000
0001
1000
,
0100
0000
0010
0001
,
0010
0000
0100
1000
,
0001
0100
0010
0000
,
1000
0001
1000
0000
,
0020
0000
0130
0000
,
0001
0000
1000
0000
,
0200
0000
0310
0000
,
0100
0000
1000
0000
,
0002
0000
1003
0000
,
0010
0000
0100
0000
,
0020
0000
0130
0100
,
0001
0001
0010
0010
,
0100
1000
0100
1000
,
0001
0100
0001
0100
,
0020
0000
0130
0001
,
0100
0001
1000
0100
,
1000
0000
0010
0100
,
0010
0100
0001
1000
,
0002
0000
0013
0100
,
0010
0100
1000
0000
,
0001
0000
0100
0010
,
0100
0000
0001
1000
,
0100
0000
0010
0001
,
0010
0000
0100
1000
,
0001
0000
1000
0010
,
1000
0000
0010
0000
,
0100
0001
0100
0010
,
1000
0000
0000
0000
,
0001
0000
1000
0000
,
0100
0000
1000
0001
,
0010
0000
0100
0000
,
1000
0000
0001
0100
,
0010
1000
0010
1000
,
0001
0010
0001
1000
,
0010
0100
0010
0100
,
0001
1000
0001
0010
,
0100
0000
0000
0000
;

//---------------dance-double - ----------------
#NOTES:
     dance-double:
     :
     Easy:
     3:
     0.227,0.268,0.077,0.000,0.000:
00000000
00000000
00000000
00000000
,
00000000
00000000
00000000
00000000
,
00000000
00000000
00000000
00000000
,
00000000
00000000
00000000
00000000
,
10000000
00000000
00000000
01000000
,
01000000
00000000
00000000
00000000
,
00100000
00100000
00000000
00001000
,
00001000
00000000
00000000
00000000
,
00010000
00000100
00000000
00001000
,
00000000
00000010
00000000
00000100
,
00000000
00000001
00000000
00000010
,
00000000
00000100
00000000
00010000
,
00001000
00010000
00001000
00010000
,
00001000
01000000
00001000
01000000
,
00010000
00100000
01000000
10000000
,
00010000
00000000
00000000
00000000
,
01000000
00010000
00100000
00100000
,
00001000
00000000
00010000
00000000
,
00000010
00000000
00000100
00000100
,
00000001
00001000
00000100
00010000
,
00001000
00000000
00100000
00100000
,
00010000
00100000
01000000
10000000
,
00010000
00000000
01000000
00000000
,
00100000
01000000
00001000
00000000
,
00011000
00000000
00010000
00000000
,
00000100
00000010
00000001
00000000
,
00001001
00000000
00001000
00000000
,
00000010
00010000
00001000
00000000
,
00011000
00000000
00001000
00000000
,
01000000
00100000
10000000
00000000
,
11000000
00000000
01000000
00100000
,
00001000
00010000
00000010
00000100
,
00000101
00000000
00000001
00001000
,
00000100
00001000
00000010
00010000
,
00001000
00000000
00100000
00010000
,
00100000
01000000
10000000
00010000
,
01010000
00000000
01000000
00001000
,
00010000
00000100
00010000
00001000
,
00100000
00000000
01000000
10000000
,
00010000
00000000
00000000
00000000
,
10000000
00100000
01000000
01000000
,
00010000
00100000
00001000
00000000
,
00010000
00000100
00001000
00001000
,
00000001
00000100
00000010
00000100
,
00000001
00000000
00001000
00001000
,
00000100
00010000
00000100
00010000
,
00001000
00010000
00001000
00010000
,
00001000
00000000
00000000
01000000
,
00100000
10000000
00100000
01000000
,
00010000
00100000
00001000
00000000
,
00010000
00000100
00010000
00000010
,
00000100
00000010
00001000
00000000
,
00001001
00000000
00000001
00000010
,
00000001
00000100
00000010
00001000
,
00000100
00010000
00001000
00100000
,
01000000
10000000
00010000
00000000
,
10010000
00000000
00000000
00000000
;
