#TITLE:Jig;
#SUBTITLE:[ANOTHER];
#ARTIST:Tom Encore;
#TITLETRANSLIT:;
#SUBTITLETRANSLIT:;
#ARTISTTRANSLIT:;
#GENRE:;
#CREDIT:;
#MENUCOLOR:;
#METERTYPE:DDR;
#BANNER:JigA-bn.png;
#BACKGROUND:JigA-bg.png;
#LYRICSPATH:;
#CDTITLE:currentcdtitle.png;
#MUSIC:Jig [A].mp3;
#OFFSET:-0.034;
#SAMPLESTART:86.123;
#SAMPLELENGTH:12.174;
#SELECTABLE:YES;
#LISTSORT:;
#BPMS:0.000=138.000;
#STOPS:;
#BGCHANGES:;
#ATTACKS:;

//---------------dance-single - ----------------
#NOTES:
     dance-single:
     :
     Challenge:
     10:
     0.787,0.940,0.114,0.180,1.000: // measure 1
0000
0000
0000
0000
0000
0000
1000
0001
1000
0002
0000
0000
,  // measure 2
0013
0000
0100
0000
1000
0000
0010
0000
0100
0000
0001
0000
1000
0000
0000
0100
0000
0000
0001
0000
0000
0100
0000
0000
,  // measure 3
1000
0001
1000
0010
0100
0010
1000
0000
0001
0010
0001
1000
,  // measure 4
0010
0100
0001
0010
0100
1000
0010
0100
0010
1000
0001
1000
,  // measure 5
0001
0000
0010
0000
0001
0000
1000
0000
0000
0010
0000
0000
0200
0000
0000
0000
0000
0000
0301
0000
0000
0000
0000
0000
,  // measure 6
1000
0010
0100
0001
0010
0100
1000
0001
1000
0002
0000
0000
,  // measure 7
1003
0100
1000
0001
0100
0001
1000
0010
1000
0001
0010
0001
,  // measure 8
0000
0000
0000
0200
0000
0000
0310
1000
0001
1000
0001
0010
,  // measure 9
0001
0010
0100
0000
0000
0000
2100
0000
0000
0000
0000
0000
,  // measure 10
3000
0010
0000
0100
0000
0010
0000
1000
0000
0001
0000
1000
0000
0001
0000
0010
0000
0001
0000
1000
0000
0010
0000
1000
,  // measure 11
0000
0010
0000
0100
0000
0001
0000
1000
0000
0100
0000
0010
0002
0000
0000
0000
0000
0000
0000
0000
0000
0000
0000
0000
,  // measure 12
0003
0100
0000
0010
0000
0100
0000
0001
0000
1000
0000
0001
0000
1000
0000
0100
0000
1000
0000
0001
0000
0100
0000
0001
,  // measure 13
0000
1000
0000
0100
0000
0010
0000
0001
0000
1000
0000
0010
0200
0000
0000
0000
0000
0000
0001
0000
0000
0000
0000
0000
,  // measure 14
0300
0001
0000
1000
0000
0001
0000
1000
0000
0010
0000
1000
0000
0010
0000
0100
0000
0010
0000
0100
0000
0001
0000
0100
,  // measure 15
0000
0001
0000
1000
0000
0100
0000
0010
0000
0100
0000
1000
0002
0000
0000
0000
0000
0000
0100
0000
0000
0000
0000
0000
,  // measure 16
1003
0000
0000
0011
0000
0000
0000
1001
0000
0000
0000
1010
0000
0000
0000
0101
,  // measure 17
0000
0000
0000
1001
0000
0000
0000
1000
0100
0000
0010
0001
0010
0100
1000
0001
,  // measure 18
0100
0001
1000
0100
1000
0010
0100
0001
0100
0010
1000
0001
0010
0100
1000
0001
,  // measure 19
0100
0001
1000
0010
0100
0001
1000
0100
0020
0000
0000
0000
0000
0000
0000
0000
,  // measure 20
0130
1000
0001
1000
0010
0100
0001
0010
0100
1000
0100
0010
0001
1000
0100
0010
,  // measure 21
0100
0010
0001
1000
0010
0100
0001
1000
0020
0000
0000
0000
0130
0000
0000
0000
,  // measure 22
0001
1000
0010
0100
0001
0010
0100
1000
0010
0100
0010
1000
0001
0010
0001
1000
,  // measure 23
0100
0010
0001
1000
0010
0100
0001
1000
0001
0000
0000
0000
1000
0000
0000
0000
,  // measure 24
0001
0000
0000
0000
0000
0000
1000
0000
0000
0000
0000
0001
0000
0000
0000
1000
0000
0000
0001
0000
0000
1000
0000
0001
0000
1000
0000
0001
0000
1000
0000
0001
,  // measure 25
0000
0000
0000
0000
0000
0000
1000
0000
0000
0000
0000
0000
0000
0000
0000
0000
0000
0000
0001
0000
0000
0000
0000
0000
0000
0000
0000
0000
0000
0000
1000
0000
0000
0000
0000
0000
0000
0000
0000
0000
0000
0000
0000
0000
0000
0000
0000
0000
0000
0000
0000
0000
0000
0000
0000
0000
0000
0000
0000
0000
0000
0000
0000
0000
0000
0000
0000
0000
0000
0000
0000
0000
0000
0000
0000
0000
0000
0000
0000
0000
0000
0000
0000
0000
0000
0000
0000
0000
0000
0000
0000
0000
0000
0000
0000
0000
0010
0000
0000
0000
0000
0000
0000
0000
0000
0000
0000
0000
0000
0000
0000
0000
0100
0000
0000
0000
0000
0000
0000
0000
0000
0000
0000
0000
0000
0000
0000
0000
0001
0000
0000
0000
0000
0000
0000
0000
0000
0000
0000
0000
0000
0000
0000
0000
2000
0000
0000
0000
0000
0000
0000
0000
0000
0000
0000
0000
0000
0000
0000
0000
0000
0000
0000
0000
0000
0000
0000
0000
0000
0000
0000
0000
0000
0000
0000
0000
0000
0000
0000
0000
0000
0000
0000
0000
0000
0000
0000
0000
0000
0000
0000
0000
,  // measure 26
3100
0010
0001
1000
0100
0010
0001
1000
0010
1000
0001
0010
,  // measure 27
0100
1000
0100
1000
0010
1000
0010
0100
0001
1000
0010
1000
,  // measure 28
0001
0010
0100
1000
0001
0010
0100
1000
0001
1000
0010
0100
,  // measure 29
0001
0000
1000
0000
0001
0000
0010
0000
0000
0010
0000
0000
0200
0000
0000
0000
0000
0000
1300
0000
0000
0000
0000
0000
,  // measure 30
0010
0100
0001
1000
0010
0100
0001
1000
0100
1000
0010
0100
,  // measure 31
0001
0010
0001
1000
0100
1000
0001
0100
0010
0100
0001
1000
,  // measure 32
0100
0010
0001
1000
0100
0010
0001
1000
0010
1000
0010
0100
,  // measure 33
0001
0010
0001
1000
0010
1000
0010
0100
0001
2000
0000
0000
,  // measure 34
3100
0010
0100
1000
,  // measure 35
0010
0000
0100
0000
0010
1000
0001
0010
,  // measure 36
0001
1000
0010
1000
0001
0010
0100
1000
0010
0000
0000
0010
0000
0000
0010
0000
,  // measure 37
0000
0000
0000
0000
0100
0000
0001
1000
0001
0010
0000
0010
0100
0000
1000
0000
,  // measure 38
0010
0100
0000
0100
0001
0000
1000
0000
0001
0010
0000
0010
0100
0000
1000
0000
,  // measure 39
0010
1000
0000
0000
1100
0000
0000
0000
0100
0010
0000
0010
0001
0000
1000
0000
,  // measure 40
0001
0100
0000
0100
0010
0000
1000
0000
0010
0100
0000
0100
0001
0000
1000
0000
,  // measure 41
0100
0010
0000
0000
0011
0000
0000
0000
0100
0000
1000
0001
0100
0001
1000
0010
,  // measure 42
0100
0010
1000
0001
0010
0001
1000
0100
1000
0001
0100
0001
1000
0010
1000
0001
,  // measure 43
0010
0100
1000
0100
0010
0001
1000
0010
0100
0001
0100
0010
1000
0001
0010
0100
,  // measure 44
0010
0001
0010
0100
1000
0001
0100
0010
0100
0001
1000
0100
0010
0100
1000
0001
,  // measure 45
0100
0010
0100
0001
0010
0100
1000
0001
2002
0000
0000
0000
0000
0000
0000
0000
,  // measure 46
0000
0000
0000
0000
,  // measure 47
0000
0000
0000
0000
,  // measure 48
0000
0000
0000
0000
,  // measure 49
0000
0000
0000
3003
0000
0000
1000
1000
1000
1000
1000
1000
,  // measure 50
0100
0000
0010
0000
0001
0000
1000
0000
0010
0000
0100
0000
0101
0000
0000
0001
0000
0000
1100
0000
0000
1000
0000
0000
,  // measure 51
0010
0000
0100
0000
0010
0000
1000
0000
0001
0000
1000
0000
0001
0000
0000
0010
0000
0100
0000
1000
0000
0100
0000
0010
,  // measure 52
0001
1000
0010
1000
0001
0010
0100
1000
0001
1000
0010
0100
,  // measure 53
0001
0000
0010
0000
0001
0000
1000
0000
0000
1000
0000
0000
0020
0000
0000
0000
0000
0000
0130
0000
0000
0000
0000
0000
,  // measure 54
0001
0100
0010
1000
0001
0100
0010
1000
0010
0100
0001
1000
,  // measure 55
0100
0000
0000
0001
0000
0000
0100
0000
0000
1000
0000
0000
0001
0000
0100
0000
0010
0000
0100
0000
0001
0000
1000
0000
,  // measure 56
0100
0000
0000
2000
0000
0000
3010
0100
0001
0100
0001
1000
,  // measure 57
0001
1000
0100
0000
0000
0000
0020
0000
0000
0030
0000
0000
,  // measure 58
0100
0000
0000
0000
1000
1000
0000
0000
,  // measure 59
1001
0000
0000
0000
0000
0000
0000
0000
0001
0100
0000
0000
0000
0000
0000
0000
,  // measure 60
0020
0000
0030
0000
0100
0001
0000
0000
,  // measure 61
0010
0000
0000
0000
;

//---------------dance-double - ----------------
#NOTES:
     dance-double:
     :
     Challenge:
     10:
     0.817,0.944,0.142,0.237,1.000:
00000000
00000000
00000000
00000000
00000000
00000000
00001000
00100000
00010000
02000000
00000000
00000000
,
03100000
00000000
10000000
00000000
00010000
00000000
00100000
00000000
00001000
00000000
00010000
00000000
00001000
00000000
00000000
01000000
00000000
00000000
00010000
00000000
00000000
00100000
00000000
00000000
,
00001000
00010000
00001000
00010000
00000100
00010000
00000100
00000000
00000010
00000001
00000010
00000100
,
00001000
00000100
00010000
00001000
01000000
00100000
10000000
01000000
00100000
01000000
10000000
00010000
,
01000000
00000000
00100000
00000000
01000000
00000000
00001000
00000000
00000000
00001000
00000000
00000000
00020000
00000000
00000000
00000000
00000000
00000000
00030200
00000000
00000000
00000000
00000000
00000000
,
00000310
00000001
00001000
00000100
00000010
00000001
00001000
00000010
00001000
00000200
00000000
00000000
,
00010300
00001000
00010000
00001000
01000000
00001000
01000000
00100000
01000000
00010000
10000000
01000000
,
00100000
00000000
00000000
00020000
00000000
00000000
10030000
01000000
00100000
00010000
00000010
00000100
,
00001000
00000000
00000010
00000000
00000100
00000000
00000000
00000000
00000000
00000000
00000000
00000000
00000102
00000000
00000000
00000000
00000000
00000000
00000003
00000000
00000000
00001000
00000000
00000000
,
00000100
00000010
00000000
00000001
00000000
00000010
00000000
00000100
00000000
00001000
00000000
00000001
00000000
00000100
00000000
00000010
00000000
00001000
00000000
00000010
00000000
00000100
00000000
00000001
,
00000000
00001000
00000000
00000100
00000000
00001000
00000000
00000010
00000000
00010000
00000000
00000010
00000200
00000000
00000000
00000000
00000000
00000000
00000300
00000000
00000000
00000010
00000000
00000000
,
00001000
00000100
00000000
00010000
00000000
00001000
00000000
01000000
00000000
00100000
00000000
10000000
00000000
01000000
00000000
00100000
00000000
01000000
00000000
10000000
00000000
00100000
00000000
01000000
,
00000000
00001000
00000000
00010000
00000000
00001000
00000000
00010000
00000000
00000100
00000000
00010000
00000020
00000000
00000000
00000000
00000000
00000000
00010000
00000000
00000000
00000000
00000000
00000000
,
00000130
00000001
00000000
00001000
00000000
00000100
00000000
00000010
00000000
00000100
00000000
00001000
00000000
00000010
00000000
00000100
00000000
00000001
00000000
00001000
00000000
00000001
00000000
00000010
,
00000000
00000100
00000000
00010000
00000000
00000100
00000000
00010000
00000000
00001000
00000000
00010000
00002000
00000000
00000000
00000000
00000000
00000000
01003000
00000000
00000000
00100000
00000000
00000000
,
10000000
00000000
00000000
00110000
00000000
00000000
00000000
00001100
00000000
00000000
00000000
00000011
00000000
00000000
00000000
00000101
,
00000000
00000000
00000000
00001010
00000000
00000000
00000000
00010000
00001000
00000000
00100000
01000000
10000000
00010000
01000000
00010000
,
00100000
00001000
00010000
00000010
00000100
00000001
00000010
00000100
00010000
00001000
01000000
00100000
10000000
00100000
01000000
00010000
,
00100000
01000000
10000000
01000000
00100000
00010000
10000000
00100000
02000000
00000000
00000000
00000000
00000000
00000000
00000000
00000000
,
03100000
10000000
00100000
01000000
00010000
00100000
00001000
00010000
00000010
00010000
00001000
00010000
00000100
00000010
00000001
00001000
,
00000100
00010000
00001000
00100000
00001000
00010000
00000100
00001000
00000020
00000000
00000000
00000000
00000230
00000000
00000000
00000000
,
00000310
00001000
00000100
00010000
00001000
01000000
00100000
10000000
00100000
01000000
00010000
00100000
01000000
10000000
01000000
00100000
,
00001000
00010000
00000100
00010000
00001000
01000000
00100000
10000000
02000000
00000000
00000000
00000000
00000000
00000000
00000000
00000000
,
03100000
01000000
10000000
01000000
00100000
00001000
00010000
00000010
00000100
00000001
00000100
00000010
00001000
00000001
00000100
00000001
,
00001000
00000000
00000000
00000100
00000000
00000000
00001000
00000000
00000000
00000001
00000000
00000000
00000010
00000000
00000000
00000000
00000000
00000000
00000000
00000000
00000000
00000000
00000000
00000000
00000100
00000000
00000000
00000000
00001000
00000000
00000000
00000000
00000001
00000000
00000000
00000000
00000200
00000000
00000000
00000000
00000000
00000000
00000000
00000000
00000000
00000000
00000000
00000000
,
00000310
00001000
00000001
00000100
00000001
00001000
00000100
00001000
00000010
00000100
00000010
00001000
,
00000100
00010000
00000100
00010000
00001000
00010000
00001000
01000000
00100000
10000000
01000000
00100000
,
01000000
10000000
00010000
00100000
00010000
10000000
00100000
01000000
00001000
00010000
00000100
00000010
,
00000001
00000000
00000010
00000000
00000001
00000000
00001000
00000000
00000000
00001000
00000000
00000000
00000200
00000000
00000000
00000000
00000000
00000000
00020300
00000000
00000000
00000000
00000000
00000000
,
00031000
00100000
00010000
00100000
00001000
00010000
00000010
00000100
00000001
00001000
00000100
00001000
,
00000001
00000100
00000001
00001000
00000010
00001000
00000001
00000010
00000100
00010000
00001000
01000000
,
00100000
10000000
01000000
00100000
00010000
01000000
00100000
10000000
00010000
00100000
00001000
00010000
,
00000100
00001000
00000100
00001000
00000010
00001000
00000010
00000100
00000001
00002000
00000000
00000000
,
00003100
00010000
00001000
01000000
,
00100000
00000000
10000000
00000000
01000000
00100000
00010000
00000010
,
00000100
00001000
00000100
00000010
00000001
00001000
00000100
00010000
00001000
00000000
00000000
00001000
00000000
00000000
00001000
00000000
,
00000000
00000000
00000000
00000000
01000000
00000000
01000000
00100000
10000000
00000000
01000000
00000000
00100000
00000000
00001000
00010000
,
00000010
00000000
00000100
00000000
00000001
00000000
00000010
00000100
00010000
00000000
00001000
00000000
01000000
00000000
00100000
10000000
,
01000000
00100000
00000000
00000000
00011000
00000000
00000000
00000000
00000100
00000000
00001000
00000000
00000010
00000000
00000100
00000001
,
00001000
00000000
00000100
00000000
00010000
00000000
00001000
01000000
00100000
00000000
10000000
00000000
00010000
00000000
00100000
00001000
,
00010000
00000100
00000000
00000000
00001001
00000000
00000000
00000000
00001000
00000000
00000010
00000100
00000010
00001000
00000001
00000010
,
00000100
00001000
00000100
00000010
00000001
00000100
00000010
00001000
00000100
00010000
00001000
00100000
00010000
01000000
00100000
10000000
,
01000000
00100000
01000000
10000000
00100000
01000000
00001000
00010000
00000010
00010000
00001000
00100000
00001000
00010000
00000010
00000100
,
00000001
00000010
00000100
00010000
00001000
01000000
00100000
10000000
01000000
00100000
00001000
00010000
00000010
00000100
00000001
00000010
,
00000100
00001000
00000100
00000010
00000001
00000100
00000010
00010000
00022000
00000000
00000000
00000000
00000000
00000000
00000000
00000000
,
00000000
00000000
00000000
00000000
,
00000000
00000000
00000000
00000000
,
00000000
00000000
00000000
00000000
,
00000000
00000000
00000000
00033000
00000000
00000000
00001000
00001000
00001000
00001000
00001000
00001000
,
00100000
00000000
00010000
00000000
01000000
00000000
00100000
00000000
10000000
00000000
01000000
00000000
11000000
00000000
00000000
00100000
00000000
00000000
00110000
00000000
00000000
00001000
00000000
00000000
,
00010000
00000000
00000100
00000000
00010000
00000000
00000010
00000000
00001000
00000000
00000010
00000000
00000110
00000000
00000000
00000100
00000000
00000001
00000000
00000010
00000000
00000100
00000000
00001000
,
00000100
00010000
00001000
00010000
00000100
00001000
00000010
00000100
00000010
00001000
00000100
00010000
,
00001000
00000000
01000000
00000000
00001000
00000000
00100000
00000000
00000000
00100000
00000000
00000000
02000000
00000000
00000000
00000000
00000000
00000000
23000000
00000000
00000000
00000000
00000000
00000000
,
30100000
01000000
00010000
10000000
00100000
01000000
00010000
00100000
00001000
00010000
00000010
00000100
,
00000101
00000000
00000000
00000010
00000000
00000000
00001010
00000000
00000000
00010000
00000000
00000000
00001000
00000000
00100000
00000000
01000000
00000000
10000000
00000000
00100000
00000000
01000000
00000000
,
00010000
00000000
00000000
00200000
00000000
00000000
00301000
00010000
00000100
00010000
00000100
00001000
,
00000100
00001000
00000010
00000000
00000000
00000000
00000200
00000000
00000000
00000300
00000000
00000000
,
00000001
00000000
00000000
00000000
00001000
00001000
00000000
00000000
,
00001100
00000000
00000000
00000000
00000000
00000000
00000000
00000000
00000100
00010000
00000000
00000000
00000000
00000000
00000000
00000000
,
00002000
00000000
00003000
00000000
01000000
00001000
00000000
00000000
,
00020000
00030000
00000000
00000000
;
