#TITLE:Je t'adore;
#SUBTITLE:;
#ARTIST:Kate Ryan;
#TITLETRANSLIT:;
#SUBTITLETRANSLIT:;
#ARTISTTRANSLIT:;
#GENRE:;
#CREDIT:;
#MENUCOLOR:;
#METERTYPE:DDR;
#BANNER:Je t'adore-bn.png;
#BACKGROUND:Je t'adore-bg.png;
#LYRICSPATH:;
#CDTITLE:ddrencorecdtitle.png;
#MUSIC:Je t'adore.mp3;
#OFFSET:-3.722;
#SAMPLESTART:34.640;
#SAMPLELENGTH:14.220;
#SELECTABLE:YES;
#LISTSORT:;
#BPMS:0.000=135.000;
#STOPS:;
#BGCHANGES:;
#ATTACKS:;

//---------------dance-single - ----------------
#NOTES:
     dance-single:
     :
     Hard:
     8:
     0.450,0.460,0.423,0.252,0.472: // measure 1
0000
0000
0000
0000
,  // measure 2
0000
0000
0000
0000
,  // measure 3
1000
0000
0000
0100
0000
0000
1000
0000
1000
0001
0000
0000
,  // measure 4
0100
0000
0000
0001
0000
0000
1000
0000
0010
0100
0000
0100
,  // measure 5
0001
1000
0100
0010
,  // measure 6
0001
0010
0001
0010
0000
0100
1000
0001
0100
0001
0000
1000
,  // measure 7
0010
0000
0000
0100
0000
0001
1000
0000
0000
0100
0000
0000
,  // measure 8
0010
0000
0000
0001
0000
0000
0100
0000
0100
0010
0000
0000
,  // measure 9
1010
0000
0000
1000
0000
0000
0001
0000
1000
0100
0000
0000
,  // measure 10
1000
0000
0000
0001
0000
0000
1000
0000
0000
0100
0000
0100
,  // measure 11
0020
0000
0000
0001
0000
0000
0100
0000
0000
0031
0000
0011
,  // measure 12
0000
0000
1100
0000
0000
1010
0000
0000
0101
0000
0000
0001
,  // measure 13
2000
0000
0000
0010
0000
0000
0001
0000
0000
3100
0000
1100
,  // measure 14
0000
0000
0011
0000
0000
0101
0000
0000
1010
0000
0000
0001
,  // measure 15
0100
0000
0000
0001
0000
1000
0100
0000
0010
0000
0000
0110
,  // measure 16
0000
0000
1100
0000
0000
0011
0000
0000
1001
0000
0000
0000
,  // measure 17
2010
3001
0012
1003
,  // measure 18
0220
0000
0000
0330
0000
0000
1000
0000
0001
0000
0000
0110
,  // measure 19
0000
0000
0000
1010
0000
1000
0001
0000
0000
0010
0000
0001
,  // measure 20
0100
0000
0000
0010
0000
0000
1000
0000
1100
0000
0000
0011
,  // measure 21
0000
0000
0000
1000
0000
0010
0100
0000
0000
0001
0000
0010
,  // measure 22
0100
0000
0000
0010
0000
0001
1000
0000
0001
0000
0000
1001
,  // measure 23
0000
0000
1000
0010
0000
0000
0100
0000
0001
0100
0000
0100
,  // measure 24
0001
0000
0000
1000
0000
0000
0100
0000
1000
0100
0000
2100
,  // measure 25
0000
0010
0001
3100
,  // measure 26
0010
0000
0000
0001
0000
0000
0100
0000
0001
0000
0000
0101
,  // measure 27
0000
0000
0000
1010
0000
1000
0100
0000
0000
0011
0000
0001
,  // measure 28
0100
0000
0000
0010
0000
1000
0100
0000
0110
0000
0000
1001
,  // measure 29
0000
0000
0000
1000
0000
0010
1000
0000
0000
0001
0000
1000
,  // measure 30
0001
0000
0000
1000
0000
0100
0010
0000
0001
0000
0000
1001
,  // measure 31
0000
0000
1000
0010
0000
0100
0002
0000
0000
0003
0000
1001
,  // measure 32
0000
0000
1000
0010
0000
0100
0002
0000
0000
0003
0000
1001
,  // measure 33
0000
0000
0000
1000
0000
0000
0001
0000
0000
0100
0000
0010
,  // measure 34
1000
0000
0000
0001
0000
0000
1000
0000
0000
0100
0000
0100
,  // measure 35
2000
0000
3200
0000
,  // measure 36
0310
0001
0010
0001
1000
0100
1000
0000
0001
0000
0000
2002
,  // measure 37
0000
0000
0000
3003
,  // measure 38
2000
0000
3020
0000
,  // measure 39
0230
0000
0000
0000
,  // measure 40
0320
0000
2030
0000
,  // measure 41
3001
1000
0100
0010
,  // measure 42
0100
1000
0001
0100
,  // measure 43
0010
0001
0010
1000
,  // measure 44
0100
0010
0001
0100
,  // measure 45
0010
1000
0002
0000
0010
0000
1000
0000
,  // measure 46
0103
0001
1000
0010
,  // measure 47
0202
0303
2020
3030
,  // measure 48
1001
0000
0000
0000
0000
0000
1000
0000
0001
0000
0000
1001
,  // measure 49
0000
0000
0000
1000
0000
0001
0010
0000
0000
0001
0000
0100
,  // measure 50
0000
0000
0101
0000
0000
0000
1010
0000
0101
0000
0000
1001
,  // measure 51
0000
0000
0000
0001
0000
1000
0100
0000
0000
0010
0000
0001
,  // measure 52
0010
0000
0000
0001
0000
0000
0100
0000
0010
0000
0000
1010
,  // measure 53
0000
0000
1000
0001
0000
1000
0200
0000
0000
0000
0000
1300
,  // measure 54
0000
0000
0001
0010
0000
0001
0200
0000
0001
0000
0000
0301
,  // measure 55
0000
0000
0000
1000
0000
1000
0100
0000
0100
0010
0000
0010
,  // measure 56
0001
0000
0001
0100
0000
0000
0010
0000
1000
0000
0000
1001
,  // measure 57
0000
0000
0000
1100
0000
0010
0001
0000
0000
0101
0000
0010
,  // measure 58
1000
0000
0000
0001
0000
1000
0100
0000
1100
0000
0000
0011
,  // measure 59
0000
0000
0000
0001
0000
1000
0010
0000
0000
1000
0000
0001
,  // measure 60
0100
0000
0000
0010
0000
0000
1000
0000
0001
0000
0000
1001
,  // measure 61
0000
0000
1000
0010
0000
0010
0100
0000
0000
0001
0000
0101
,  // measure 62
0000
0000
0100
0001
0000
0001
1000
0000
0100
0000
0000
1000
,  // measure 63
0002
0010
0203
0010
,  // measure 64
0302
1000
0023
0100
,  // measure 65
0031
0011
0100
1100
,  // measure 66
1001
0000
0001
0100
0010
1000
0001
0000
1001
0000
0000
0220
,  // measure 67
0000
0000
0330
0000
;

//---------------dance-single - ----------------
#NOTES:
     dance-single:
     :
     Medium:
     5:
     0.330,0.433,0.155,0.277,0.175:
0000
0000
0000
0000
,
0000
0000
0000
0000
,
1000
0001
0100
0010
,
1000
0100
0010
0001
,
2000
0000
3020
0000
,
0230
0000
0000
0000
0000
0302
0000
0000
0000
0003
0000
0000
,
1000
0100
0010
0100
,
1000
0010
0100
0010
,
2000
0000
3002
0000
,
2003
0000
0000
0000
0000
3200
0000
0000
0000
0300
0000
0100
,
0010
0001
0010
0001
,
0100
0010
1000
0001
,
1001
0000
1000
0100
,
0010
0001
0100
0010
,
1010
0000
1000
0010
,
0100
0001
0010
0001
,
1100
0000
1001
0000
,
0202
0000
0000
0303
,
1000
0000
0000
0010
0000
0000
1000
0000
0000
0001
0000
1000
,
0000
0000
0001
0000
0000
0000
0010
0000
0000
0001
0000
0000
,
1000
0000
0000
0100
0000
0000
0010
0000
0000
0001
0000
1000
,
0000
0000
0001
0000
0000
0000
1000
0000
0000
0010
0000
0000
,
0100
0000
0000
0001
0000
1000
0100
0000
0000
0000
0000
0000
,
0100
0000
0000
1000
0000
0001
0010
0000
0000
0000
0000
0000
,
1000
0100
0010
0001
,
0100
0000
0000
0010
0000
0000
0100
0000
0010
0000
0000
0110
,
0000
0010
1000
0100
,
0010
0000
0000
0001
0000
0000
1000
0000
0001
0000
0000
1001
,
0000
1000
0010
0100
,
0001
0000
0000
1000
0000
0000
0100
0000
1000
0000
0000
0001
,
0000
0000
1000
0100
0000
0000
0010
0000
0000
0100
0000
0010
,
0000
0000
0000
0001
0000
1000
0001
0000
1000
0000
0000
1001
,
0000
1000
0010
0100
,
0001
1000
0100
0010
,
0200
0000
2300
0000
,
3002
0000
0000
0000
0000
0000
0103
0000
0001
0000
0000
2002
,
0000
0000
0000
3003
,
2000
0000
3200
0000
,
0320
0000
0000
0000
,
0032
0000
2003
0000
,
3010
1000
0001
0100
,
0001
0010
0100
1000
,
0010
0100
0001
0010
,
0100
1000
0010
1000
,
0001
2000
0010
0010
,
0100
0100
0001
3001
,
0202
0303
2020
3030
,
2002
0000
0000
3003
0000
0000
1000
0000
0001
0000
0000
2002
,
0000
0000
0000
3003
0000
0000
0001
0000
0000
1000
0000
0010
,
0000
0000
1000
0000
0000
0000
1000
0000
1010
0000
0000
0101
,
0000
0000
0000
0001
0000
0000
1000
0000
0000
0100
0000
0010
,
0100
0100
0010
0001
,
1000
0000
1000
0001
0000
0000
0010
0000
0000
0001
0000
0000
,
1000
0000
1000
0100
0000
0000
0010
0000
0001
0000
0000
1001
,
0000
1000
0010
0100
,
0001
0000
0000
0010
0000
0000
0100
0000
0010
0000
0000
0110
,
0000
0100
1000
0001
,
1000
0000
0000
0010
0000
0000
0100
0000
0001
0000
0000
2000
,
0000
3010
1000
0100
,
0010
0000
0000
0001
0000
0000
1000
0000
0100
0000
0000
0020
,
0000
0000
0000
0001
0000
0000
0031
0000
0000
1000
0000
0002
,
0000
0000
0000
0100
0000
0000
0103
0000
0000
0001
0000
1000
,
0000
0010
1000
0001
,
0100
0010
0100
0001
,
1000
0100
0010
0100
,
1000
0000
0000
0001
0000
0000
0100
0000
0110
0000
0000
2002
,
0000
0000
3003
0000
;

//---------------dance-single - ----------------
#NOTES:
     dance-single:
     :
     Easy:
     4:
     0.234,0.269,0.098,0.155,0.004:
0000
0000
0000
0000
,
0000
0000
0000
0000
,
1000
0010
1000
0001
,
0100
0001
0010
0001
,
2000
0000
0010
0000
,
3002
0000
0000
0000
0000
0003
0000
0000
0000
0000
0000
0000
,
1000
0100
1000
0100
,
0010
0001
0010
0001
,
0200
0000
0010
0000
,
0302
0000
0000
0000
0000
0003
0000
0000
0000
0000
0000
0000
,
1001
0000
0001
0100
,
0001
1000
0010
1000
,
0100
0000
0010
0001
,
0010
0001
1000
0010
,
1000
0000
0010
0100
,
0001
1000
0001
0000
,
1001
0000
0110
0000
,
1001
0000
0000
0000
,
1000
0100
0010
0100
,
1000
0000
0001
0000
,
0100
0001
0100
0010
,
1000
0000
0001
0000
,
0100
0001
1000
0000
,
0001
1000
0100
0000
,
0010
0001
1000
0100
,
0010
0100
1000
0000
,
0010
0100
0010
0000
,
1000
0000
0001
0000
,
1000
0100
1000
0000
,
0001
0000
0010
0000
,
0001
0100
0001
0000
,
1000
0010
1000
0001
,
0100
0000
0010
0000
,
1000
0000
0100
0000
,
0010
0001
1000
0001
,
0100
0001
1000
0000
,
0220
0000
0000
0000
,
0330
0000
0000
0000
,
2002
0000
0000
0000
,
3003
0000
0000
0000
,
1000
0020
0000
0030
,
0100
0002
0000
0003
,
1000
0200
0000
0300
,
0010
0001
1000
0010
,
0100
0020
0000
0000
,
0000
0000
0000
0000
,
1030
0000
0001
0000
,
2002
0000
0000
0000
0000
0000
3003
0000
0000
0000
0000
0220
,
0000
0330
0000
1001
,
0000
0110
0100
0010
,
1000
0001
0100
0010
,
1000
0100
0010
0000
,
0001
0100
0001
0000
,
1000
0010
1000
0000
,
0001
0010
0100
1000
,
0010
0100
0010
1000
,
1001
0000
0001
0100
,
0001
0000
1000
0000
,
0100
0000
1000
0100
,
1000
0001
0010
0001
,
0100
0100
0010
0000
,
1000
1000
0001
0100
,
0020
0000
0100
0000
,
2030
0000
0001
0000
,
3200
0000
0010
0000
,
0310
0000
1000
0001
,
1001
0000
0000
0000
;

//---------------dance-single - ----------------
#NOTES:
     dance-single:
     :
     Beginner:
     1:
     0.119,0.161,0.081,0.000,0.000:
0000
0000
0000
0000
,
0000
0000
0000
0000
,
1001
0000
0000
0000
,
0001
0000
1000
0000
,
0100
0000
0000
0000
,
1000
0000
0010
0000
,
0100
0000
0000
0000
,
0010
0000
0100
0000
,
0001
0000
0000
0000
,
1000
0000
0001
0000
,
0100
0000
0010
0000
,
1000
0000
0001
0000
,
0010
0000
0001
0000
,
1000
0000
0010
0000
,
0100
0000
0100
0000
,
0010
0000
0010
0000
,
1000
0000
0001
0000
,
1001
0000
0000
0000
,
0110
0000
0010
0000
,
1000
0000
0000
0000
,
1000
0000
0001
0000
,
0100
0000
0000
0000
,
0001
0000
0010
0000
,
0001
0000
1000
0000
,
0100
0000
0000
0000
,
0010
0000
0100
0000
,
0010
0000
0100
0000
,
0010
0000
0000
0000
,
0001
0000
1000
0000
,
0001
0000
0000
0000
,
1000
0000
0010
0000
,
0100
0000
0001
0000
,
1001
0000
0000
0000
,
0000
0000
0000
0000
,
1001
0000
0000
0000
,
0100
0000
0000
0000
,
0110
0000
0000
0000
,
0000
0000
0000
0000
,
0001
0000
0000
0000
,
0000
0000
0000
0000
,
1000
0000
0000
0000
,
0100
0000
0000
0000
,
0010
0000
0000
0000
,
0001
0000
0000
0000
,
0100
0000
0000
0000
,
0000
0000
0000
0000
,
0010
0000
1000
0000
,
1001
0000
0000
0000
,
0110
0000
0000
0000
,
0000
0000
0000
0000
,
1001
0000
0001
0000
,
0100
0000
0000
0000
,
0010
0000
1000
0000
,
0001
0000
1000
0000
,
0100
0000
0000
0000
,
0010
0000
0000
0000
,
0001
0000
0010
0000
,
0001
0000
0000
0000
,
1000
0000
0100
0000
,
1000
0000
0000
0000
,
0001
0000
1000
0000
,
0001
0000
1000
0000
,
0010
0000
1000
0000
,
0001
0000
0100
0000
,
0010
0000
0100
0000
,
0001
0000
1000
0000
,
1001
0000
0000
0000
;

//---------------dance-double - ----------------
#NOTES:
     dance-double:
     :
     Easy:
     4:
     0.252,0.322,0.098,0.187,0.000:
00000000
00000000
00000000
00000000
,
00000000
00000000
00000000
00000000
,
00001000
00000000
00100000
00000000
,
00010000
00000000
01000000
00100000
,
01000000
00000000
00010000
00000000
,
00100000
00010000
00100000
00001000
,
00010000
00000000
00000100
00000000
,
00000010
00000000
00000001
00000100
,
00000010
00000000
00001000
00000000
,
00000100
00001000
00000100
00010000
,
00011000
00000000
00001000
01000000
,
00010000
01000000
00100000
10000000
,
01000000
00000000
00100000
00001000
,
00010000
00000100
00001000
00000001
,
00000010
00000000
00000001
00000100
,
00001000
00000100
00000010
00001000
,
00000200
00000000
00020300
00000000
,
00002000
00033000
00001000
01000000
,
01010000
00000000
01000000
00010000
,
10000000
00100000
01000000
00001000
,
00010000
00000000
00000100
00001000
,
00000001
00000010
00000001
00000100
,
00000010
00000000
00000100
00000001
,
00001000
00000010
00010000
00001000
,
00010000
00000000
00010000
00000000
,
00001000
00000000
00100000
00010000
,
01010000
00000000
00100000
10000000
,
01000000
00100000
00010000
00100000
,
00001000
00000000
00010000
00000010
,
00000100
00000001
00000010
00000001
,
00001000
00000100
00000010
00000000
,
00000100
00010000
00001000
00000000
,
01001000
00000000
01000000
00010000
,
10000000
00100000
10000000
01000000
,
00200000
00000000
00320000
00000000
,
02030000
00000000
03002000
00000000
,
00023000
00000000
00000000
00000000
,
00030020
00000000
00000230
00000000
,
00000302
00000000
00000000
00000000
,
00002003
00000000
00003200
00000000
,
00010300
00020000
00000000
00000000
,
00031000
00002000
00000000
00000000
,
01003000
02000000
00000000
00000000
,
03200000
00000000
20300000
00000000
,
31000000
00200000
00000000
00000000
,
00000000
00000000
00000000
00300000
,
00110000
00000000
10010000
00000000
,
20200000
30300000
00010000
01000000
,
02002000
00000000
00000000
00000000
,
03003000
00000000
00001000
00010000
,
00011000
00000000
00010000
00000100
,
00000010
00000001
00000100
00000010
,
00001000
00000000
00000100
00010000
,
00001000
00000000
00001000
01000000
,
00100000
10000000
00010000
10000000
,
01000000
01000000
00100000
00010000
,
00110000
00000000
00100000
00001000
,
00010000
00000100
00000010
00000100
,
00000010
00000000
00000100
00001000
,
00000010
00000100
00000001
00000100
,
00000001
00000001
00000001
00000000
,
00001000
00000010
00001000
00000100
,
00010100
00000000
00000100
00000000
,
00010000
00000000
00001000
00000000
,
00100000
00000000
00010000
00000000
,
10000000
01000000
00100000
00010000
,
01100000
00000000
00000000
00000000
;

//---------------dance-double - ----------------
#NOTES:
     dance-double:
     :
     Medium:
     6:
     0.366,0.485,0.277,0.382,0.244:
00000000
00000000
00000000
00000000
,
00000000
00000000
00000000
00000000
,
00010100
00010000
00000100
00001000
,
00000010
00000100
00000001
00000010
,
00000001
00000000
00000000
00000100
00000000
00000001
00000100
00000000
00000000
00000001
00000000
00000000
,
00001000
00000000
00000000
00000100
00000000
00001000
00000100
00000000
00000000
00001000
00000000
00001000
,
00000010
00001000
00000010
00000100
,
00000001
00001000
00000100
00010000
,
00001000
00000000
00000000
01000000
00000000
00010000
10000000
00000000
00000000
00010000
00000000
00100000
,
00001000
00000000
00000000
00010000
00000000
00000100
00001000
00000000
00000000
00000001
00000000
00000000
,
00001001
00000000
00000010
00001000
,
00000100
00010000
00001000
00000000
,
00011000
00000000
00001000
01000000
,
10000000
01000000
00010000
10000000
,
01000000
00000000
00100000
00010000
,
01000000
00010000
10000000
00010000
,
02020000
03030000
02002000
03003000
,
00022000
00000000
00000000
00033000
00000000
00000000
00010000
00000000
00000100
00000000
00000000
00001100
,
00000000
00000010
00000001
00000100
,
00000010
00000000
00000000
00001000
00000000
00000000
00000001
00000000
00000100
00000000
00000000
00000001
,
00001000
00000010
00010000
00001000
,
01000000
00000000
00000000
00010000
00000000
00000000
10000000
00000000
00010000
00000000
00000000
00110000
,
00000000
00000000
00100000
00001000
00000000
00000000
00010000
00000000
00000000
00000100
00000000
00001000
,
00000000
00000000
00000100
00010000
00000000
00000000
00001000
00000000
00000000
01000000
00000000
00010000
,
00000000
00000000
10000000
01000000
00000000
00000000
00100000
00000000
00000000
00010000
00000000
00000000
,
00100000
00000000
00000000
00001000
00000000
00000000
00010000
00000000
00000010
00000000
00000000
00001010
,
00000000
00000000
00000000
00001000
00000000
00000010
00001000
00000000
00000000
00000001
00000000
00000000
,
00000010
00000000
00000000
00000001
00000000
00000000
00001000
00000000
00000100
00000000
00000000
00001100
,
00000000
00000100
00010000
00001000
,
00100000
00000000
00000000
00010000
00000000
00000000
01000000
00000000
00100000
00000000
00000000
01100000
,
00000000
00000000
01000000
00001000
00000000
00000000
00010000
00000000
00000000
00000100
00000000
00000010
,
00000000
00000000
00000100
00001000
00000000
00000000
00000100
00000000
00010000
00000000
00000000
00001000
,
02000000
00000000
00000000
00000000
00000000
00000000
00000000
00000000
00000000
03100000
00000000
00100000
,
01000000
00010000
00100000
00001000
,
00021000
00000000
00030200
00000000
,
00000320
00000000
00000000
00000000
00000000
00000000
00000031
00000000
00001000
00000000
00000000
00002002
,
00000000
00000000
00000000
00003003
,
00000002
00000000
00002003
00000000
,
00003200
00000000
00000000
00000000
,
00020300
00000000
02030000
00000000
,
13000000
00200000
00000000
00000000
,
01300000
00020000
00000000
00000000
,
00130000
00002000
00000000
00000000
,
00023000
00000000
00030200
00000000
,
00000310
00000100
00000020
00000000
00000000
00000000
00000000
00000000
,
00000000
00000000
00000030
00000000
,
00002002
00003003
00002200
00003300
,
00020200
00000000
00000000
00030300
00000000
00000000
00010000
00000000
00001000
00000000
00000000
00022000
,
00000000
00033000
00000000
01001000
,
00000000
00000000
00000000
01100000
00000000
00000000
01010000
00000000
01010000
00000000
00000000
10100000
,
00000000
10000000
01000000
00100000
,
00010000
00000000
00000000
00100000
00000000
00000000
00001000
00000000
00010000
00000000
00000000
00001000
,
00000000
00000000
00010000
00000100
00000000
00000000
00000010
00000000
00000000
00000001
00000000
00000100
,
00000000
00000000
00000001
00000100
00000000
00000000
00000010
00000000
00000000
00010000
00000000
00010000
,
00001000
00000000
00000000
00010000
00000000
00000100
00010000
00000000
00000000
00000100
00000000
00000010
,
00000001
00000000
00000010
00000001
00000000
00000000
00001000
00000000
00000001
00000000
00000000
00000101
,
00000000
00000000
00000000
00001000
00000000
00000010
00000100
00000000
00000000
00000001
00000000
00000000
,
00001000
00000000
00000000
00000100
00000000
00000000
00010000
00000000
00001000
00000000
00000000
00011000
,
00000000
00000000
00000000
00001000
00000000
01000000
00010000
00000000
00000000
10000000
00000000
00000000
,
00100000
00000000
00000000
01000000
00000000
00000000
00010000
00000000
00100000
00000000
00000000
00001000
,
00000000
00000000
00010000
00000100
00000000
00000000
00000010
00000000
00000000
00000001
00000000
00000100
,
00000000
00000000
00000010
00001000
00000000
00000000
00000100
00000000
00010000
00000000
00000000
00022000
,
00000000
00033000
00202000
00303000
,
02020000
03030000
20200000
30300000
,
22000000
33000000
02200000
03300000
,
00202000
00000000
00000000
00303000
00000000
00000000
00011000
00000000
00011000
00000000
00000000
00022000
,
00000000
00033000
00000000
00000000
;

//---------------dance-double - ----------------
#NOTES:
     dance-double:
     :
     Hard:
     8:
     0.443,0.431,0.431,0.293,0.452:
00000000
00000000
00000000
00000000
,
00000000
00000000
00000000
00000000
,
00100000
00000000
00000000
01000000
00000000
00000000
00100000
00000000
00100000
00001000
00000000
00000000
,
00010000
00000000
00000000
00000010
00000000
00000000
00010000
00000000
00000000
00001000
00000000
00001000
,
00100000
00001000
00011000
00010000
,
00000100
00000010
00000100
00000010
00000000
00000001
00000100
00000010
00001000
00000100
00000000
00010000
,
00001000
00000000
00000000
01000000
00000000
00000000
00010000
00000000
00000000
00100000
00000000
00001000
,
00010000
00000000
00000000
00000100
00000000
00000000
00000010
00000000
00000000
00000001
00000000
00001000
,
00000100
00010000
00001000
01000000
,
00010000
00000000
10000000
00010000
00000000
10000000
00000000
00000000
01000000
00100000
00000000
00100000
,
00020000
00000000
00000000
00100000
00000000
00000000
01000000
00000000
00000000
00130000
00000000
00110000
,
00000000
00000000
00101000
00000000
00000000
00011000
00000000
00000000
00010100
00000000
00000000
00000100
,
00002000
00000000
00000000
00000010
00000000
00000000
00000001
00000000
00000000
00003100
00000000
00001100
,
00000000
00000000
00010100
00000000
00000000
00011000
00000000
00000000
00010100
00000000
00000000
00010000
,
00002000
00000000
00000000
00100000
00000000
00000000
00010000
00000000
00000000
01003000
00000000
01001000
,
00000000
00000000
01100000
00000000
00000000
10100000
00000000
00000000
10010000
00000000
00000000
00000000
,
20020000
30030000
02200000
03300000
,
00022000
00000000
00000000
00033000
00000000
00000000
00010000
00000000
00001000
00000000
00000000
00011000
,
00000000
00000000
00000000
00001000
00000000
00000100
00001000
00000000
00000000
00010000
00000000
01000000
,
00010000
00000000
00000000
00001000
00000000
00010000
00000010
00000000
00000110
00000000
00000000
00001001
,
00000000
00000000
00000000
00001000
00000000
00000100
00001000
00000000
00000000
00000001
00000000
00000100
,
00000001
00000000
00000000
00001000
00000000
00000000
00000010
00000000
00010000
00000000
00000000
00011000
,
00000000
00000000
00001000
01000000
00000000
00100000
20000000
00000000
00000000
00000000
00000000
30010000
,
00000000
00000000
00100000
00001000
00000000
00010000
00000200
00000000
00000000
00000300
00000000
00001000
,
00000100
00010000
00001000
01000000
,
10000000
00000000
00000000
01000000
00000000
00000000
00010000
00000000
10000000
00000000
00000000
10010000
,
00000000
00000000
00000000
00100000
00000000
00010000
01000000
00000000
00000000
00001000
00000000
00010000
,
00000100
00000000
00000000
00000010
00000000
00000001
00000100
00000000
00001010
00000000
00000000
00001100
,
00000000
00000000
00000000
00000100
00000000
00010000
00001000
00000000
00000000
01000000
00000000
00010000
,
00100000
00000000
00000000
00100000
00000000
00000000
00001000
00000000
00010000
00000000
00000000
00010100
,
00000000
00000000
00000100
00001000
00000000
00000001
00001000
00000000
00000000
00000000
00000000
00001010
,
00000000
00000000
00000010
00010000
00000000
00010000
00001000
00000000
00100000
00000000
00000000
00110000
,
00000000
00000000
00000000
01000000
00000000
00000000
10000000
00000000
00000000
00100000
00000000
00100000
,
00000000
00000000
00000000
01000000
00000000
00000000
00010000
00000000
00000000
00100000
00000000
00100000
,
00002000
00000000
00003020
00000000
,
00000032
00000000
00000000
00000000
00000000
00000000
00000103
00000000
00000001
00000000
00000000
00000202
,
00000000
00000000
00000000
00000303
,
00002000
00000000
00003200
00000000
,
00020000
00000000
00000000
00000300
,
00032000
00000000
02003000
00000000
,
03100000
20000000
00100000
30010000
,
01000000
00200000
00001000
00310000
,
00001000
00020000
00000100
00031000
,
00000020
00000100
00002030
00000001
,
00003100
00001000
00000001
00000000
00000010
00000000
00000001
00000000
,
00000100
00000100
00000010
00001000
,
00002200
00003300
00020200
00030300
,
00022000
00000000
00000000
00033000
00000000
00000000
00100000
00000000
00001000
00000000
00000000
01010000
,
00000000
10010000
00000000
11000000
,
00000000
00000000
00000000
00110000
00000000
00000000
00101000
00000000
00011000
00000000
00000000
00010100
,
00000000
00000000
00000000
00000010
00000000
00000001
00000100
00000000
00000000
00000010
00000000
00001000
,
00000100
00000000
00000000
00010000
00000000
00001000
01000000
00000000
00100000
10000000
00000000
11000000
,
00000000
00000000
00100000
00010000
00000000
01000000
00001000
00000000
00000000
00010000
00000000
00010100
,
00000000
00000000
00001000
00000100
00000000
00000010
00000001
00000000
00000001
00000000
00000000
00000010
,
00000001
00000000
00000000
00000001
00000000
00000001
00000100
00000000
00000100
00000010
00000000
00000010
,
00010000
00000000
00010000
00001000
00000000
00000000
01000000
00000000
00010000
00000000
00000000
01010000
,
00000000
00000000
00000000
00010000
00000000
01000000
00001000
00000000
00000000
00010000
00000000
00000100
,
00001000
00000000
00000100
00000000
00000000
00000010
00000001
00000000
00000011
00000000
00000000
00001100
,
00000000
00000000
00000000
00000001
00000000
00000100
00000001
00000000
00000000
00001000
00000000
00000100
,
00001000
00000000
00000000
00000100
00000000
00000000
00010000
00000000
00001000
00000000
00000000
01001000
,
00000000
00000000
01000000
00100000
00000000
00100000
10000000
00000000
00000000
00010000
00000000
00110000
,
00000000
00000000
00100000
00001000
00000000
00001000
00010000
00000000
00010010
00000000
00000000
00002020
,
00000000
00003030
00000101
00000010
,
00001010
00000100
00010100
00001000
,
01001000
01000000
00100000
10000000
,
11000000
00000000
00100000
00001000
00010000
00001000
00000000
00000000
00011000
00000000
00000000
00022000
,
00000000
00033000
00000000
00000000
;
