#TITLE:It's My Life;
#SUBTITLE:(Almighty Club Mix);
#ARTIST:Jackie 'O';
#TITLETRANSLIT:;
#SUBTITLETRANSLIT:;
#ARTISTTRANSLIT:;
#GENRE:;
#CREDIT:;
#MENUCOLOR:;
#METERTYPE:DDR;
#BANNER:It's My Life (Almighty Club Mix).png;
#BACKGROUND:It's My Life (Almighty Club Mix)-bg.png;
#LYRICSPATH:;
#CDTITLE:ddrencorecdtitle.png;
#MUSIC:It's My Life (Almighty Club Mix).mp3;
#OFFSET:-0.243;
#SAMPLESTART:43.858;
#SAMPLELENGTH:13.000;
#SELECTABLE:YES;
#LISTSORT:15;
#BPMS:0.000=132.995,64.000=66.497,80.000=132.995,169.000=66.497,171.000=132.997,231.000=66.497,233.000=132.997;
#STOPS:128.000=3.160
;
#BGCHANGES:;
#ATTACKS:;

//---------------dance-single - ----------------
#NOTES:
     dance-single:
     :
     Hard:
     8:
     0.503,0.625,0.378,0.393,0.068: // measure 1
0000
0000
0000
0000
,  // measure 2
0000
0000
0000
0000
,  // measure 3
0000
0000
0000
0000
,  // measure 4
0000
0000
0000
0000
,  // measure 5
0001
0100
0001
1000
0010
0100
0010
1000
,  // measure 6
0001
0100
0001
0010
0100
1000
0100
0010
,  // measure 7
0001
1000
0001
0100
0010
1000
0010
0100
,  // measure 8
0001
0000
0000
1000
0000
0000
0100
0000
0010
0000
0000
0000
0001
0000
0000
0000
,  // measure 9
0101
0000
0101
0000
0001
1000
0100
0001
,  // measure 10
0200
2300
3020
0130
,  // measure 11
0110
0000
0110
0000
0010
0001
1000
0100
,  // measure 12
0020
0000
2030
0000
3002
0000
0013
0001
,  // measure 13
0011
0000
0011
0000
0010
1000
0001
0100
,  // measure 14
2000
3020
0230
0301
,  // measure 15
0101
0000
0101
0000
0100
1000
0100
0010
,  // measure 16
2000
0000
3002
0000
0023
0000
0031
0010
,  // measure 17
0001
0000
1000
0000
0001
0000
0100
0000
0010
0000
1000
0000
0100
1000
0001
1000
,  // measure 18
0100
0000
0010
0000
0001
0100
0010
1000
1010
0000
1010
0000
1100
0000
1001
0000
,  // measure 19
0010
0000
0001
0000
1000
0100
1000
0010
0100
0000
0001
0010
0000
0001
1000
0010
,  // measure 20
0100
0001
1000
0100
0022
0033
0202
0303
,  // measure 21
0100
0000
1001
0000
0010
0100
0001
1000
,  // measure 22
0100
0001
0100
0010
,  // measure 23
0001
1000
0001
0100
0010
1000
0010
0100
,  // measure 24
0001
1000
1100
1001
,  // measure 25
0102
0000
1000
0003
0001
1000
0100
0000
,  // measure 26
0120
0000
0130
2100
0000
3010
0100
0001
,  // measure 27
1002
0103
0001
0010
,  // measure 28
2000
3100
0002
0013
,  // measure 29
0110
0000
0110
0000
0010
0001
1000
0100
,  // measure 30
0020
0230
2300
3001
,  // measure 31
1001
0000
1001
0000
0010
0100
0001
1000
,  // measure 32
0200
0000
2300
0000
3002
0000
1003
0001
,  // measure 33
1001
0000
0101
0000
0101
0000
0010
1000
,  // measure 34
0100
1000
0110
0001
,  // measure 35
0100
0010
1000
0001
0100
0001
0000
1000
,  // measure 36
0100
0010
0001
0000
1000
0000
0001
0100
,  // measure 37
0001
0000
1100
0000
1100
0000
0001
0010
,  // measure 38
0001
0100
0020
0000
2030
0000
3002
0000
,  // measure 39
0013
0000
0001
1000
0001
0100
0010
1000
,  // measure 40
0001
0010
0001
1000
0100
1000
0000
0010
,  // measure 41
0100
0001
1000
0100
0001
1000
0000
0010
,  // measure 42
0001
1000
0010
0100
0001
1000
0010
0000
,  // measure 43
1000
0000
1001
1001
0010
0100
0001
1000
,  // measure 44
0100
1000
0001
0100
0010
0100
0001
1000
,  // measure 45
0100
0010
0000
0001
0100
1000
0100
0000
,  // measure 46
0110
0000
0010
1000
0001
0010
0100
0000
,  // measure 47
1000
0000
0001
0010
1000
0000
0010
0000
,  // measure 48
1001
0000
0010
0001
1000
0010
0100
0000
,  // measure 49
0010
1000
0000
0001
0010
0100
1000
0000
,  // measure 50
0001
0100
0010
1001
,  // measure 51
0000
0110
1000
1100
,  // measure 52
0001
0100
0001
1000
0100
0010
0001
0000
,  // measure 53
0100
0000
0010
0000
1000
0000
0001
0010
,  // measure 54
0001
1000
0100
1000
0010
0100
0001
0000
,  // measure 55
1000
1100
1001
0102
,  // measure 56
1000
0003
0010
0001
1000
0000
0210
0000
,  // measure 57
0301
1002
0000
1003
0100
0010
2100
0000
,  // measure 58
3010
0000
1000
0000
0001
0000
2000
3010
,  // measure 59
0002
0103
1001
0000
2001
0000
3020
0000
,  // measure 60
0032
0023
0230
0302
,  // measure 61
2003
3200
0302
2003
,  // measure 62
3020
0230
2300
3020
,  // measure 63
0230
0000
0000
0000
0301
0000
0000
0000
1100
0000
0000
0000
0010
0100
0000
0100
,  // measure 64
0001
0000
0000
0000
1000
0000
0000
0000
0101
0000
0000
0000
0010
1000
0000
1000
,  // measure 65
0100
0000
0000
0000
0010
0000
0000
0000
1100
0000
0000
0000
0010
0001
0000
0001
,  // measure 66
0100
0000
0000
0000
0010
0000
0000
0000
0101
0000
0000
0000
0010
1000
0000
1000
,  // measure 67
0001
0100
0000
0000
0000
0000
0000
0000
;

//---------------dance-double - ----------------
#NOTES:
     dance-double:
     :
     Hard:
     9:
     0.521,0.575,0.416,0.386,0.095:
00000000
00000000
00000000
00000000
,
00000000
00000000
00000000
00000000
,
00000000
00000000
00000000
00000000
,
00000000
00000000
00000000
00000000
,
01000000
00100000
10000000
00100000
01000000
00010000
01000000
00100000
,
10000000
00010000
10000000
01000000
00100000
00010000
00100000
00001000
,
00010000
00001000
00010000
00000100
00000010
00000001
00000010
00000100
,
00001000
00000000
00000000
00000010
00000000
00000000
00000100
00000000
00000001
00000000
00000000
00000000
00001000
00000000
00000000
00000000
,
00001010
00000000
00010010
00000000
00000010
00010000
00001000
00000010
,
00000002
00002003
00003200
00010300
,
00011000
00000000
00101000
00000000
00010000
01000000
00100000
10000000
,
02000000
23000000
30020000
01030000
,
01010000
00000000
01001000
00000000
00010000
01000000
10000000
01000000
,
00200000
20300000
30020000
01030000
,
01001000
00000000
00011000
00000000
00010000
00000100
00010000
00100000
,
02000000
00000000
03020000
00000000
20030000
00000000
31000000
00100000
,
00010000
00000000
01000000
00000000
00100000
00000000
10000000
00000000
00010000
00000000
01000000
00000000
00001000
00010000
00000100
00000010
,
00000001
00000000
00000100
00000000
00000010
00001000
00000001
00000010
00000001
00000000
00001000
00000000
00010000
00000000
10000000
00000000
,
10010000
00000000
00100000
00000000
01000000
00010000
01000000
00001000
00010000
00000000
00010000
00000100
00000000
00000100
00010000
00001000
,
01000000
00100000
10000000
01000000
10010000
00000000
00011000
00001000
,
00010000
00000000
00010100
00000000
00000100
00000010
00000001
00001000
,
00000010
00000100
00000101
00001010
,
00000010
00010000
00000010
00001000
00000010
00000100
00000001
00000010
,
00000200
00000000
00002300
00000000
00003100
00010000
00001000
00000000
,
02001000
00000000
00010000
03000000
00100000
10000000
00010000
01000000
,
02010000
00000000
03001000
00021000
00000000
00031000
00010000
00000100
,
00001200
00000000
00000310
00000000
00000010
00000001
00001000
00000000
,
00000101
00000010
00010100
00001000
,
00011000
00000000
00010100
00000000
00000100
00010000
00100000
10000000
,
02000000
03200000
00320000
01030000
,
01010000
00000000
01001000
00000000
00001000
00010000
00000100
00000010
,
00000002
00000000
00002003
00000000
00003020
00000000
00000130
00000001
,
00000011
00000000
11000000
00000000
10100000
00000000
00100000
01000000
,
00010000
00100000
00011000
01000000
,
00100000
10000000
00010000
01000000
00001000
00100000
00000000
00010000
,
01000000
00000000
00100000
10000000
00010000
00000000
01000000
00000000
,
00001000
00000000
00011000
00000000
00010100
00000000
00000010
00000001
,
00000100
00000010
00002000
00000000
00003200
00000000
00020300
00000000
,
00031000
00000000
00010000
00001000
01000000
00001000
00010000
00000010
,
00000100
00000001
00001000
00000100
00000001
00000100
00000000
00000010
,
00000001
00001000
00000100
00010000
00001000
00100000
00001000
00010000
,
00000100
00000010
00001000
00000010
00000100
00001000
00000010
00000000
,
00000100
00000000
00001001
00001001
00000010
00010000
00001000
00010000
,
01000000
10000000
00100000
00010000
00001000
00000100
00000010
00001000
,
00000100
00010000
00000000
00001000
00100000
00010000
01000000
00000000
,
01010000
00000000
01000000
00001000
00010000
00000100
00011000
00000000
,
00010100
00000000
00000011
00000001
00000101
00000000
00000010
00000000
,
00001100
00000000
00000010
00000100
00000001
00001000
00000200
00000000
,
00000310
00000002
00000000
00001003
00000100
00010000
00002000
00000000
,
01003000
00200000
10300000
01010000
,
00000000
00010100
00001000
00010100
,
00000010
00000100
00000001
00000010
00001000
00010000
01000000
00000000
,
00110000
00000000
01001000
00000000
00011000
00000000
00010000
00000100
,
00001000
00000010
00000100
00000001
00001000
00000100
00000001
00000000
,
00000100
00000000
00010100
00010000
00011000
00000000
00010200
00000000
,
00000310
00000000
00000001
00001000
00000001
00000100
00000120
00000000
,
00001030
00001200
00000000
00010300
00001000
00100000
02010000
00000000
,
03010000
00000000
00000000
00000000
00100000
00000000
00010000
00000000
01000000
00000000
00100000
00000000
10000000
00010000
00000000
00100000
,
00001000
00010000
00000000
00000100
00000011
00000000
00000000
00000000
00002001
00000000
00000000
00000000
00003200
00000000
00000000
00000000
,
00020300
00032000
02003000
03200000
,
00320000
00032000
00023000
00230000
,
02300000
03002000
00023000
00030200
,
00000320
00000000
00000000
00000000
00000032
00000000
00000000
00000000
00001003
00000000
00000000
00000000
00000010
00000100
00000000
00000010
,
00001000
00000000
00000000
00000000
00000100
00010000
00000000
00000000
01001000
00000000
00000000
00000000
01000000
00100000
00000000
10000000
,
00010000
00000000
00000000
00000000
01000000
00001000
00000000
00000000
00010100
00000000
00000000
00000000
00000100
00000010
00000000
00000001
,
00001000
00000000
00000000
00000000
00000100
00010000
00000000
00000000
00101000
00000000
00000000
00000000
00100000
00010000
00000000
01000000
,
00001000
00010000
00000000
00000000
00000000
00000000
00000000
00000000
;

//---------------dance-single - ----------------
#NOTES:
     dance-single:
     :
     Medium:
     5:
     0.342,0.375,0.340,0.144,0.000:
0000
0000
0000
0000
,
0000
0000
0000
0000
,
0000
0000
0000
0000
,
0000
0000
0000
0000
,
0010
0100
0010
0100
,
0001
1000
0001
0100
,
0001
1000
0001
1000
,
0100
0000
1000
0001
1000
0000
0001
0000
,
0101
0000
0101
0000
0000
0000
0010
1000
,
0002
0000
1000
0000
2000
0000
0000
3003
,
0110
0000
0110
0000
0000
0000
1000
0100
,
2000
0000
0001
0000
0002
0000
0000
3003
,
1100
0000
1100
0000
0000
0000
0010
0001
,
2000
0000
0001
0000
0002
0000
0000
3003
,
1001
0000
1001
0000
0000
0000
0001
0100
,
0002
0000
1000
0000
1000
0000
1000
0003
,
1001
0000
0100
0000
1000
0100
0010
0000
,
0001
0000
0100
0000
0010
1000
0001
0100
,
0001
0000
1000
0000
0100
0000
0010
0001
,
1000
0010
0110
1001
,
0100
0000
0101
0000
0001
0000
1000
0100
,
0010
0001
1000
0010
,
0100
0000
0110
0000
0010
1000
0001
1000
,
0010
0100
0101
1010
,
1002
0000
1003
0000
,
2000
0000
3010
0100
,
0002
0000
0013
0001
,
1001
0000
0110
0000
,
1001
0000
1010
0000
0000
0000
0010
0100
,
0020
0000
1000
0000
2000
0000
0000
3030
,
0101
0000
1001
0000
0000
0000
0010
1000
,
0002
0000
1000
0000
2000
0000
0000
3003
,
1001
0110
0110
0010
,
1000
0001
1001
1000
,
0010
0100
0001
0000
1000
0000
0100
0000
,
0010
0001
1000
0000
0001
0000
0100
0000
,
0010
1001
1001
0000
,
0010
1000
0002
0000
1000
0000
2000
0000
,
0000
3003
1000
0100
1000
0000
0001
0000
,
0100
0001
0100
0000
0010
1000
0000
0000
,
0001
0100
0001
0000
1000
0100
0000
0000
,
0010
0001
1000
0010
1000
0000
0001
0000
,
0100
0000
1001
1001
0000
0000
1000
0000
,
0001
0000
0100
0000
0001
0100
0000
0001
,
0000
1000
0000
0100
0000
0010
0001
0000
,
1001
0000
0001
1000
0001
0000
1000
0000
,
1100
1010
1001
0001
,
0100
0000
0001
1000
0001
0000
1000
0000
,
0010
1000
0000
0000
1000
0001
0100
0000
,
0001
1000
0100
1100
,
0000
1001
0010
1001
,
0010
0000
0100
0001
0100
0001
1000
0000
,
0010
0100
0001
1000
,
1100
0000
1000
0001
0100
0000
0010
0000
,
0100
0101
1001
2100
,
0000
3010
0000
0200
,
0000
0301
0010
0002
,
0000
1003
0010
0110
,
1001
0101
0101
0001
,
1000
0100
1000
0001
,
0000
0010
1000
0001
,
0010
0001
1000
0100
,
0000
0010
0001
1000
,
0010
0100
0001
1000
,
0100
1000
0010
0100
,
0001
1000
0100
0010
,
0001
0100
0000
0000
0000
0000
0000
0000
;

//---------------dance-single - ----------------
#NOTES:
     dance-single:
     :
     Easy:
     4:
     0.268,0.299,0.318,0.189,0.000:
0000
0000
0000
0000
,
0000
0000
0000
0000
,
0000
0000
0000
0000
,
0000
0000
0000
0000
,
1000
0000
0001
0000
,
0100
0000
0001
1000
,
0001
0000
0100
0000
,
0010
0100
0001
1000
,
1001
1001
0000
0010
,
0200
0000
0000
0000
0002
0000
0000
0303
,
1001
1001
0000
1000
,
0020
0000
0000
0000
0200
0000
0000
0330
,
1001
1001
0000
0001
,
0020
0000
0000
0000
0200
0000
0000
0330
,
1001
1001
0000
1000
,
0002
0000
0100
0103
,
0100
0010
1000
0001
,
0100
0000
0001
0000
1000
0100
1000
0000
,
1100
0000
0101
0000
,
0110
0000
1001
1001
,
0101
0000
0100
0010
,
1000
0001
0100
0000
,
0010
0000
1000
0001
,
0010
0010
0001
1000
,
2002
0000
0000
3003
,
0220
0000
0000
0330
,
1020
0000
0000
0000
0200
0000
0000
0330
,
1000
0000
0001
0000
,
1001
1001
0000
1000
,
0200
0000
0000
0000
2000
0000
0000
3300
,
1001
1001
0000
0001
,
0200
0000
0000
0000
0002
0000
0000
0303
,
1001
0101
0101
0000
,
0010
1000
0101
0001
,
0000
1000
0100
0010
,
0001
1000
0010
0100
,
0001
1001
1001
0000
,
0010
0200
0000
0002
,
0000
0303
0001
0000
1000
0000
0100
0000
,
1000
0001
0100
0010
,
0000
1000
0001
0010
,
0001
0100
0010
1000
,
0000
0000
1001
1001
0000
0000
1000
0000
,
0001
0100
0000
0010
,
1000
0001
0000
1000
,
0100
1000
0001
0100
,
0000
0101
0101
1001
,
0000
0010
0000
1000
,
0000
0001
0010
0100
,
0000
1000
0000
0001
,
0000
1001
1001
1100
,
0000
0010
0001
1000
,
0000
0010
0000
0100
,
0001
0100
0010
1000
,
0000
1100
1100
2002
,
0000
0000
3003
0220
,
0000
0000
0330
0202
,
0000
0000
0000
0000
0000
0303
0100
0000
,
0001
1001
1001
1000
,
0100
1000
0010
0100
,
0000
0001
0010
0100
,
0010
0001
1000
0010
,
0000
0100
0001
1000
,
0100
1000
0010
0100
,
0001
1000
0100
1000
,
0001
0100
0010
1000
,
0100
0000
0000
0000
;

//---------------dance-single - ----------------
#NOTES:
     dance-single:
     :
     Beginner:
     2:
     0.151,0.225,0.038,0.000,0.000:
0000
0000
0000
0000
,
0000
0000
0000
0000
,
0000
0000
0000
0000
,
0000
0000
0000
0000
,
0001
0000
0100
0000
,
0010
0000
1000
0000
,
0001
0000
0010
0000
,
0001
0000
0001
0000
,
1000
1000
0000
0010
,
0010
0000
0100
0000
,
0001
0001
0000
1000
,
1000
0000
0001
0000
,
0010
0010
0000
0001
,
0001
0000
0100
0000
,
0010
0010
0000
1000
,
1000
0000
0001
0000
,
1001
0000
0001
0000
,
1000
0000
0100
0100
,
0100
0000
0010
0000
,
0001
0000
1001
1001
,
1001
0000
0010
0000
,
0001
0000
1000
0000
,
0010
0000
1000
0000
,
0001
0000
0001
0001
,
0001
0000
0000
0000
,
1000
0000
0000
0000
,
0010
0000
0000
0000
,
1000
0000
1000
0000
,
0001
0001
0000
0010
,
0010
0000
0001
0000
,
1000
1000
0000
0010
,
0010
0000
0100
0000
,
0001
0001
0001
0000
,
0000
1000
1000
1000
,
0000
0001
0000
1000
,
0000
0100
0000
1000
,
0000
0001
0001
0000
,
0100
0100
0000
0010
,
0000
1000
0000
0001
,
0000
1000
0000
1001
,
0000
0010
0000
1000
,
0000
0001
0001
0001
,
0000
1000
0000
0100
,
0000
1000
0000
0001
,
0000
0100
0000
0001
,
0000
1000
0000
0100
,
0000
1000
1000
1000
,
0000
0000
0000
0001
,
0000
0000
0000
0100
,
0000
0000
0000
0010
,
0000
1000
1000
1000
,
0000
0001
0000
0010
,
0000
0100
0000
0010
,
0000
0001
0000
1000
,
0000
0010
0010
0010
,
0000
0000
0000
0100
,
0000
0000
0000
0001
,
0000
0000
0000
1000
,
1000
1000
1000
0000
,
0001
0000
0010
0000
,
0001
0000
1000
0000
,
0100
0000
0010
0000
,
0001
0001
0000
1000
,
0000
0001
0000
0100
,
0100
0100
0000
0010
,
0000
0100
0000
0001
,
0001
0000
0000
0000
;

//---------------dance-double - ----------------
#NOTES:
     dance-double:
     :
     Medium:
     6:
     0.339,0.350,0.242,0.151,0.004:
00000000
00000000
00000000
00000000
,
00000000
00000000
00000000
00000000
,
00000000
00000000
00000000
00000000
,
00000000
00000000
00000000
00000000
,
00001000
00100000
00001000
00010000
,
00000100
00000000
00000010
00000000
00000100
00000100
00000100
00000000
,
00010000
00001000
00100000
00001000
,
01000000
00000000
00000000
00010000
00000000
00000000
01000000
00000000
00001000
00000000
00000000
00000000
00010000
00000000
00000000
00000000
,
00011000
00000000
00011000
00000000
00000000
00001000
00100000
00001000
,
00200000
00000000
00000000
00000000
00020000
00000000
00000000
00330000
,
01010000
00000000
01010000
00000000
00000000
00010000
10000000
00010000
,
02000000
00000000
00000000
00000000
00002000
00000000
00000000
03003000
,
00011000
00000000
00011000
00000000
00000000
00010000
00000100
00010000
,
00000020
00000000
00000000
00000000
00002000
00000000
00000000
00003030
,
00001001
00000000
00001001
00000000
00000000
00000010
00001000
00000010
,
00000200
00000000
00000301
00001000
,
00000100
00000000
00000010
00000000
00000001
00000000
00001000
00000100
,
00010000
00000000
00001000
00000000
00100000
00001000
00010000
00001000
,
01000000
00000000
00100000
00000000
10000000
00010000
10000000
01000000
,
00100000
00010000
01010000
01001000
,
00001000
00000000
00010000
00000000
00001000
00000100
00000010
00001000
,
00000001
00000010
00000001
00001000
,
00000100
00000010
00000001
00000000
00001000
00000100
00000010
00000000
,
00000100
00010000
00011000
00011000
,
00002000
00000000
01003000
00000000
,
02000000
00000000
03100000
10000000
,
00020000
00000000
00000000
00000000
01030000
00000000
00000000
01000000
,
00001000
00000000
00010000
00000000
,
00011000
00000000
00011000
00000000
00000000
00010000
00000100
00010000
,
00002000
00000000
00000000
00000000
00200000
00000000
00000000
00303000
,
00011000
00000000
00011000
00000000
00000000
00001000
01000000
00100000
,
02000000
00000000
00000000
00000000
00010000
00000000
03010000
10000000
,
10010000
00000000
00001100
00000000
00000110
00000000
00000000
00000010
,
00000100
00000001
00002000
00000000
00000100
00000000
00000200
00000000
,
00000000
00003300
00000100
00000010
00000000
00000001
00000000
00000100
,
00000010
00000100
00000001
00000000
00001000
00000000
00000100
00000000
,
00010000
00000000
00011000
00000000
00011000
00000000
00000000
00001000
,
00100000
00001000
02000000
00000000
00000000
00000000
00020000
00000000
,
00000000
03030000
01000000
00001000
01000000
00000000
00010000
00000000
,
10000000
01000000
00100000
00010000
10000000
00100000
00000000
01000000
,
00010000
00000000
10000000
01000000
10000000
00000000
00010000
01000000
,
00001000
00000000
00010000
00001000
00010000
00000000
00000100
00000000
,
00000010
00000000
00001001
00001001
00000000
00000000
00000010
00000000
,
00001000
00000000
00000001
00000000
00000010
00000001
00000000
00001000
,
00000000
00000100
00000000
00010000
00000000
00001000
00010000
00000000
,
00011000
00000000
00001000
00100000
00001000
01000000
00100000
00000000
,
10000000
01000000
10000000
00010000
,
01000000
00001000
00100000
00010000
,
01000000
00001000
00000000
00000000
00010000
00001000
00010000
00000000
,
00000100
00000010
00000001
00001001
,
00000000
00000101
00000010
00001001
,
00000100
00000000
00000001
00001000
00000100
00001000
00000010
00000000
,
00000100
00000001
00001000
00000100
,
00010100
00000000
00010000
00001000
00100000
00000000
00001000
00000000
,
00010000
00011000
00011000
00002000
,
00000000
01003000
00000000
02000000
,
00000000
03001000
00010000
00000200
,
00000000
00000000
00000310
00000000
00000001
00000000
00001000
00000100
,
00001000
00000001
00000101
00000000
00000101
00000000
00000001
00000000
,
00000100
00000010
00001000
00000100
,
00000000
00010000
00001000
00100000
,
00001000
00010000
00000100
00000010
,
00000000
00000001
00000100
00000001
,
00001000
00000100
00010000
00001000
,
00100000
00010000
01000000
00001000
,
01000000
00010000
00100000
00001000
,
00010000
00000100
00000000
00000000
00000000
00000000
00000000
00000000
;

//---------------dance-double - ----------------
#NOTES:
     dance-double:
     :
     Easy:
     4:
     0.258,0.350,0.083,0.174,0.000:
00000000
00000000
00000000
00000000
,
00000000
00000000
00000000
00000000
,
00000000
00000000
00000000
00000000
,
00000000
00000000
00000000
00000000
,
00000010
00001000
00000010
00000100
,
00000001
00001000
00000001
00000100
,
00000010
00001000
00000100
00010000
,
00002000
00000000
00000000
00000000
,
00013000
00010000
00001000
00100000
,
00020000
00000000
00000000
00000000
02000000
00000000
00000000
03030000
,
00010000
00010000
10000000
01000000
,
00200000
00000000
00000000
00000000
00020000
00000000
00000000
00330000
,
00100000
00100000
00001000
00010000
,
00000200
00000000
00000000
00000000
00000020
00000000
00000000
00000330
,
00000010
00000010
00000001
00001000
,
00000200
00000000
00010000
00010300
,
00000100
00000000
00010000
00000000
00001000
00000000
00100000
00010000
,
00100000
00010000
01000000
00100000
,
10010000
01000000
01001000
00001000
,
00011000
00000000
00010100
00010010
,
00001010
00000010
00000100
00000001
,
00001000
00000100
00010000
00001000
,
00010000
00000000
00000010
00000000
,
00000100
00000001
00000100
00000001
,
00002000
00000000
00003100
00000000
,
00000020
00000000
00000031
00001000
,
00000200
00000000
00010300
00000000
,
00011000
00000000
00101000
00000000
,
00001000
00001000
00100000
00010000
,
02000000
00000000
00000000
00000000
00002000
00000000
00000000
03003000
,
00001000
00001000
00010000
00000100
,
00002000
00000000
00000000
00000000
00000020
00000000
00000000
00003030
,
00001001
00000010
00000010
00000000
,
00001000
00000100
00010100
00010000
,
00000000
00001000
00100000
00001000
,
01000000
00100000
10000000
00010000
,
00000000
01000000
01000000
00001000
,
00010000
00000200
00000000
00002000
,
00000000
00003300
00000100
00000000
00000001
00000000
00000100
00000000
,
00000010
00001000
00000100
00010000
,
00001000
00010000
00000010
00000100
,
00000010
00010000
00001000
00100000
,
00010000
00000000
01000000
01000000
00000000
00000000
00100000
00000000
,
10000000
00010000
00000000
00100000
,
00001000
00010000
00000000
00001000
,
01000000
00100000
10000000
10010000
,
00000000
00100000
01000000
00002000
,
00000000
00013000
00000000
00020000
,
00000000
00030100
00000010
00000002
,
00000000
00000103
00000000
00000010
,
00000000
00001000
00000100
00010000
,
00000000
00001000
00100000
00010000
,
01000000
00100000
00000000
10000000
,
00010000
01000000
00100000
10000000
,
10000000
00010000
10000000
02000000
,
00000000
03100000
00000000
00020000
,
00000000
01030000
00001000
00020000
,
00000000
00030010
00000100
00000001
,
00001000
00000100
00000100
00000010
,
00000100
00001000
00000010
00000100
,
00000000
00000001
00001000
00000100
,
00010000
00001000
00100000
00010000
,
00000000
01000000
00100000
10000000
,
00010000
01000000
00001000
00010000
,
00000010
00010000
00001000
00100000
,
00001000
00010000
00000100
00000010
,
00000001
00000100
00000000
00000000
00000000
00000000
00000000
00000000
;
