#TITLE:Infinite Cave;
#SUBTITLE:;
#ARTIST:猫叉Master+;
#TITLETRANSLIT:;
#SUBTITLETRANSLIT:;
#ARTISTTRANSLIT:Nekomata Master+;
#GENRE:;
#CREDIT:;
#MENUCOLOR:;
#METERTYPE:DDR;
#BANNER:Infinite Cave-bn.png;
#BACKGROUND:black-bg.png;
#LYRICSPATH:;
#CDTITLE:ddrencorecdtitle.png;
#MUSIC:InfiniteCave.mp3;
#OFFSET:-0.176;
#SAMPLESTART:21.499;
#SAMPLELENGTH:14.500;
#SELECTABLE:YES;
#LISTSORT:;
#BPMS:0.000=190.000;
#STOPS:;
#BGCHANGES:-0.750=Infinite Cave.AVI=1.000=1=0=0,
99999=-nosongbg-=1.000=0=0=0 // don't automatically add -songbackground-
;
#ATTACKS:;

//---------------dance-single - ----------------
#NOTES:
     dance-single:
     :
     Beginner:
     2:
     0.168,0.308,0.059,0.102,0.000:
0000
0000
0000
0000
,
1000
0000
0000
0000
,
0001
0000
0000
0000
,
1000
0000
0000
0000
,
0001
0000
0000
0000
,
1000
0000
0000
0000
,
0001
0000
0000
0000
,
1000
0000
0000
0000
,
0001
0000
0001
0000
,
1000
1000
0000
1000
,
1000
1000
0000
0000
,
0001
0001
0000
0001
,
0001
0001
0000
0000
,
1000
1000
0000
1000
,
1000
1000
0000
0000
,
0001
0001
0000
0001
,
0001
0001
0000
0000
,
1000
1000
0000
1000
,
1000
1000
0000
0000
,
0001
0001
0000
0001
,
0001
0001
0000
0000
,
0010
0010
0000
0010
,
0010
0010
0000
0000
,
0100
0100
0000
0100
,
0100
0100
0000
0000
,
2000
0000
0000
0000
,
0000
0000
0000
0000
,
0000
0000
3000
0000
,
0000
0000
0000
0000
,
0000
0002
0000
0000
,
0000
0000
0000
0000
,
0000
0000
0003
0000
,
0000
0000
0000
0000
,
0000
2000
0000
0000
,
0000
0000
0000
0000
,
0000
0000
0000
3000
,
0000
0000
0000
0000
,
0000
0002
0000
0000
,
0000
0000
0000
0000
,
0000
0000
0000
0003
,
0000
0000
0000
0000
,
1000
1000
0000
1000
,
1000
1000
0000
0000
,
0001
0001
0000
0001
,
0001
0001
0000
0000
,
1000
1000
0000
1000
,
1000
1000
0000
0000
,
0010
0010
0000
0010
,
0010
0010
0000
0000
,
1000
1000
0000
1000
,
1000
1000
0000
0000
,
0001
0001
0000
0001
,
0001
0001
0000
0000
,
1000
1000
0000
1000
,
1000
1000
0000
0000
,
0000
0200
0000
0000
,
0000
0000
0300
0000
,
1001
0000
0000
0000
,
0000
0000
0000
0000
,
0010
0000
0000
0000
,
0000
0000
0000
0000
,
1001
0000
0000
0000
,
0000
0000
0000
0000
,
0100
0000
0100
0000
,
0100
0000
0100
0000
,
0110
0000
0000
0000
,
0000
0000
0000
0000
,
2002
0000
0000
0000
,
0000
0000
0000
0000
,
3003
0000
0000
0000
,
0000
0000
0000
0000
,
2002
0000
0000
0000
,
0000
0000
0000
0000
,
3003
0000
0000
0000
,
0000
0000
0000
0000
,
0010
0000
0000
0000
,
0000
0000
0000
0000
,
0100
0000
0000
0000
,
0000
0000
0000
0000
,
0001
0000
0000
0000
,
0000
0000
0000
0000
,
2000
0000
0000
0000
,
3000
0000
0000
0000
,
0001
0001
0001
0000
,
1000
1000
1000
0000
,
0001
0001
0001
0000
,
1000
1000
1000
0000
,
0001
0001
0001
0000
,
1001
0000
0000
0220
,
0000
0000
0000
0000
,
0000
0000
0000
0000
,
0330
0000
0000
0000
;

//---------------dance-single - ----------------
#NOTES:
     dance-single:
     :
     Easy:
     3:
     0.266,0.347,0.042,0.322,0.000:
0000
0000
0000
0000
,
1000
0000
0000
0000
,
0001
0000
0000
0000
,
1000
0000
0000
0000
,
0001
0000
0000
0000
,
1000
0000
0000
0000
,
0001
0000
0000
0000
,
0020
0000
0000
0000
,
0230
0000
0000
0000
,
0310
0001
1000
0001
,
0000
1000
0001
1000
,
0010
0100
0010
0100
,
0000
0001
0100
0001
,
1000
0100
1000
0100
,
0000
0010
0001
0010
,
0001
1000
0001
1000
,
0000
0010
0100
0010
,
1000
0001
1000
0001
,
0000
0010
0100
1000
,
0010
0100
0001
1000
,
0000
0010
0100
0010
,
1000
0001
1000
0001
,
0000
0010
0001
0010
,
0100
0010
0100
0010
,
0000
0100
1000
0100
,
0000
2002
0000
0000
,
0000
0000
0000
0000
,
0000
0000
3003
0000
,
0000
0000
0000
0000
,
0000
0220
0000
0000
,
0000
0000
0000
0000
,
0000
0000
0330
0000
,
0000
0000
0000
1000
,
0000
0002
0000
0000
,
0000
0000
0003
2000
,
0000
0000
0000
0000
,
3000
0000
0000
0000
,
0000
2002
0000
0000
,
0000
0000
0000
3003
,
0000
1000
0000
1000
,
0000
0001
0000
0001
,
1000
0010
1000
0001
,
0100
0001
0100
0001
,
0000
0001
1000
0001
,
1000
0010
0100
0010
,
0000
0100
0001
0100
,
0010
1000
0010
1000
,
0100
1000
0100
1000
,
0001
0100
0001
0100
,
0010
1000
0010
1000
,
0001
0010
0001
0010
,
0100
1000
0100
1000
,
0001
1000
0001
1000
,
0001
0100
0001
0100
,
0010
0100
0010
0100
,
0001
2000
0000
0000
,
0000
0000
3000
0000
,
0020
0000
0030
0200
,
0000
0300
0002
0003
,
1000
0000
0100
0000
,
0010
0000
0001
0000
,
2000
0000
3000
0020
,
0000
0030
0200
0300
,
2002
0000
0000
0000
,
0000
0000
0000
3003
,
0002
0000
0003
0200
,
0000
0300
0020
0030
,
2000
0000
0000
0000
,
0000
0000
0000
0000
,
3002
0000
0003
2000
,
0000
3000
0200
0300
,
0020
0000
0000
0000
,
0000
0000
0000
0000
,
0032
0000
0000
0003
,
0000
0000
1000
0100
,
2000
0000
0000
3000
,
0000
0000
0010
0100
,
0020
0000
0000
0030
,
0000
0000
1000
0001
,
0200
0000
0000
0000
,
0000
0000
0000
0300
,
2002
0000
0000
3003
,
2000
0000
0000
3000
,
0100
0010
0001
0100
,
0020
0000
0000
0030
,
1000
0100
1000
0001
,
0200
0000
0000
0300
,
0010
1000
0001
0010
,
0200
0000
0000
0320
,
0000
0000
0000
0000
,
0000
0000
0000
0000
,
0030
0000
0000
0000
;

//---------------dance-single - ----------------
#NOTES:
     dance-single:
     :
     Medium:
     6:
     0.493,0.539,0.085,0.635,0.008:
0000
0000
0000
0000
,
0020
0000
0000
0000
,
0230
0000
0000
0000
,
0302
0000
0000
0000
,
2003
0000
0000
0000
,
3200
0000
0000
0000
,
0320
0000
0000
0000
,
0031
0000
0000
0100
0000
0000
0001
0000
,
0010
0100
1000
0100
,
0010
0000
0001
0010
0001
0000
0010
0000
,
0100
0000
1000
0100
1000
0100
1000
0000
,
0010
0000
0100
0010
0100
0000
0010
0000
,
0100
0000
0001
0010
0001
0010
0001
0000
,
1000
0000
0100
1000
0100
0000
1000
0000
,
0010
0000
0100
0010
0100
0010
0100
0000
,
0010
0000
1000
0001
1000
0000
0100
0000
,
0010
0000
0001
0010
0001
0010
0001
0000
,
0010
0000
0100
0010
0100
0000
1000
0000
,
0010
0000
1000
0010
1000
0010
1000
0000
,
0001
0000
0100
0000
0001
0100
0001
0000
,
0100
0000
0010
1000
0010
1000
0010
0000
,
1000
0000
0001
0100
0001
0000
1000
0000
,
0010
0000
0100
0010
0100
0010
0100
0000
,
0001
0000
1000
0000
0100
1000
0100
0000
,
0010
0000
0001
1000
0001
1000
0001
0000
,
0000
2000
3002
2003
,
3020
0230
0320
2030
,
0000
3002
0023
0000
,
0000
0000
0000
0000
,
0000
0032
0023
0230
,
2300
0000
3020
0230
,
0302
2003
0000
0000
,
0000
0000
0000
0000
,
0000
3200
2300
3020
,
0230
0320
0000
2030
,
3002
0000
0103
0010
0100
0010
0100
0000
,
0000
0000
0000
0000
0001
0000
0000
0000
0010
0000
0000
0100
0000
0000
1000
0000
,
0000
0000
0020
0000
0130
0001
0200
0000
,
0310
1000
0020
0000
0230
0000
0302
0000
,
0000
2003
3200
0320
,
0030
0000
0000
0000
0001
0000
1000
0000
0001
0000
0000
0010
0000
0000
0100
0000
,
1000
0000
0100
0010
0100
0000
0010
0000
,
0001
0000
0100
0001
0100
0001
0100
0000
,
0010
0000
1000
0100
1000
0000
0100
0000
,
0010
0000
0001
0010
0001
0010
0001
0000
,
1000
0000
0001
0100
0001
0000
0010
0000
,
0100
0000
1000
0100
1000
0100
1000
0000
,
0010
0000
0100
0010
0100
0010
0100
0000
,
0001
0000
0100
0010
0100
0010
0100
0000
,
0110
0000
0010
1000
0010
0000
0100
0000
,
0001
0000
0010
0001
0010
0001
0010
0000
,
0100
0000
0010
0001
0010
0000
0001
0000
,
0100
0000
0010
1000
0010
1000
0010
0000
,
0100
0000
0001
0100
0001
0000
0010
0000
,
0100
0000
1000
0001
1000
0001
1000
0000
,
0010
0200
0302
0023
,
0230
0000
1300
0002
0000
0000
0000
0000
,
0013
0100
0000
0010
0000
0000
0100
1000
,
0000
0100
0000
0000
0010
0001
0010
0000
,
0200
0000
2300
0000
,
3020
0000
0230
0000
,
0301
0010
0000
0001
0000
0000
1000
0010
,
0000
1000
0000
0000
0010
0100
0010
0000
,
0100
0010
0000
0100
0001
0000
0100
0010
,
0000
0100
0001
0000
0100
0001
0100
0000
,
0010
0100
0000
0110
0000
0000
0100
0001
,
0000
0101
0000
0000
0001
1000
0001
0000
,
2002
0000
0000
0000
,
0000
0000
0000
3003
,
0001
1000
0000
1001
0000
0000
1000
0100
,
0000
1100
0000
0000
0100
0010
0100
0000
,
0220
0000
0000
0000
,
0000
0000
0000
0330
,
0020
0000
0000
0032
0000
0000
2003
0000
,
0000
0000
0000
0000
,
3020
0000
0000
0230
0000
0000
0302
0000
,
0000
0000
0000
0000
,
0023
0000
0000
0230
0000
0000
2300
0000
,
0000
0000
0000
0000
,
3020
0000
0000
0230
0000
0000
0302
0000
,
0000
0000
0000
0000
0000
0000
0000
2000
,
0000
0000
0000
3003
,
0200
0000
0000
0320
0000
0000
0032
0000
,
0000
0103
1000
0100
,
0002
0000
0000
0023
0000
0000
0230
0000
,
0000
0310
1000
0010
,
0200
0000
0000
0320
0000
0000
0032
0000
,
0000
0013
0001
0010
,
1001
0000
0000
0110
0000
0000
2002
0000
,
0000
0000
0000
0000
,
0000
0000
0000
0000
0000
0000
0000
0003
,
3000
0000
0000
0000
;

//---------------dance-single - ----------------
#NOTES:
     dance-single:
     :
     Hard:
     8:
     0.626,0.655,0.178,0.508,0.093: // measure 1
0000
0000
0000
0000
,  // measure 2
2000
0000
0000
0000
,  // measure 3
0000
3002
0000
0000
0000
0000
0000
0000
,  // measure 4
0023
0000
0000
0000
,  // measure 5
0000
0230
0000
0000
0000
0000
0000
0000
,  // measure 6
2300
0000
0000
0000
,  // measure 7
0000
3002
0000
0000
0000
0000
0000
0000
,  // measure 8
0103
0000
0100
0010
0000
1000
0001
0000
,  // measure 9
0100
0010
1000
0001
,  // measure 10
1000
0000
0010
0100
0010
1000
0010
0100
,  // measure 11
0000
0010
0100
0001
0010
0001
0100
0010
,  // measure 12
1000
0000
0010
1000
0001
1000
0010
1000
,  // measure 13
0000
0001
0100
0001
0010
0001
0100
0000
,  // measure 14
1001
0000
0001
0010
0100
0010
0001
0010
,  // measure 15
0000
0010
0100
1000
0100
0010
0100
1000
,  // measure 16
0001
0000
1000
0100
0001
0100
1000
0100
,  // measure 17
0000
0010
0001
0010
1000
0010
0001
0000
,  // measure 18
1001
0000
0100
0010
0100
1000
0100
0010
,  // measure 19
0000
0001
0100
0001
1000
0001
0100
0001
,  // measure 20
0010
0000
0100
1000
0100
0010
0100
1000
,  // measure 21
0000
0001
0010
0100
0010
0001
0010
0000
,  // measure 22
0011
0000
0001
0100
0010
0100
0001
0010
,  // measure 23
0000
0010
0001
0100
0001
0010
0001
1000
,  // measure 24
0100
0000
0100
0010
0000
0010
0001
0000
,  // measure 25
0000
0000
0000
0000
1000
0010
0000
0000
0100
0010
0100
0000
0001
0000
0000
0000
,  // measure 26
0000
2000
3200
0320
,  // measure 27
0032
0203
0320
0230
,  // measure 28
0000
0302
2003
3100
,  // measure 29
0000
0100
0000
0100
,  // measure 30
0000
0020
0032
0023
,  // measure 31
0230
0000
2300
3020
,  // measure 32
2030
3002
0000
1003
,  // measure 33
0000
0000
1000
0000
0000
0000
1000
1000
,  // measure 34
0000
0020
0230
0302
,  // measure 35
0023
0000
0031
0200
0000
0000
0320
0000
,  // measure 36
2030
0000
3100
0010
0100
0010
0001
0000
,  // measure 37
0000
0000
0000
0000
1000
0000
0000
0000
0010
0100
0000
0010
0100
0000
0001
0000
,  // measure 38
0000
0000
2000
0000
3010
0100
0002
0000
,  // measure 39
1003
1000
0200
0000
0320
0000
0032
0000
,  // measure 40
0003
2000
3020
2030
,  // measure 41
3000
0000
0010
0000
0100
0000
0001
0000
0010
0000
0000
0001
0000
0000
1000
0000
,  // measure 42
0100
0000
0010
0001
1000
0010
1000
0001
,  // measure 43
0000
1000
0010
1000
0001
0100
0001
0010
,  // measure 44
0100
0000
1000
0010
0100
0010
1000
0001
,  // measure 45
0000
0010
0001
0100
0010
1000
0100
1000
,  // measure 46
0010
0000
0100
0001
0010
0100
1000
0100
,  // measure 47
0000
1000
0010
0100
0001
0100
0010
1000
,  // measure 48
0001
0000
0001
0100
0001
0010
0001
1000
,  // measure 49
0000
1000
0100
1000
0001
1000
0010
1000
,  // measure 50
1001
0000
0001
0100
0010
0100
0010
1000
,  // measure 51
0000
0010
0100
0001
0010
0100
0010
0001
,  // measure 52
1000
0000
0100
0010
0100
0001
0100
1000
,  // measure 53
0000
1000
0010
0100
0010
0001
0010
1000
,  // measure 54
0100
0000
0010
0100
1000
0010
0100
0010
,  // measure 55
0000
1000
0100
0010
0001
0010
0100
1000
,  // measure 56
0010
0200
0320
2030
,  // measure 57
3200
0000
0310
0002
0000
0000
0000
0000
,  // measure 58
1003
0100
0010
0100
0000
0000
0100
0010
,  // measure 59
0001
0010
0000
0000
0010
0001
1000
0000
,  // measure 60
2001
0000
3002
0000
,  // measure 61
0203
0000
0320
0000
,  // measure 62
1030
0010
0100
0010
0000
0000
0100
0010
,  // measure 63
0100
0001
0000
0000
0001
0100
0010
0000
,  // measure 64
1000
0100
0000
0010
0001
0000
0100
0010
,  // measure 65
0000
1000
0100
0000
0010
0001
1000
0000
,  // measure 66
0001
0010
0100
0010
0000
0000
0010
0100
,  // measure 67
1000
0100
0000
0000
0100
1000
0010
0000
,  // measure 68
1000
0010
0000
0000
1000
0010
0000
0000
1000
0010
0000
0000
1000
0010
0000
0000
,  // measure 69
1000
0010
0000
0000
1000
0010
0000
0000
1000
0010
0000
0000
1000
0010
0000
0000
,  // measure 70
1000
0010
0100
0010
0000
0000
0100
0001
,  // measure 71
0010
0001
0000
0000
0001
0010
0100
0000
,  // measure 72
0010
0100
0000
0000
0010
0100
0000
0000
0010
0100
0000
0000
0010
0100
0000
0000
,  // measure 73
0010
0000
0000
0100
0000
0000
0000
0000
0000
0000
0000
0000
1000
0000
0000
0000
0001
0000
0000
0000
1000
0000
0000
0000
0001
0000
0000
0000
1000
0000
0000
0000
0001
0000
0000
0000
1000
0000
0000
0000
0000
0000
0000
0000
0000
0000
0000
0000
,  // measure 74
1001
0000
0000
0110
0000
0000
1001
0000
,  // measure 75
0000
0000
1000
0100
,  // measure 76
1100
0000
0000
0011
0000
0000
0101
0000
,  // measure 77
0000
0000
0001
0010
,  // measure 78
0110
0000
0000
0011
0000
0000
1010
0000
,  // measure 79
0000
0000
0010
0100
,  // measure 80
0101
0000
0000
0110
0000
0000
1010
0000
,  // measure 81
0000
0000
0000
0000
0000
0000
0000
2002
,  // measure 82
0000
0000
0000
3003
,  // measure 83
2000
0000
0100
3200
0000
0010
0320
0000
,  // measure 84
0000
0031
0100
0010
1000
0100
0010
0001
,  // measure 85
0200
0000
0010
0320
0000
1000
2030
0000
,  // measure 86
0000
3100
0010
0001
0010
0100
0010
0001
,  // measure 87
2000
0000
0100
3200
0000
0001
0302
0000
,  // measure 88
0000
0103
1000
0010
0001
0010
1000
0100
,  // measure 89
1001
0000
0000
0101
0000
0000
0220
0000
,  // measure 90
0000
0000
0000
0000
,  // measure 91
0000
0000
0000
0000
0000
0000
0000
0030
,  // measure 92
0300
0000
0000
0000
;

//---------------dance-double - ----------------
#NOTES:
     dance-double:
     :
     Easy:
     5:
     0.399,0.501,0.161,0.635,0.000:
00000000
00000000
00000000
00000000
,
00002000
00000000
00000000
00000000
,
00023000
00000000
00000000
00000000
,
00032000
00000000
00000000
00000000
,
02003000
00000000
00000000
00000000
,
03200000
00000000
00000000
00000000
,
02300000
00000000
00000000
00000000
,
03020000
00000000
20030000
00000000
,
31000000
00100000
00010000
10000000
,
00010000
01000000
00001000
00010000
,
00011000
00000100
00001000
00000010
,
00000100
00000001
00001000
00000100
,
00001100
00000010
00001000
00000100
,
00010000
00001000
01000000
00100000
,
01100000
10000000
01000000
00100000
,
00020000
00000000
02030000
00000000
,
03002000
00000000
00013000
00001000
,
00011000
00000100
00001000
00000010
,
00000100
00000001
00002000
00000000
,
00003100
00010000
00001000
01000000
,
00100000
10000000
01000000
11000000
,
00010000
01000000
00001000
00010000
,
00000010
00001000
00000200
00000000
,
00010300
00001000
00010000
00000100
,
00001000
00000010
00000100
00000110
,
00000002
00000000
00000023
00000000
,
00000230
00020300
00032000
02003000
,
03200000
00000000
20300000
00000000
,
00000000
00000000
00000000
00000000
,
30000000
00020000
02030000
03002000
,
00023000
00000000
00030200
00002300
,
00003020
00000000
00000200
00000000
,
00000330
00000001
00001000
00001001
,
00000100
00010000
00002000
02003000
,
03200000
10300000
02000000
00000000
,
03100000
00002000
00023000
00030200
,
00002300
00000000
00000020
00000000
,
00003030
00000100
00000001
00001000
,
00000100
00010000
00001000
00022000
,
00000000
00000000
00033000
00000000
,
00001000
00000000
01000000
00000000
,
00100000
10000000
00010000
01000000
,
00100000
10000000
02000000
00000000
,
03100000
00001000
00010000
00000100
,
00001000
00000010
00000200
00000000
,
00000301
00001000
00000100
00000010
,
00000001
00001000
00000200
00000000
,
00010300
00001000
01000000
00100000
,
10000000
10010000
10010000
01000000
,
00100000
10000000
01000000
00010000
,
00001000
00000100
00000001
00001000
,
00000100
00010000
00001000
01000000
,
00100000
10000000
01000000
00100000
,
01000000
10000000
00010000
01000000
,
00100000
01000000
00001000
00010000
,
00000200
00000000
00002300
00000000
,
00003010
00000100
00000110
00000000
,
00000002
00000000
00000203
00000000
,
00000320
00000000
00002030
00000000
,
00003000
00000000
00000000
00000000
,
00000000
00000000
00000000
00000000
,
20000000
00000000
32000000
00000000
,
03200000
00000000
00320000
00000000
,
00030000
00001000
00011000
00010000
,
00001000
00010000
00011000
00001000
,
00020000
00000000
00030200
00000000
,
00002300
00000000
00003020
00000000
,
00000030
00000000
00000000
00000000
,
00000000
00000000
00000000
00000000
,
00002000
00000000
02003000
00000000
,
03200000
00000000
20300000
00000000
,
30010000
01000000
00001000
00010000
,
00011000
00011000
00011000
00000100
,
00002000
00000000
00003020
00000000
,
00000230
00000000
00000000
00000000
,
00000302
00000000
00002003
00000000
,
00003200
00000000
00000000
00000000
,
00020300
00000000
00032000
00000000
,
02003000
00000000
00000000
00000000
,
03200000
00000000
20300000
00000000
,
00020000
00000000
00000000
00000000
,
30030000
00000000
00000000
00000000
,
01000000
00100000
10000000
00010000
,
01000000
00001000
00011000
00000000
,
00000100
00001000
00000010
00000100
,
00000001
00001000
00001001
00000000
,
00000010
00010000
00001000
01000000
,
00100000
01000000
01010000
00000000
,
00020000
00000000
00000000
00032000
,
00000000
00000000
00000000
00000000
,
00000000
00000000
00000000
00000000
,
00003000
00000000
00000000
00000000
;

//---------------dance-double - ----------------
#NOTES:
     dance-double:
     :
     Medium:
     7:
     0.490,0.539,0.093,0.491,0.000:
00000000
00000000
00000000
00000000
,
20000000
00000000
00000000
00000000
,
30200000
00000000
00000000
00000000
,
02300000
00000000
00000000
00000000
00000000
00000000
03001000
00010000
,
00002000
00000000
00000000
00000000
,
00023000
00000000
00000000
00000000
,
00030200
00000000
00000000
00000000
,
00002300
00000000
00000000
00000000
00000000
00000000
00003010
00000100
,
00000002
00000000
00000000
00000000
,
00001003
00000010
00010000
00001000
,
01000000
00000000
00010000
00000000
10000000
01000000
10000000
00000000
,
00100000
01000000
00010000
01000000
,
00001000
00000000
00010000
00000000
00000100
00001000
00000100
00000000
,
00000010
00000001
00000010
00000100
,
00001000
00000000
00000001
00000000
00000100
00000010
00000100
00000000
,
00000010
00010000
00001000
01000000
,
00100000
00000000
01000000
00000000
00010000
01000000
00010000
00000000
,
10000000
00000000
00100000
00000000
01000000
00010000
01000000
00100000
,
00000000
01000000
00000000
00010000
01000000
00010000
01000000
00000000
,
00001000
00000000
00010000
00000000
00001000
00010000
00001000
00010000
,
00000000
00000100
00000000
00001000
00000100
00001000
00000100
00000000
,
00000010
00000000
00000001
00000000
00000100
00000010
00000100
00000001
,
00000000
00001000
00000000
00000100
00001000
00000010
00000100
00000000
,
00000002
00000000
00000000
00001000
00000203
00000000
00000000
00000000
,
00010300
00001000
00011000
00000000
,
00002000
01000000
00010000
01003000
,
00020000
00000100
00001000
00030100
,
00000000
00002000
00000002
00003003
,
00000100
00000010
00000100
00000000
,
00000002
00001000
00000100
00000013
,
00000200
00000000
00010000
00001300
,
00020000
00002000
00000000
00033000
,
00000000
00011000
00011000
00011000
,
02000000
00000000
03100000
00000000
10000000
01000000
10000000
00000000
,
00100000
00000000
01000000
00010000
00000000
00000000
01000000
00000000
,
00001000
00000000
00010000
00000000
00001000
00010000
00000200
00000000
,
00000000
00000000
00001000
00001300
,
00000000
00000000
00000010
00000000
00000100
00000001
00000100
00000000
,
00000010
00001000
00000100
00020000
,
00000000
00030000
00001000
00010000
,
00011000
00011000
00011000
00011000
,
01000000
00000000
00010000
00000000
10000000
01000000
10000000
00100000
,
00000000
01000000
00000000
00010000
01000000
00100000
01000000
00000000
,
00001000
00000000
00010000
00000000
00000100
00001000
00000010
00000100
,
00000000
00000001
00000000
00001000
00000100
00000010
00000100
00000000
,
00001000
00000000
00000001
00000000
00000100
00000010
00001000
00000100
,
00000000
00010000
00000000
00001000
01000000
00010000
01000000
00000000
,
00010000
00000000
10000000
00000000
01000000
00100000
01000000
10000000
,
00000000
00010000
00000000
01000000
00100000
01000000
00010000
00000000
,
01000000
00000000
00001000
00000000
00010000
00001000
00010000
00000010
,
00000000
00001000
00000000
00000001
00000100
00000010
00001000
00000000
,
00000100
00000000
00001000
00000000
00000010
00000100
00000001
00001000
,
00000000
00000100
00000000
00010000
00001000
00010000
00001000
00000000
,
01000000
00000000
00100000
00000000
10000000
01000000
00100000
01000000
,
00000000
00100000
00000000
01000000
00100000
01000000
00010000
00000000
,
01000000
10000000
00200000
02300000
,
03002000
00000000
00023000
00002000
00000000
00000000
00033000
00000000
,
00010000
00001000
00010000
00001000
00000000
00000000
01000000
00010000
,
01000000
00010000
00000000
00000000
10000000
01000000
10000000
00000000
,
00200000
00000000
00000000
00000000
,
00300000
00000000
00000000
00000000
,
01000000
00010000
01000000
00010000
00000000
00000000
00010000
00001000
,
00010000
00001000
00000000
00000000
00001000
00000100
00001000
00000000
,
00000020
00000230
00000320
00000230
,
00000302
00000000
00002003
00000000
00003200
00000000
00000000
00000300
,
00001000
00000010
00001000
00000010
00000000
00000000
00000100
00000001
,
00000100
00000001
00000000
00000000
00001000
00000100
00001000
00000000
,
00000200
00000000
00020300
00000000
,
00032000
00000000
02003000
00000000
,
03100000
10000000
00100000
01000000
00000000
00000000
00010000
01000000
,
00010000
01000000
00000000
00000000
00100000
01000000
00001000
00000000
,
00020000
00000000
00032000
00000000
,
00023000
00031000
00022000
00033000
,
02000000
00000000
00000000
00200000
03000000
00000000
20000000
00000000
,
00300000
00000000
00000000
00000000
,
30020000
00000000
00000000
02000000
00030000
00000000
00002000
00000000
,
03000000
00000000
00000000
00003000
,
00020000
00000000
00000000
00000200
00030000
00000000
00002000
00000300
,
00000000
00000000
00000000
00000000
,
00003020
00000000
00000000
00000230
00000000
00000000
00000002
00000000
,
00000300
00000000
00000000
00000003
,
00001001
00000100
00000100
00000100
,
00010000
00001000
01000000
00010000
00100000
01000000
10000000
00000000
,
00000000
00010000
00010000
00010000
,
01000000
00001000
00010000
00000100
00001000
00000010
00000100
00000000
,
00000000
00000001
00000001
00000001
,
00001000
00000100
00010000
00001000
00100000
00010000
01000000
00000000
,
00000000
00100000
00100000
00100000
,
02010000
00000000
00000000
00002000
03000000
00000000
00020000
00000000
,
00000000
00000000
00000000
00000000
,
00000000
00000000
00000000
00000000
00000000
00000000
00000000
00003000
,
00030000
00000000
00000000
00000000
;

//---------------dance-double - ----------------
#NOTES:
     dance-double:
     :
     Hard:
     9:
     0.686,0.732,0.076,0.872,0.106:
00000000
00000000
00000000
00000000
,
00020000
00000000
00000000
00000000
,
00000000
00032000
00000000
00000000
00000000
00000000
00000000
00000000
,
02003000
00000000
00000000
00000000
,
00000000
03200000
00000000
00000000
00000000
00000000
00000000
00000000
,
20300000
00000000
00000000
00000000
,
00000000
30020000
00000000
00000000
00000000
00000000
00000000
00000000
,
01030000
00000000
00001000
00010000
00000100
00000000
00001000
00000000
,
00000010
00000010
00000000
00000100
00000100
00000000
00001001
00000000
,
00000010
00000100
00010000
00001000
00000100
00000010
00001000
00000100
,
00000000
00010000
00001000
01000000
00100000
00010000
00002000
00000000
,
01003000
00100000
10000000
01000000
00100000
00010000
00100000
01000000
,
00000000
10000000
00010000
01000000
10000000
01000000
00020000
00000000
,
00130000
00001000
00010000
00000100
00001000
00000010
00000100
00000001
,
00000000
00001000
00000100
00000001
00000100
00001000
00000002
00000000
,
00000103
00000010
00010000
00001000
00000010
00000100
00010000
00001000
,
00000000
01000000
00010000
10000000
01000000
00100000
00010000
00000000
,
10000000
00100000
01000000
00001000
00010000
00000100
00000010
00000001
,
00001000
00000100
00001000
00000010
00010000
00001000
02000000
00000000
,
03010000
00100000
01000000
00001000
00010000
00000010
00001000
00000100
,
00000010
00000001
00001000
00000010
00000100
00000001
00002000
00000000
,
00003010
00000100
00000001
00000100
00000010
00010000
00001000
00010000
,
00000100
00001000
00000010
00001000
00000100
00010000
00002000
00000000
,
01003000
00100000
01000000
00010000
00100000
01000000
10000000
00010000
,
01000000
00100000
10000000
00010000
01000000
00001000
00020000
00000000
,
00030000
00000200
00002300
00003020
,
00000230
00000302
00002003
00003200
,
00000000
00010300
00002000
00000000
,
00003000
00000000
00010000
00000000
00001000
00010000
00001000
00000000
,
00000000
02000000
03200000
20300000
,
32000000
00000000
03200000
00302000
,
00023000
00002000
00000000
00033000
,
00000000
00000000
00000000
00000000
00011000
00000000
00000000
00000000
00010000
00001000
00000000
00001000
00010000
00000000
00000100
00000000
,
00001000
00000000
00000020
00000000
00000230
00000302
00000023
00000000
,
00000230
00000000
00002300
00003020
00000000
00000000
00002030
00000000
,
00003200
00000000
00010300
00002000
00023000
00032000
00013000
00000000
,
00001000
00000000
00000000
00000000
00011000
00000000
00000000
00000000
00001000
00010000
00000000
00010000
00001000
00000000
01000000
00000000
,
00000000
00000000
00200000
00000000
20300000
32000000
03200000
00000000
,
00320000
02030000
03020000
00000000
00230000
00000000
02300000
00000000
,
00000000
10000000
00010000
13000000
,
00100000
01000000
01001000
00011000
,
00000200
00000000
00001300
00000010
00000100
00000001
00000100
00000020
,
00000000
00001030
00000100
00001000
00000001
00000100
00000010
00010000
,
00002000
00000000
00013000
00001000
01000000
00100000
01000000
00020000
,
00000000
10030000
01000000
00100000
00010000
01000000
10000000
01000000
,
00020000
00000000
10030000
01000000
00100000
01000000
10000000
02000000
,
00000000
03001000
00010000
00000100
00001000
00000010
00000100
00000001
,
00002000
00000000
00003010
00000100
00000001
00000100
00000010
00002000
,
00000000
00003100
00010000
00001000
00010000
00000100
00001000
00000010
,
00000200
00000000
00000301
00000010
00001000
00010000
00100000
20000000
,
00000000
30010000
01000000
00100000
01000000
00010000
10000000
01000000
,
20000000
00000000
30100000
00010000
00001000
00000010
00000001
00002000
,
00000000
00003100
00001000
00000010
00000100
00000001
00001000
00000001
,
00000200
00000000
00001300
00010000
01000000
10000000
00010000
20000000
,
00000000
31000000
00010000
00001000
00000100
00000001
00001000
00000001
,
00000020
00000000
00000230
00000000
00020300
00032000
00023000
00000000
,
00030020
00000000
00002030
00003200
00000000
00000000
00000000
00000300
,
00000010
00000001
00000100
00001000
00000000
00000000
00001000
00000100
,
00000001
00000010
00000000
00000000
00000100
00001000
00000010
00000000
,
00020000
00032000
00023000
00032000
,
01003000
00010000
00100000
00001000
,
00100000
00010000
01000000
10000000
00000000
00000000
10000000
01000000
,
00010000
00100000
00000000
00000000
01000000
10000000
01000000
00000000
,
00100000
00002000
00000000
00013000
00002000
00000000
01003000
00002000
,
00000000
00013000
00002000
00000000
00003000
00100000
00002000
00000000
,
00013000
00000100
00001000
00000010
00000000
00000000
00010000
00001000
,
00100000
00000000
01000000
00000000
00000000
00000000
00000000
00000000
10000000
00000000
00100000
00000000
10000000
00000000
00000000
00010000
,
01000000
00000000
00000000
00001000
00010000
00000000
00000000
00000100
00001000
00000000
00000000
00000001
00000100
00000000
00000000
00000001
,
00000010
00000000
00000000
00000100
00001000
00000000
00000000
00000100
00010000
00000000
00000000
00001000
01000000
00000000
00000000
00000000
,
00100000
01000000
00001000
00010000
00000000
00000000
00000100
00001000
,
00000010
00000000
00010000
00000000
00000000
00000000
00000000
00000000
00001000
00000000
00010000
00000000
00000100
00000000
00000000
00001000
,
00000001
00000000
00000000
00001000
00000010
00000000
00000000
00000100
00000001
00000000
00000000
00001000
00000100
00000000
00000000
00000010
,
00000001
00001000
00000001
00001000
00000001
00001000
00000001
00000000
00000000
00000100
00000000
00000000
,
00002002
00000000
00003000
00000020
00000000
00000003
00000200
00000000
,
00000000
00000030
00000000
00000000
00001300
00000000
00000100
00000000
,
00020000
00000000
00000000
00002000
00000000
00030000
00200000
00000000
,
00003000
00000000
00310000
10000000
,
00200000
00000000
00000000
02000000
00000000
00300000
00002000
00000000
,
03000000
00000000
00013000
00000100
,
00002000
00000000
00000000
00000020
00000000
00003000
00000200
00000000
,
00000030
00000000
00000000
00000300
,
00000010
00000000
00000001
00000000
00000100
00000000
00000010
00000000
00001000
00000000
00000100
00000000
,
00010000
00001000
00100000
01000000
10000000
00010000
02000000
00000000
,
00000000
00010000
00010000
03010000
,
10000000
01000000
00010000
00001000
00000100
00000001
00002000
00000000
,
00000000
00000010
00000010
00003010
,
00000100
00000001
00000010
00000100
00010000
00001000
02000000
00000000
,
00000000
00100000
00100000
03100000
,
02020000
00000000
03030000
00022000
00000000
00033000
00002002
00000000
,
00000000
00000000
00000000
00000000
,
00000000
00000000
00000000
00000000
00000000
00000000
00000000
00003000
,
00000003
00000000
00000000
00000000
;
