#TITLE:Infected;
#SUBTITLE:;
#ARTIST:Barthezz;
#TITLETRANSLIT:;
#SUBTITLETRANSLIT:;
#ARTISTTRANSLIT:;
#GENRE:;
#CREDIT:;
#MENUCOLOR:;
#METERTYPE:DDR;
#BANNER:Infected-bn.png;
#BACKGROUND:Infected-bg.png;
#LYRICSPATH:;
#CDTITLE:ddrencorecdtitle.png;
#MUSIC:Infected.mp3;
#OFFSET:-0.052;
#SAMPLESTART:69.365;
#SAMPLELENGTH:15.206;
#SELECTABLE:YES;
#LISTSORT:;
#DISPLAYBPM:*;
#BPMS:0.000=70.929,2.000=141.858,66.000=35.465,70.000=70.929,86.000=106.394,110.000=70.929,118.000=141.858,119.500=70.929,120.000=141.858;
#STOPS:118.000=0.211
,118.500=0.211
,119.000=0.211
;
#BGCHANGES:;
#ATTACKS:;

//---------------dance-single - ----------------
#NOTES:
     dance-single:
     :
     Beginner:
     1:
     0.110,0.165,0.086,0.043,0.000:
0000
0000
0000
0000
,
0000
0000
0000
0000
,
0000
0000
0000
0000
,
0000
0000
0000
0000
,
0000
0000
0001
0000
,
0000
0000
1000
0000
,
0000
0000
0001
0000
,
0000
0000
0100
0100
,
0100
0100
0100
0000
,
0000
0000
0010
0000
,
0000
0000
0100
0000
,
0000
0000
0001
0000
,
0000
0000
1001
0000
,
0000
0000
0110
0000
,
0000
0000
1001
0000
,
1001
0000
0010
0010
,
0010
0010
0010
0000
,
0000
0000
0100
0000
,
0001
0000
1000
0000
,
1000
0000
0100
0000
,
1000
0000
0001
0001
,
0001
0000
1001
0000
,
0000
0010
0000
0000
,
0100
0000
0000
0001
,
0000
0000
1000
0000
,
0000
0100
0000
0000
,
0020
0000
0000
0030
,
0000
0000
1001
0000
,
0000
0000
0110
0000
,
0001
0001
0001
0000
,
1000
0000
0000
0000
,
0010
0000
0100
0000
,
0001
0000
0000
0000
,
1000
0000
0000
0000
,
0001
0000
0000
0000
,
0010
0000
0001
0000
,
0100
0000
0100
0000
,
0200
0000
0300
0000
,
0001
0000
0000
0000
,
0100
0000
0010
0000
,
1000
0000
0000
0000
,
0001
0000
0000
0000
,
1000
0000
0000
0000
,
0100
0000
1000
0000
,
0010
0000
0010
0000
,
0020
0000
0030
0000
,
0100
0000
0000
0000
,
0100
0000
0000
0000
,
0010
0000
0000
0000
,
0010
0000
0000
0000
,
1001
0000
0000
0000
,
0110
0000
0000
0000
,
0001
0000
1000
0000
,
0010
0010
0010
0000
,
2002
0000
0000
0000
,
3003
0000
0000
0000
;

//---------------dance-single - ----------------
#NOTES:
     dance-single:
     :
     Easy:
     4:
     0.259,0.332,0.171,0.137,0.060:
0000
0000
0000
0000
,
0000
0000
0000
0000
,
0000
0000
0000
0000
,
0000
0000
0000
0000
,
0000
0000
0001
0001
,
1000
1000
0010
0100
,
0001
1000
0100
0100
,
0010
0010
0011
1100
,
1010
0101
0001
0001
,
1000
1000
0100
0010
,
0001
1000
0010
0010
,
0100
0100
0001
1000
,
0100
0010
1001
0010
,
0001
0100
1001
0010
,
1000
0001
0110
0000
,
1001
0000
1100
0011
,
0101
1010
0200
0000
,
0010
0000
0020
0300
0031
0000
0000
0000
,
0001
0001
0100
0000
,
0010
1000
0100
0000
,
1000
0010
0100
0100
,
0100
0000
0000
0000
0000
0000
0000
0000
0010
0000
0000
1000
0000
0000
0000
0000
,
0000
0001
0000
0000
0000
0000
0000
1000
0000
0000
0000
0000
0000
0010
0000
0000
,
0000
0000
0000
0100
0000
0000
0000
0000
0000
0010
0000
0000
0000
0000
0000
1000
,
0000
0000
0000
0000
0000
0010
0000
0000
0000
0000
0000
0100
0000
0000
0000
0000
,
0000
0001
0000
0000
0000
0000
0000
0010
0000
0000
0000
0000
0000
0100
0000
0000
,
1000
0000
0000
0000
0000
0000
0010
0000
0000
0000
0000
0000
1000
0000
0000
0100
,
0000
0000
0001
0000
0000
0100
0000
0000
2000
0000
0000
0000
0000
0000
0000
0000
,
3002
0000
1003
1000
,
0001
0010
0100
1000
2002
0000
0000
3003
,
1000
0010
0010
0100
,
0001
0010
0100
0010
,
0001
0100
0100
0010
,
1000
0100
0010
0100
,
1000
0001
0001
0100
,
0010
1000
0001
0010
,
0200
0000
0320
0000
,
0031
0000
1000
0000
0010
0000
1000
0001
,
1000
0010
0100
0100
,
0001
0010
1000
0010
,
0001
0100
0010
0010
,
1000
0100
0001
0100
,
1000
0001
1000
1000
,
0100
0010
0001
0100
,
0020
0000
0230
0000
,
0301
0000
1000
0000
0100
0000
1000
0001
,
2000
0000
3000
0010
,
0200
0000
0300
0001
,
0020
0000
0030
0100
,
2000
0000
3000
0001
,
1000
0010
0100
1001
,
0100
0001
0010
1001
,
0100
0100
0010
0010
,
0011
1100
1010
0101
,
2002
0000
0000
0000
,
0000
0000
3003
0000
;

//---------------dance-single - ----------------
#NOTES:
     dance-single:
     :
     Medium:
     7:
     0.350,0.356,0.205,0.094,0.090:
0000
0000
0000
0000
,
0000
0000
0000
0000
,
0000
0000
0000
0000
,
0000
0000
0000
0000
,
0000
0000
0001
0001
,
1000
0000
1000
0000
0010
0100
0001
0000
,
0010
0100
1000
0000
0001
0000
0001
0000
,
1000
1000
1010
0101
,
0011
1100
1000
1000
,
0001
0000
0001
0000
0010
0001
0100
0000
,
0010
1000
0100
0000
1000
0000
1000
0000
,
0001
0000
0001
0000
0010
0001
0100
0001
,
0010
0100
1000
0010
1000
0000
1000
0000
,
0001
0000
0001
0000
0100
0001
0010
0000
,
0100
1000
0010
0000
1000
0000
1000
0000
,
0001
0001
0011
1100
,
1010
0101
2002
0003
,
3020
0230
0301
0100
,
0010
0000
1000
0100
0001
0000
0100
0000
,
0010
0000
0001
0100
1000
0000
0100
0000
,
0010
0000
1000
0010
0001
0000
1000
0000
,
0001
0000
0010
0000
1000
0000
0100
0000
0010
0000
0000
0001
0000
0000
0100
0000
,
0000
0000
0010
0000
0000
0000
0000
0000
1000
0000
0000
0000
0000
0000
0001
0000
0000
0000
0000
0000
0010
0000
0000
0000
0000
0000
0001
0000
0000
1000
0000
0000
,
0001
0000
0000
0100
0000
0000
0010
0000
0000
1000
0000
0000
0001
0000
0000
0100
,
0000
0000
0000
0000
0001
0000
0000
0000
0000
0000
1000
0000
0000
0010
0000
0000
1000
0000
0000
0000
0000
0000
0100
0000
0000
0000
0000
0000
0010
0000
0000
0000
,
0000
0000
0001
0000
0000
0000
0000
0000
1000
0000
0000
0000
0000
0000
0001
0000
0000
0000
0000
0000
0100
0000
0000
0000
0000
0000
0010
0000
0000
1000
0000
0000
,
0010
0000
0000
0000
0000
0000
0010
0000
0000
0000
0000
0000
1010
0000
0000
1001
,
0000
0000
0101
0000
0000
1001
0000
0000
0002
0000
0000
0000
0000
0000
0000
0000
,
2003
0000
3100
0100
,
0010
0001
1000
0010
2002
0000
0000
3003
,
1000
0000
1000
0000
0010
1000
0000
1000
,
0001
0000
0010
0000
0001
0100
0010
1000
,
0001
0000
0001
0000
0010
0001
0000
0001
,
1000
0000
0010
0000
1000
0100
0010
0001
,
0100
0000
0100
0000
0010
0100
0000
0100
,
0001
0000
1000
0000
0001
0010
0100
1000
,
0010
0000
1000
0001
0100
0000
0001
1000
,
0010
0000
0010
0000
0100
0010
1000
0001
,
0010
0000
1001
0000
0010
0001
1000
0001
,
0100
0000
0010
0000
1000
0001
0100
0010
,
1000
0000
0110
0000
0001
1000
0010
1000
,
0001
0000
0010
0000
0100
1000
0010
0100
,
0001
0000
0110
0000
1000
0001
0010
0001
,
1000
0000
0010
0000
1000
0001
1000
0010
,
0100
0000
0010
1000
0001
0000
0010
0001
,
1000
0010
0200
0000
,
0310
0000
0000
0000
1000
0000
0000
0000
0010
0000
0000
0010
0000
0000
0010
0000
,
0100
0000
0000
0000
0001
0000
0000
0000
0010
0000
0000
0010
0000
0000
0010
0000
,
0100
0000
0000
0000
1000
0000
0000
0000
0001
0000
0000
0001
0000
0000
0001
0000
,
0100
0000
0000
0000
0001
0000
0000
0000
1000
0000
0000
1000
0000
0000
1000
0000
,
0010
0000
1000
0000
0100
1000
0010
0000
,
0100
0000
0001
0000
0010
0001
0100
0000
,
0110
0000
1001
0000
,
1010
0101
0011
1100
,
2002
0000
0000
0000
,
0000
0000
3003
0000
;

//---------------dance-single - ----------------
#NOTES:
     dance-single:
     :
     Hard:
     9:
     0.539,0.784,0.274,0.205,0.719: // measure 1
0000
0000
0000
0000
,  // measure 2
0000
0000
0000
0000
,  // measure 3
0000
0000
0000
0000
,  // measure 4
0000
0000
0000
0000
,  // measure 5
0000
0000
0000
0000
0000
0000
0000
0000
0200
0000
0000
0000
0001
0000
0000
0001
,  // measure 6
0000
0000
0301
0000
0000
0100
0000
0000
0010
0000
1000
0001
0000
0100
0000
0010
,  // measure 7
0000
0000
0010
0000
0000
0010
0000
0000
2000
0000
0000
0000
0100
0000
0000
0100
,  // measure 8
0000
0000
3100
0000
0000
1000
0000
0000
0101
0000
0000
0000
0011
0000
0000
0000
,  // measure 9
1100
0000
0000
0000
1010
0000
0000
0000
0020
0000
0000
0000
1000
0000
0000
1000
,  // measure 10
0000
0000
1030
0000
0000
0010
0000
0000
0100
0000
0001
1000
0000
0010
0000
0100
,  // measure 11
0000
0000
0100
0000
0000
0100
0000
0000
0002
0000
0000
0000
0010
0000
0000
0010
,  // measure 12
0000
0000
0013
0000
0000
0001
0000
0000
0100
0000
0010
1000
0000
0001
0000
0100
,  // measure 13
0000
0000
0100
0000
0000
0100
0000
0000
0102
0000
0000
0000
1000
0000
0000
1000
,  // measure 14
0000
0000
1003
0000
0000
0001
0000
0000
0110
0000
0100
1000
0000
0010
0000
0100
,  // measure 15
0000
0000
0100
0000
0000
0100
0000
0000
2001
0000
0000
0000
3010
0000
0000
0000
,  // measure 16
1002
0103
1010
0101
,  // measure 17
0011
1100
2002
3000
,  // measure 18
0203
0000
0000
0000
0000
0000
0000
0000
0320
0000
0000
0000
0000
0000
0000
0000
0130
0000
0000
0000
0001
0000
0000
1000
0000
0000
0100
0000
0000
0010
0100
0000
,  // measure 19
1000
0000
0010
0000
0000
0010
0100
0000
0001
0000
0010
0000
0001
1000
0001
1000
0001
0000
0000
0000
1000
0000
0000
0010
0000
0000
0100
0000
0000
0010
0100
0000
,  // measure 20
0001
0000
0010
0000
0000
0010
0100
0000
1000
0000
0010
0000
1000
0001
1000
0001
1000
0000
0000
0000
0010
0000
0000
0100
0000
0000
0001
0000
0000
1000
0001
0000
,  // measure 21
0100
0000
0010
0000
0000
0010
1000
0000
0001
0000
0100
0000
0001
1000
0001
1000
0001
0000
0000
0010
0000
0000
0100
0000
1000
0000
0000
0100
0000
0000
0010
0000
,  // measure 22
0000
0000
0000
0000
0000
0000
0001
0000
0000
0000
0000
0000
0000
0000
0000
0000
0000
0000
0000
0000
0000
0000
0000
0000
1000
0000
0000
0000
0000
0000
0000
0000
0000
0000
0000
0000
0000
0000
0000
0000
0000
0000
0001
0000
0000
0000
0000
0000
0000
0000
0000
0000
0000
0000
0000
0000
0000
0000
0000
0000
0100
0000
0000
0000
0000
0000
0000
0000
0000
0000
0000
0000
0001
0000
0000
0000
0000
0000
1000
0000
0000
0000
0000
0000
0001
0000
0000
0000
0000
0000
1000
0000
0000
0000
0000
0000
0001
0000
0000
0000
0000
0000
0000
0000
0000
0000
0000
0000
0000
0000
0000
0000
0000
0000
0000
0000
0000
0000
0000
0000
0000
0000
0000
0000
0000
0000
0000
0000
0000
0000
0000
0000
0100
0000
0000
0000
0000
0000
0000
0000
0000
0000
0000
0000
0000
0000
0000
0000
0000
0000
0000
0000
0000
0000
0000
0000
0000
0000
0000
0000
0010
0000
0000
0000
0000
0000
0000
0000
0000
0000
0000
0000
0000
0000
0000
0000
0000
0000
0000
0000
0000
0000
0000
0000
0000
0000
1000
0000
0000
0000
0000
0000
,  // measure 23
0000
0000
0000
0000
0000
0000
0000
0000
0000
0000
0000
0000
0000
0000
0000
0000
0000
0000
0000
0000
0010
0000
0000
0000
0000
0000
0000
0000
0000
0000
0100
0000
0000
0000
0000
0000
0000
0000
0000
0000
0000
0000
0000
0000
0000
0000
0000
0000
0001
0000
0000
0000
0000
0000
0000
0000
0000
0000
0000
0000
0000
0000
0000
0000
0000
0000
1000
0000
0000
0000
0000
0000
0000
0000
0000
0000
0000
0000
0000
0000
0000
0000
0000
0000
0000
0000
0000
0000
0000
0000
0000
0000
1000
0000
0000
0000
0000
0000
0000
0000
0000
0000
0010
0000
0000
0000
0000
0000
0000
0000
0000
0000
0000
0000
0000
0000
0000
0000
0000
0000
0100
0000
0000
0000
0000
0000
0000
0000
0000
0000
0000
0000
0000
0000
0000
0000
0001
0000
0000
0000
0000
0000
0000
0000
0000
0000
0000
0000
0000
0000
0000
0000
0000
0000
0000
0000
1000
0000
0000
0000
0000
0000
0000
0000
0000
0001
0000
0000
0000
0000
0000
0000
0000
0000
1000
0000
0000
0000
0000
0000
0000
0000
0000
0001
0000
0000
0000
0000
0000
0000
0000
0000
,  // measure 24
1000
0000
0000
0000
0000
0000
0000
0000
0000
0000
0000
0000
0000
0000
0000
0000
0000
0000
0000
0000
0000
0000
0000
0000
0000
0000
0000
0000
0000
0000
0000
0000
0000
0000
0000
0000
0010
0000
0000
0000
0000
0000
0000
0000
0000
0000
0000
0000
0000
0000
0000
0000
0000
0000
0000
0000
0000
0000
0000
0000
0000
0000
0000
0000
0100
0000
0000
0000
0000
0000
0000
0000
0000
0000
0000
0000
0000
0000
0000
0000
0000
0000
0000
0000
0000
0000
0000
0000
0000
0000
0001
0000
0000
0000
0000
0000
0000
0000
0000
0000
0000
0000
0000
0000
0000
0000
0000
0000
0000
0000
0000
0000
0000
0000
0000
0000
0100
0000
0000
0000
0000
0000
0000
0000
0000
0000
0010
0000
0000
0000
0000
0000
0000
0000
0000
0000
0000
0000
0000
0000
0000
0000
0000
0000
1000
0000
0000
0000
0000
0000
0000
0000
0000
0000
0000
0000
0000
0000
0000
0000
0000
0000
0001
0000
0000
0000
0000
0000
0000
0000
0000
0000
0000
0000
0000
0000
0000
0000
0000
0000
0000
0000
0000
0000
0000
0000
0000
0000
0001
0000
0000
0000
,  // measure 25
0000
0000
0000
0000
0000
0000
0100
0000
0000
0000
0000
0000
0000
0000
0000
0000
0000
0000
0000
0000
0000
0000
0000
0000
0010
0000
0000
0000
0000
0000
0000
0000
0000
0000
0000
0000
0000
0000
0000
0000
1000
0000
0000
0000
0000
0000
0000
0000
0000
0000
0000
0000
0000
0000
0000
0000
0000
0000
0000
0000
0001
0000
0000
0000
0000
0000
0000
0000
0000
1000
0000
0000
0000
0000
0000
0000
0000
0000
0001
0000
0000
0000
0000
0000
0000
0000
0000
1000
0000
0000
0000
0000
0000
0000
0000
0000
0001
0000
0000
0000
0000
0000
0000
0000
0000
0000
0000
0000
0000
0000
0000
0000
0000
0000
0000
0000
0000
0000
0000
0000
0000
0000
0000
0000
0000
0000
0000
0000
0000
0000
0000
0000
1000
0000
0000
0000
0000
0000
0000
0000
0000
0000
0000
0000
0000
0000
0000
0000
0000
0000
0000
0000
0000
0000
0000
0000
0000
0000
0000
0000
0010
0000
0000
0000
0000
0000
0000
0000
0000
0000
0000
0000
0000
0000
0000
0000
0000
0000
0000
0000
0000
0000
0000
0000
0000
0000
1000
0000
0000
0000
0000
0000
,  // measure 26
0000
0000
0000
0000
0000
0000
0000
0000
0000
0000
0000
0000
0000
0000
0000
0000
0000
0000
0000
0000
0001
0000
0000
0000
0000
0000
0000
0000
0000
0000
0100
0000
0000
0000
0000
0000
0000
0000
0000
0000
0000
0000
0000
0000
0000
0000
0000
0000
0001
0000
0000
0000
0000
0000
0000
0000
0000
0000
0000
0000
0000
0000
0000
0000
0000
0000
1000
0000
0000
0000
0000
0000
0000
0000
0000
0000
0000
0000
0000
0000
0000
0000
0000
0000
0000
0000
0000
0000
0000
0000
0000
0000
1000
0000
0000
0000
0000
0000
0000
0000
0000
0000
0010
0000
0000
0000
0000
0000
0000
0000
0000
0000
0000
0000
0000
0000
0000
0000
0000
0000
0100
0000
0000
0000
0000
0000
0000
0000
0000
0000
0000
0000
0000
0000
0000
0000
0001
0000
0000
0000
0000
0000
0000
0000
0000
0000
0000
0000
0000
0000
0000
0000
0000
0000
0000
0000
0010
0000
0000
0000
0000
0000
0000
0000
0000
0100
0000
0000
0000
0000
0000
0000
0000
0000
0010
0000
0000
0000
0000
0000
0000
0000
0000
0100
0000
0000
0000
0000
0000
0000
0000
0000
,  // measure 27
0010
0000
0000
0000
0000
0000
0000
0000
0000
0010
0000
0000
0000
0000
0000
0000
0000
0000
0001
0000
0000
0000
0000
0000
0100
0000
0000
0000
0000
0000
0000
0000
0000
0100
0000
0000
0000
0000
0000
0000
0000
0000
0001
0000
0000
0000
0000
0000
0000
0000
0000
1000
0000
0000
0000
0000
0000
0000
0000
0000
0010
0000
0000
0000
,  // measure 28
0000
0000
0000
0000
0000
0100
0000
0000
0000
0000
0000
0000
0000
0000
0001
0000
0000
0000
0000
0000
0000
0000
0000
1000
0000
0000
0000
0000
0000
0000
0000
0000
0002
0000
0000
0000
0000
0000
0000
0000
0000
0000
0000
0000
0000
0000
0000
0000
2003
0000
0000
0000
0000
0000
0000
0000
0000
0000
0000
0000
0000
0000
0000
0000
,  // measure 29
3002
0203
0310
0010
,  // measure 30
0010
0000
0000
0000
0010
0000
0000
0000
0010
0000
0000
0000
0010
0000
0000
0000
1001
0000
0000
0000
1001
0000
0000
0000
1001
0000
0000
0000
1000
0100
0010
0001
,  // measure 31
2000
0000
0000
0000
0010
0000
0000
0010
0000
0000
3010
0000
0000
1000
0001
0000
,  // measure 32
1000
0000
0100
0000
0000
1000
0010
0000
0100
0000
0001
0000
0010
0100
0010
0100
,  // measure 33
0020
0000
0000
0000
0001
0000
0000
0001
0000
0000
0031
0000
0000
0010
0100
0000
,  // measure 34
1000
0000
0001
0000
0000
0100
0001
0000
0010
0000
0001
0000
0100
0010
0100
0010
,  // measure 35
0200
0000
0000
0000
0010
0000
0000
0010
0000
0000
0310
0000
0000
0100
0001
0000
,  // measure 36
1000
0000
0010
0000
0000
1000
0100
0000
0010
0000
0100
0000
1000
0001
1000
0001
,  // measure 37
1000
0000
0000
0010
0000
0000
0001
0000
0010
0000
0000
1000
0000
0000
0100
0000
,  // measure 38
0000
0010
0000
0000
0010
0000
0000
0010
0000
0100
0010
0000
0001
0100
0010
1000
,  // measure 39
0010
0000
0000
0000
1000
0000
0000
0100
0000
0000
0110
0000
0000
0001
1000
0000
,  // measure 40
0001
0000
0100
0000
0000
0001
1000
0000
0100
0000
0010
0000
0001
0010
0100
1000
,  // measure 41
0100
0000
0000
0000
0010
0000
0000
0001
0000
0000
0110
0000
0000
1000
0001
0000
,  // measure 42
0100
0000
0010
0000
0000
0100
0001
0000
1000
0000
0100
0000
1000
0010
0100
0001
,  // measure 43
0100
0000
0000
0000
0010
0000
0000
1000
0000
0000
0110
0000
0000
1000
0001
0000
,  // measure 44
0010
0000
0100
0000
0000
0010
0100
0000
1000
0000
0001
0000
0010
0100
0010
0000
,  // measure 45
2001
3010
1002
0103
,  // measure 46
0011
1100
1010
0101
,  // measure 47
0001
0000
1000
0000
0010
0000
0100
0000
0010
1000
0000
0001
0000
1000
0010
0000
,  // measure 48
0100
0000
0001
0000
1000
0000
0100
0000
0010
0001
0000
1000
0000
0001
0010
0000
,  // measure 49
0001
0000
0100
0000
0010
0000
1000
0000
0100
1000
0000
0001
0000
1000
0100
0000
,  // measure 50
1000
0000
0100
0000
0010
0000
0001
0000
0100
0001
0000
1000
0000
0001
0100
0000
,  // measure 51
0010
1000
0100
0010
0001
0100
1000
0100
,  // measure 52
0010
1000
0100
0010
0001
0010
1000
0010
,  // measure 53
0210
1300
0120
0031
,  // measure 54
1100
1010
0101
0011
,  // measure 55
2002
0000
0000
0000
,  // measure 56
0000
0000
3003
0000
;

//---------------dance-double - ----------------
#NOTES:
     dance-double:
     :
     Easy:
     5:
     0.242,0.332,0.188,0.120,0.047:
00000000
00000000
00000000
00000000
,
00000000
00000000
00000000
00000000
,
00000000
00000000
00000000
00000000
,
00000000
00000000
00000000
00000000
,
00000000
00000000
00000100
00000000
,
00000100
00000000
00000010
00000001
,
00000100
00000010
00010000
00000000
,
00010000
00000000
00011000
01001000
,
00011000
00101000
00110000
00000000
,
00100000
00000000
01000000
10000000
,
00010000
01000000
00100000
00000000
,
00100000
00000000
01000000
00010000
,
10000000
01000000
01100000
00000000
,
00010000
00000000
00010000
01000000
,
00001000
00010000
00011000
00000000
,
00010100
00000000
00001100
00000110
,
00000011
00001001
00002200
00000000
,
00000000
00003300
00001000
00000000
,
00000100
00000100
00000010
00000000
,
00000001
00000001
00001000
00000000
,
00000100
00010000
00001000
00001000
,
00001000
00000000
00000000
00000000
00000000
00000000
00000000
00000000
00010000
00000000
00000000
00001000
00000000
00000000
00010000
00000000
,
00000000
00001000
00000000
00000000
00100000
00000000
00000000
00010000
00000000
00000000
01000000
00000000
00000000
00000000
00000000
00000000
,
00010000
00000000
00000000
10000000
00000000
00000000
00010000
00000000
00000000
10000000
00000000
00000000
00010000
00000000
00000000
00100000
,
00000000
00000000
00001000
00000000
00000000
00000000
00000000
00000000
00010000
00000000
00000000
00001000
00000000
00000000
00010000
00000000
,
00000000
00000100
00000000
00000000
00001000
00000000
00000000
00000010
00000000
00000000
00000100
00000000
00000000
00000000
00000000
00000000
,
00000001
00000000
00000000
00000000
00000000
00000000
00001000
00000000
00000000
00000000
00000000
00000000
00000010
00000000
00000000
00000010
,
00000000
00000000
00000010
00000000
00000000
00000010
00000000
00000000
00000010
00000000
00000000
00000000
00000000
00000000
00000000
00000000
,
00010000
00000000
00001000
00001000
,
00001000
00010000
00001000
00010000
00022000
00000000
00033000
00000000
,
00001000
01000000
00001000
00000000
,
00200000
00000000
01300000
10000000
,
00100000
01000000
00100000
00000000
,
20000000
00000000
30010000
01000000
,
00001000
00001000
00010000
00000000
,
00000200
00000000
00001300
00000001
,
00000100
00000000
00000100
00000000
,
00000200
00000000
00000001
00000000
00000301
00000000
00000001
00001000
,
00000001
00000010
00000100
00001000
,
00000200
00000000
00010300
00001000
,
00100000
00010000
01000000
00010000
,
20000000
00000000
30100000
10000000
,
00010000
01000000
00010000
00100000
,
02000000
00000000
03100000
00001000
,
00010000
00000000
00010000
00000000
,
00020000
00001000
00001000
00031000
,
00011000
00000000
00001000
00010000
,
00000100
00000000
00001000
00000001
,
00000100
00000000
00000010
00001000
,
00000100
00000000
00010000
00001000
,
01000000
00000000
01000000
00000000
,
00100000
10000000
00010000
01000000
,
01010000
00000000
01001000
00000000
,
00011000
00101000
00011000
00010010
,
00022000
00000000
00000000
00000000
,
00000000
00000000
00033000
00000000
;

//---------------dance-double - ----------------
#NOTES:
     dance-double:
     :
     Medium:
     6:
     0.302,0.380,0.222,0.120,0.039:
00000000
00000000
00000000
00000000
,
00000000
00000000
00000000
00000000
,
00000000
00000000
00000000
00000000
,
00000000
00000000
00000000
00000000
,
00000000
00000000
00001000
00001000
,
00010000
00000000
00010000
00000000
00000010
00001000
00000010
00000000
,
00000010
00001001
00000001
00000001
,
00001000
00001000
00001100
00010100
,
00011000
01001000
01000000
01000000
,
00010000
00000000
00010000
00000000
00100000
00010000
00100000
00000000
,
00100000
10010000
10000000
10000000
,
00010000
00000000
00010000
00000000
01000000
00010000
01000000
00000000
,
00001000
00010000
00001000
00010000
00000100
00000000
00000100
00000000
,
00001000
00000000
00001000
00000000
00000010
00000100
00000010
00000000
,
00000010
00001001
00000001
00000001
,
00001000
00001000
00001100
00010100
,
00011000
01001000
02020000
03000000
,
20030000
32000000
03100000
00000000
,
00100000
01000000
10000000
00000000
,
00010000
01000000
00001000
00000000
,
00010000
00000100
00001000
00000001
,
00000100
00000000
00000000
00000000
00001001
00000000
00000000
00000100
,
00000000
00000000
00000000
00000000
00000010
00000000
00000000
00000000
00000000
00000000
00010000
00000000
00000000
00001000
00000000
00000000
,
01000000
00000000
00000000
00010000
00000000
00000000
10000000
00000000
,
00000000
00000000
01000000
00000000
00000000
00100000
00000000
00000000
00010000
00000000
00000000
00000000
00000000
00000000
01000000
00000000
,
00000000
00000000
00000000
00000000
00001000
00000000
00000000
00000000
00000000
00000000
00010000
00000000
00000000
00000100
00000000
00000000
,
00011000
00000000
00000000
00000000
00000000
00000000
00010100
00000000
00000000
00000000
00000000
00000000
00000100
00000000
00000000
00010000
,
00000000
00000000
00001000
00000000
00000000
01000000
00000000
00000000
00200000
00000000
00000000
00000000
20300000
00000000
00000000
00000000
,
30200000
02300000
03010000
00010000
,
00100000
00100000
00001000
00001000
00022000
00000000
00000000
00033000
,
00001000
01000000
00010000
00100000
,
01000000
00000000
00100000
00000000
00010000
00000000
10000000
00010000
,
01000000
00010000
00100000
00001000
,
00010000
00000000
00000100
00000000
00001000
00000000
00000010
00000100
,
00000001
00001000
00000100
00010000
,
00001000
00000000
01000000
00000000
00010000
00000000
00100000
00001000
,
00010000
00000000
00001000
00000000
,
01010000
01001000
00011000
00101000
,
00100000
00000000
01000000
00000000
10000000
01000000
00000000
01000000
,
00100000
00000000
00010000
00000000
10000000
00000000
00010000
01000000
,
00100000
00000000
10000000
00000000
00010000
01000000
00000000
01000000
,
00001000
00000000
00010000
00000000
00000100
00000000
00001000
00000010
,
00000100
00000000
00000001
00000000
00000010
00000100
00000000
00000100
,
00001000
00000010
00010000
00001000
,
00010000
00000000
00001000
00000000
,
00022000
00000000
00000000
00033000
,
00001000
00000000
00000000
00000000
01000000
00000000
00000000
00000000
00010000
00000000
00000000
10000000
00000000
00000000
00010000
00000000
,
01000000
00000000
00000000
00000000
00001000
00000000
00000000
00000000
00010000
00000000
00000000
00000100
00000000
00000000
00010000
00000000
,
00001000
00000000
00000000
00000000
01000000
00000000
00000000
00000000
00100000
00000000
00000000
01000000
00000000
00000000
00100000
00000000
,
10000000
00000000
00000000
00000000
00010000
00000000
00000000
00000000
01000000
00000000
00000000
00001000
00000000
00000000
01000000
00000000
,
00010000
00000000
00100000
00000000
00001000
00010000
00000100
00000000
,
00001000
00000000
00000010
00000000
00000100
00000001
00001000
00000000
,
00000100
00000010
00000001
00000000
00001000
00000100
00000010
00000000
,
00001100
00010100
00011000
01001000
,
00022000
00000000
00000000
00000000
,
00000000
00000000
00033000
00000000
;

//---------------dance-double - ----------------
#NOTES:
     dance-double:
     :
     Hard:
     9:
     0.518,0.784,0.299,0.188,0.637:
00000000
00000000
00000000
00000000
,
00000000
00000000
00000000
00000000
,
00000000
00000000
00000000
00000000
,
00000000
00000000
00000000
00000000
,
00000000
00000000
00000000
00000000
00000000
00000000
00000000
00000000
00002000
00000000
00000000
00000000
01000000
00000000
00000000
00010000
,
00000000
00000000
01003000
00000000
00000000
00001000
00000000
00000000
00010000
00000000
01000000
10000000
00000000
00100000
00000000
01000000
,
00000000
00000000
01000000
00000000
00000000
01000000
00000000
00000000
00002000
00000000
00000000
00000000
00100000
00000000
00000000
00010000
,
00000000
00000000
00103000
00000000
00000000
00001000
00000000
00000000
00101000
00000000
00000000
00000000
01100000
00000000
00000000
00000000
,
10010000
00000000
00000000
00000000
00101000
00000000
00000000
00000000
00020000
00000000
00000000
00000000
00000100
00000000
00000000
00001000
,
00000000
00000000
00030100
00000000
00000000
00010000
00000000
00000000
00001000
00000000
00000100
00000001
00000000
00000010
00000000
00000100
,
00000000
00000000
00000100
00000000
00000000
00000100
00000000
00000000
00020000
00000000
00000000
00000000
00000010
00000000
00000000
00001000
,
00000000
00000000
00030010
00000000
00000000
00010000
00000000
00000000
00001000
00000000
00000010
00000001
00000000
00001000
00000000
00000100
,
00000000
00000000
00000100
00000000
00000000
00000100
00000000
00000000
00012000
00000000
00000000
00000000
01000000
00000000
00000000
01000000
,
00000000
00000000
01003000
00000000
00000000
00001000
00000000
00000000
00011000
00000000
00010000
00100000
00000000
10000000
00000000
00010000
,
00000000
00000000
00010000
00000000
00000000
00010000
00000000
00000000
21000000
00000000
00000000
00000000
31000000
00000000
00000000
00000000
,
02100000
03100000
00110000
00101000
,
00011000
00010100
00002002
00003000
,
00000023
00000000
00000000
00000000
00000000
00000000
00000000
00000000
00000230
00000000
00000000
00000000
00000000
00000000
00000000
00000000
00001300
00000000
00000000
00000000
00000010
00000000
00000000
00000100
00000000
00000000
00000001
00000000
00000000
00000001
00000100
00000000
,
00000010
00000000
00001000
00000000
00000000
00001000
00000100
00000000
00010000
00000000
00010000
00000000
00001000
00010000
00001000
00010000
00001000
00000000
00000000
00000000
01000000
00000000
00000000
00100000
00000000
00000000
10000000
00000000
00000000
10000000
01000000
00000000
,
00100000
00000000
00010000
00000000
00000000
00010000
01000000
00000000
00001000
00000000
00001000
00000000
00010000
00001000
00010000
00001000
00010000
00000000
00000000
00000000
00000100
00000000
00000000
00000010
00000000
00000000
00000001
00000000
00000000
00000001
00000010
00000000
,
00000100
00000000
00001000
00000000
00000000
00001000
00000100
00000000
00010000
00000000
00010000
00000000
00001000
00010000
00001000
00010000
00001000
00000000
00000000
00001000
00000000
00000000
00010000
00000000
00001000
00000000
00000000
00001000
00000000
00000000
00010000
00000000
,
00000000
00000100
00000000
00000000
00010000
00000000
00000000
00001000
00000000
00000000
01000000
00000000
00001000
00010000
00001000
00010000
00001000
00000000
00000000
00000000
00000000
00000000
00110000
00000000
00000000
00000000
00000000
00000000
00010000
00000000
00000000
00000000
,
00000000
00000000
00000000
00000000
11000000
00000000
00000000
00000000
00000000
00000000
00000000
00000000
00000000
00000000
00000000
00000000
01000000
00000000
00000000
00000000
00000000
00000000
00000000
00000000
00000000
00000000
00000000
00000000
00101000
00000000
00000000
00000000
00000000
00000000
00000000
00000000
00000000
00000000
00000000
00000000
00001000
00000000
00000000
00000000
00000000
00000000
00000000
00000000
00000000
00000000
00000000
00000000
00010000
00000000
00000000
00001000
00000000
00000000
00010000
00000000
00000000
00001000
00000000
00000000
,
00010000
00000000
00000000
00001010
00000000
00000000
00001000
00000000
00000000
00000101
00000000
00000000
00000100
00000000
00000000
00010010
,
00000000
00000000
00000000
00000000
00000000
00000000
00000000
00000000
00010000
00000000
00000000
00000000
00000000
00000000
00000000
00000000
00000000
00000000
00000000
00000000
00001000
00000000
00000000
00010000
00000000
00000000
00001000
00000000
00000000
00010000
00000000
00000000
00001000
00000000
00000000
00000000
00000000
00000000
00000000
00000000
00000000
00000000
00000000
00000000
01010000
00000000
00000000
00000000
00000000
00000000
00000000
00000000
00000000
00000000
00000000
00000000
00001000
00000000
00000000
00000000
00000000
00000000
00000000
00000000
,
00000000
00000000
00000000
00000000
00011000
00000000
00000000
00000000
00000000
00000000
00000000
00000000
00000000
00000000
00000000
00000000
00010000
00000000
00000000
00000000
00000000
00000000
00000000
00000000
00000000
00000000
00000000
00000000
00001010
00000000
00000000
00000000
00000000
00000000
00000000
00000000
00000000
00000000
00000000
00000000
00010000
00000000
00000000
00000000
00000000
00000000
00000000
00000000
00000000
00000000
00000000
00000000
00010000
00000000
00000000
00001000
00000000
00000000
00010000
00000000
00000000
00001000
00000000
00000000
,
00010000
00000000
00000000
00000000
00000000
00000000
00000000
00000000
00000000
01000000
00000000
00000000
00000000
00000000
00000000
00000000
00000000
00000000
10000000
00000000
00000000
00000000
00000000
00000000
00100000
00000000
00000000
00000000
00000000
00000000
00000000
00000000
00000000
00010000
00000000
00000000
00000000
00000000
00000000
00000000
00000000
00000000
00001000
00000000
00000000
00000000
00000000
00000000
00000000
00000000
00000000
00000100
00000000
00000000
00000000
00000000
00000000
00000000
00000000
00000000
00000010
00000000
00000000
00000000
,
00000000
00000000
00000000
00000000
00000000
00001000
00000000
00000000
00000000
00000000
00000000
00000000
00000000
00000000
00000001
00000000
00000000
00000000
00000000
00000000
00000000
00000000
00000000
00000010
00000000
00000000
00000000
00000000
00000000
00000000
00000000
00000000
00000200
00000000
00000000
00000000
00000000
00000000
00000000
00000000
00000000
00000000
00000000
00000000
00000000
00000000
00000000
00000000
00020300
00000000
00000000
00000000
00000000
00000000
00000000
00000000
00000000
00000000
00000000
00000000
00000000
00000000
00000000
00000000
,
00032000
02003000
03001000
00010000
,
00000100
00000000
00000000
00000000
00010000
00000000
00000000
00000000
00001000
00000000
00000000
00000000
01000000
00000000
00000000
00000000
00011000
00000000
00000000
00000000
01001000
00000000
00000000
00000000
01010000
00000000
00000000
00000000
00010000
10000000
00010000
10000000
,
00020000
00000000
00000000
00000000
01000000
00000000
00000000
10000000
00000000
00000000
01030000
00000000
00000000
01000000
00100000
00000000
,
10000000
00000000
00010000
00000000
00000000
00010000
00100000
00000000
00001000
00000000
00010000
00000000
00000100
00000000
00000100
00000000
,
00002000
00000000
00000000
00000000
00000100
00000000
00000000
00000001
00000000
00000000
00003100
00000000
00000000
00000100
00000010
00000000
,
00000001
00000000
00001000
00000000
00000000
00001000
00000100
00000000
00010000
00000000
00001000
00000000
01000000
00000000
01000000
00000000
,
00002000
00000000
00000000
00000000
00010000
00000000
00000000
00100000
00000000
00000000
00013000
00000000
00000000
00010000
00000100
00000000
,
00010000
00000000
00001000
00000000
00000000
00001000
01000000
00000000
00010000
00000000
00100000
00000000
00001000
00000000
00001000
00000000
,
00010000
00000000
00000000
01000000
00000000
00000000
00100000
00000000
00001000
00000000
00000000
00010000
00000000
00000000
00000010
00000000
,
00000000
00000010
00000000
00000000
00010000
00000000
00000000
00010000
00000000
00000000
00001000
00000000
01000000
00010000
01000000
00010000
,
01000000
00000000
00000000
00000000
00100000
00000000
00000000
10000000
00000000
00000000
10010000
00000000
00000000
10000000
01000000
00000000
,
00100000
00000000
00100000
00000000
00000000
00001000
00010000
00000000
00000100
00000000
00001000
00000000
00000010
00001000
00000010
00001000
,
00000010
00000000
00000000
00000000
00000100
00000000
00000000
00000001
00000000
00000000
00001001
00000000
00000000
00000001
00000100
00000000
,
00000010
00000000
00000010
00000000
00000000
00010000
00001000
00000000
01000000
00000000
00001000
00000000
00100000
00010000
00100000
00010000
,
00100000
00000000
00000000
00000000
00001000
00000000
00000000
00100000
00000000
00000000
00011000
00000000
00000000
00010000
00000100
00000000
,
00001000
00000000
00001000
00000000
00000000
00001000
00000010
00000000
00000100
00000000
00000001
00000000
00001000
00000100
00001000
00000100
,
00001000
00000000
00000000
00000100
00000000
00000000
00010000
00000000
00001000
00000000
00000000
00100000
00000000
00000000
01000000
00000000
,
00000000
01000000
00000000
00000000
10000000
00000000
00000000
10000000
00000000
00000000
00010000
00000000
00000000
01000000
00000000
00000000
,
00001000
00000000
00010000
00000000
00001000
00000000
01000000
00000000
00100000
10000000
00000000
00010000
00000000
00100000
00001000
00000000
,
00010000
00000000
00000100
00000000
00001000
00000000
00000010
00000000
00000100
00000001
00000000
00001000
00000000
00000100
00010000
00000000
,
00001000
00000000
01000000
00000000
00010000
00000000
00100000
00000000
01000000
10000000
00000000
01000000
00000000
00100000
00001000
00000000
,
00010000
00000000
00000100
00000000
00001000
00000000
00000010
00000000
00000100
00000001
00000000
00000100
00000000
00000010
00010000
00000000
,
00001000
00000100
00000001
00000100
00001000
00010000
00100000
00010000
,
00001000
00000010
00000001
00000010
00001000
00010000
01000000
00100000
,
10020000
01030000
00012000
00103000
,
00010100
01001000
00010010
00101000
,
00022000
00000000
00000000
00000000
,
00000000
00000000
00033000
00000000
;
