#TITLE:IMPLANTATION;
#SUBTITLE:;
#ARTIST:TOMOSUKE;
#TITLETRANSLIT:;
#SUBTITLETRANSLIT:;
#ARTISTTRANSLIT:;
#GENRE:;
#CREDIT:;
#MENUCOLOR:;
#METERTYPE:DDR;
#BANNER:IMPLANTATION-bn.png;
#BACKGROUND:IMPLANTATION-bg.png;
#LYRICSPATH:;
#CDTITLE:ddrencorecdtitle.png;
#MUSIC:Implantation.mp3;
#OFFSET:-0.029;
#SAMPLESTART:49.700;
#SAMPLELENGTH:15.000;
#SELECTABLE:YES;
#LISTSORT:;
#BPMS:0.000=145.000,100.000=144.980,101.000=144.960;
#STOPS:;
#BGCHANGES:;
#ATTACKS:;

//---------------dance-single - ----------------
#NOTES:
     dance-single:
     :
     Beginner:
     1:
     0.156,0.211,0.078,0.022,0.000:
0000
0000
0000
0000
,
0000
0000
0000
0000
,
1000
0000
1000
0000
,
1000
0000
1000
0000
,
0010
0000
0000
0000
,
0100
0000
0000
0000
,
0001
0000
1000
0000
,
0001
0000
1000
0000
,
0001
0000
1000
0000
,
0001
0000
1000
0000
,
0010
0000
0010
0000
,
0010
0000
0010
0000
,
1000
0000
0000
0000
,
0001
0000
0000
0000
,
0100
0000
1000
0000
,
0010
0000
0010
0000
,
0100
0000
0001
0000
,
0010
0000
0010
0000
,
0010
0000
1000
0000
,
0100
0000
0100
0000
,
0010
0000
0001
0000
,
0100
0000
0100
0000
,
1000
0000
0000
0000
,
0010
0000
0000
0000
,
0001
0000
0000
0000
,
0100
0000
0000
0000
,
2002
0000
0000
0000
,
0000
0000
3003
0000
,
0010
0000
0000
0000
,
0100
0100
0100
0100
,
0100
0000
0010
0000
,
0010
0000
0010
0000
,
1000
0000
1000
0000
,
0001
0000
0001
0000
,
0100
0000
0100
0000
,
0010
0000
0010
0000
,
0100
0000
0100
0000
,
0001
0000
0001
0000
,
1001
0000
0000
0000
,
0000
0000
0000
0000
,
0110
0000
0000
0000
,
0000
0000
0000
0000
,
1001
0000
1000
0000
,
0001
0000
1000
0000
,
1001
0000
0001
0000
,
1000
0000
0001
0000
,
1001
0000
1000
0000
,
1000
0000
1000
0000
,
0001
0000
0001
0000
,
0001
0000
0001
0000
,
0010
0000
0010
0000
,
0010
0000
0010
0000
,
0100
0000
0100
0000
,
0100
0000
0100
0000
,
1001
0000
0000
0000
;

//---------------dance-single - ----------------
#NOTES:
     dance-single:
     :
     Hard:
     9:
     0.656,0.630,0.212,0.223,0.396: // measure 1
0000
0000
0000
0000
,  // measure 2
0000
0000
0000
0000
,  // measure 3
0200
0000
0320
0000
2030
0000
0000
3001
,  // measure 4
0200
0000
0000
0310
0002
0000
0000
0000
,  // measure 5
0013
1000
0100
1100
,  // measure 6
0001
0000
0101
0000
0010
1000
0110
0000
,  // measure 7
0001
0100
0000
0010
1000
0000
0100
0010
0000
0001
0100
0000
0010
0000
1000
0000
,  // measure 8
0100
0010
0000
0001
1000
0000
0010
0100
0000
0001
1000
0000
0100
0000
0010
0000
,  // measure 9
0001
0100
0000
0010
1000
0000
0001
0100
0000
0010
1000
0000
0100
0000
0010
0000
,  // measure 10
0100
1000
0000
0001
0100
0000
0010
1000
0000
0001
0010
0000
0100
0000
1000
0000
,  // measure 11
0002
0000
0203
0000
0320
0000
0000
1030
,  // measure 12
0200
0000
0000
1300
0020
0000
0000
0000
,  // measure 13
0031
0010
0100
0110
,  // measure 14
0001
1001
0100
1100
,  // measure 15
1000
0000
0010
0000
0100
0000
0001
0100
0000
0010
0000
1000
0100
0000
1000
0000
,  // measure 16
0010
0000
0001
0000
0010
0000
1000
0100
0000
1000
0000
0001
0100
0010
0100
0000
,  // measure 17
0001
0000
0100
0000
0010
0000
1000
0100
0000
0010
0000
0001
0010
0000
0100
0000
,  // measure 18
0010
0000
0001
0000
0100
0000
0010
1000
0000
0100
0000
1000
0010
0100
0010
0000
,  // measure 19
1000
0000
0001
0000
1000
0000
0100
0010
0000
0001
0000
1000
0010
0000
0100
0000
,  // measure 20
0001
0000
1000
0000
0010
0000
0100
0001
0000
0100
0000
0010
1000
0100
1000
0000
,  // measure 21
0001
0000
0100
0000
0001
0000
1000
0100
0000
0010
0000
0001
1000
0000
0010
0000
,  // measure 22
0100
0000
0010
0000
1000
0000
0001
0100
0000
0010
0000
0100
0001
1000
0001
0000
,  // measure 23
2000
0000
3200
0000
0302
0000
0000
1003
,  // measure 24
0020
0000
0000
0031
0200
0000
0000
0000
,  // measure 25
0310
1000
0010
0000
0100
0001
0100
0000
,  // measure 26
0001
0100
1000
0100
0001
0100
1000
0000
,  // measure 27
0200
0000
0302
0000
0023
0000
0000
0130
,  // measure 28
2000
0000
0000
3001
0002
0000
0000
0003
,  // measure 29
1000
0100
1000
0000
0010
0100
0010
0000
,  // measure 30
1001
0000
0000
0000
0101
0000
0000
0000
1010
0000
0000
0100
0001
0000
1000
0000
,  // measure 31
0010
0100
0001
1000
0100
0010
0001
1000
,  // measure 32
0010
0001
1000
0100
0001
1000
0001
0100
,  // measure 33
0010
1000
0100
0010
0001
0100
0010
1000
,  // measure 34
0001
0100
1000
0001
0010
1000
0001
0000
,  // measure 35
0100
0010
1000
0100
1000
0001
0100
0001
,  // measure 36
0010
0100
1000
0001
0100
0010
1000
0001
,  // measure 37
1000
0010
0100
0001
1000
0100
1000
0010
,  // measure 38
0001
1000
0100
0001
1000
0100
1000
0000
,  // measure 39
0001
0010
0001
0000
0010
0100
0000
0000
0000
0100
1000
0000
0100
1000
0100
0000
,  // measure 40
1000
0010
1000
0000
0010
0100
0000
0000
0000
0100
0001
0000
0100
0001
0100
0000
,  // measure 41
0001
1000
0001
0000
1000
0010
0000
0000
0000
0010
0100
0000
0010
0100
0010
0000
,  // measure 42
0100
0001
0100
0000
0001
0010
0000
0000
0000
0010
0100
0000
0010
0100
0010
0000
,  // measure 43
0000
0000
0000
0001
0000
0000
1001
0000
0000
0000
0000
1000
0000
0000
1010
0000
,  // measure 44
0000
0000
0000
0010
0000
0000
0110
0000
0000
0000
0000
0100
0000
0000
0101
0000
,  // measure 45
0001
0000
0000
0010
0000
0000
0110
0000
0000
0000
0000
0100
0000
0000
1100
0000
,  // measure 46
0101
0000
0000
0000
1100
0000
0000
0000
0101
0000
0000
1000
0010
0100
0001
0100
,  // measure 47
0001
1000
0100
1000
0010
0100
0001
0100
,  // measure 48
1000
0100
0001
1000
0001
1000
0010
0100
,  // measure 49
0010
1000
0100
0001
0100
1000
0010
0100
,  // measure 50
0001
0000
1000
0000
0100
0000
0010
0000
0001
0000
0000
0010
1000
0000
0010
0000
,  // measure 51
0001
0100
0010
0100
0001
1000
0100
0001
,  // measure 52
0100
1000
0010
0100
0001
1000
0010
0100
,  // measure 53
0001
1000
0100
1000
0001
0100
0001
1000
,  // measure 54
0100
1000
0010
0100
0001
0100
0010
0110
;

//---------------dance-single - ----------------
#NOTES:
     dance-single:
     :
     Easy:
     4:
     0.350,0.359,0.223,0.290,0.000:
0000
0000
0000
0000
,
0000
0000
0000
0000
,
1000
0010
0200
0000
,
0302
0000
2000
0000
,
3003
0000
0000
0000
,
0100
0100
0100
0100
,
0010
1000
0100
2000
,
0000
3001
0100
0010
,
1000
0100
0010
0002
,
0000
1003
0010
0100
,
0001
1020
0000
0230
,
0000
0002
0000
0303
,
0010
1001
0100
1000
,
0001
1001
0010
0100
,
0110
1000
0001
0100
,
0110
0001
1000
0010
,
1001
0100
1000
0001
,
1001
0100
0001
1000
,
0101
1000
0010
0100
,
0101
0010
1000
0100
,
1010
0100
0001
1000
,
1010
0001
1000
0010
,
0100
0001
2000
0000
,
3020
0000
0200
0330
,
1001
0000
0000
0000
,
0010
0010
0010
0010
,
1000
0001
0200
0000
,
0320
0000
2000
3030
,
1001
0000
0000
0000
,
1000
0001
1000
0001
,
1000
0010
0100
0001
,
0010
0100
1000
0001
,
1000
0100
0010
0001
,
1000
0100
0010
0001
,
0100
0010
1000
0001
,
1000
0010
0100
0001
,
1000
0100
0010
0001
,
1000
0001
1000
0010
,
2001
0000
0010
3000
,
0210
0000
0001
0300
,
1002
0000
0100
0003
,
0120
0000
1000
0030
,
1000
0100
0001
0100
,
1000
0001
1000
0001
,
1000
0010
0001
0010
,
1001
1001
0110
0000
,
0200
0301
1000
0100
,
0020
0031
0100
0010
,
2000
3010
0100
0001
,
0200
0310
1000
0001
,
2000
3100
0010
0001
,
2000
3010
0100
0001
,
0200
0310
1000
0001
,
2000
3100
0010
0001
;

//---------------dance-single - ----------------
#NOTES:
     dance-single:
     :
     Medium:
     7:
     0.484,0.510,0.045,0.245,0.000:
0000
0000
0000
0000
,
0000
0000
0000
0000
,
1000
0000
0001
0000
0200
0000
0000
0310
,
2000
0000
0000
3100
0020
0000
0000
0000
,
0031
0100
1000
0010
,
0001
0010
1000
0100
,
0020
0000
1030
0000
0100
0010
0100
0000
,
0010
0001
0010
0000
0001
1000
0001
0000
,
0200
0000
0310
0000
1000
0001
1000
0000
,
0001
0100
0001
0000
0100
0010
0100
0000
,
0001
0000
0010
0000
0200
0000
0000
1300
,
0020
0000
0000
0130
0002
0000
0000
0000
,
1003
0000
0010
0100
0000
0001
0000
0100
,
0000
0010
0000
1000
0000
0100
1000
0000
,
0010
0100
0010
1000
0000
0001
0100
0001
,
0000
1000
0100
1000
0000
0010
0100
0001
,
1000
0000
0010
0100
0001
1000
0000
0100
,
0010
0001
0000
1000
0100
0010
0100
1000
,
0001
0000
0100
0010
0100
0001
0000
1000
,
0010
0100
0000
0001
1000
0100
0010
0001
,
1000
0000
0010
0100
0010
1000
0000
0001
,
0100
0010
0000
1000
0100
0010
0001
1000
,
0001
0000
0010
0000
0200
0000
0000
1300
,
0020
0000
0000
0130
0002
0000
0000
0000
,
0103
0010
0000
1000
0000
0100
0000
0001
,
0000
0100
0000
1000
0000
0001
0000
0010
,
0001
0000
1000
0000
0020
0000
0000
0130
,
0002
0000
0000
0013
0200
0000
0000
0000
,
0301
0010
0000
0100
0000
1000
0000
0010
,
0000
0100
0000
0010
0000
1000
0000
0001
,
1000
0100
1000
0000
0001
0100
0001
0000
,
1000
0010
1000
0000
0001
0010
0001
0000
,
1000
0100
0010
0001
0010
0100
1000
0000
,
0001
0100
0010
1000
0010
0100
0001
0000
,
1000
0001
1000
0000
0001
0100
0001
0000
,
0100
0010
0100
0000
0010
1000
0010
0000
,
1000
0010
0100
0001
0100
0010
1000
0000
,
0001
0100
0010
1000
0010
0100
0001
0000
,
2000
0000
3020
0000
,
0230
0000
0302
0000
,
0023
0000
0230
0000
,
2300
0000
3002
0000
,
1003
0010
0000
0100
0000
0101
0000
1000
,
0000
0010
0000
0100
0000
1100
0000
0001
,
0000
0100
0000
0001
0000
1010
0000
0100
,
0001
1000
0001
1000
1001
0000
0000
0000
,
1000
0100
1000
0100
1000
0001
1000
0001
,
0010
0001
0010
0001
0010
0100
0010
0100
,
1000
0100
1000
0100
1000
0010
1000
0010
,
0100
0010
0100
0010
0100
0001
0100
0000
,
0010
1000
0010
1000
0001
1000
0001
0100
,
0001
0100
0001
0100
0010
0100
0010
1000
,
0010
1000
0100
1000
0100
1000
0001
0100
,
0001
0100
0010
1000
0010
1000
0001
0100
;

//---------------dance-double - ----------------
#NOTES:
     dance-double:
     :
     Easy:
     4:
     0.255,0.269,0.000,0.089,0.000:
00000000
00000000
00000000
00000000
,
00000000
00000000
00000000
00000000
,
00001000
00010000
00001000
00000000
,
00100000
00010000
01000000
00000000
,
00100000
00000000
00000000
00000000
,
01000000
00000000
00000000
00000000
,
00010000
00100000
00001000
00010000
,
01000000
00100000
00010000
01000000
,
00100000
10000000
00010000
01000000
,
00001000
00000100
00000010
00001000
,
00000001
00000010
00000001
00001000
,
00000010
00010000
01000000
00100000
,
00010000
01000000
00100000
10000000
,
00010000
01000000
00001000
00000100
,
00000010
00001000
00000000
00000001
,
00000010
00000100
00001000
00000001
,
00000100
00000010
00000000
00001000
,
00000100
00010000
00001000
00100000
,
00001000
00010000
00000000
00000100
,
00000010
00000001
00000100
00000010
,
00001000
00000100
00000000
00010000
,
00001000
00100000
00010000
01000000
,
00200000
00000000
00000000
00000000
,
00000000
00000000
00000000
00000000
,
20300000
00000000
00000000
00000000
,
00000000
00000000
00000000
00000000
,
30020000
00000000
00000000
00000000
,
00000000
00000000
00000000
00000000
,
00230000
00000000
00000000
00000000
,
00301000
00010000
00000100
00000000
,
00000010
00000010
00000001
00000001
,
00000100
00000010
00001000
00000100
,
00010000
00000010
00001000
00000100
,
00010000
00001000
01000000
00100000
,
10000000
10000000
00010000
00010000
,
00100000
00001000
01000000
00010000
,
00100000
01000000
10000000
00010000
,
01000000
00001000
00010000
00000100
,
00002000
00000000
00000000
00000000
,
00003200
00000000
00000000
00000000
,
00020300
00000000
00000000
00000000
,
00032000
00000000
00000000
00000000
,
00103000
00000000
00010000
00000000
,
00100000
00000000
00001000
00000000
,
00010000
00000000
00000100
00000000
,
00000100
00000010
00000001
00000000
,
00000100
00000010
00001000
00000001
,
00000010
00000100
00001000
00000001
,
00001000
00000010
00000100
00000010
,
00001000
00000100
00010000
00001000
,
00100000
00010000
01000000
00100000
,
01000000
00010000
10000000
01000000
,
00100000
00010000
10000000
00100000
,
01000000
00001000
00010000
00000100
;

//---------------dance-double - ----------------
#NOTES:
     dance-double:
     :
     Medium:
     6:
     0.371,0.360,0.100,0.145,0.033:
00000000
00000000
00000000
00000000
,
00000000
00000000
00000000
00000000
,
00001000
00000000
00010000
00000000
00000200
00000000
00000000
00001000
,
00001000
00000000
00000000
00010000
00010000
00000000
00000300
00000000
,
00010000
00000000
00000010
00000000
,
00000100
00000000
00000001
00000000
,
00001000
00000010
00001000
00000000
00000001
00000000
00000010
00000000
,
00000001
00001000
00000100
00000000
00010000
00000000
00011000
00000000
,
00001000
00010000
00000100
00000000
00001000
00000000
00000010
00000000
,
00000100
00000001
00000010
00000000
00000100
00000000
00001001
00000000
,
00000010
00000000
00000001
00000000
00000200
00000000
00000000
00000010
,
00000010
00000000
00000000
00000001
00000001
00000000
00000300
00000000
,
00000010
00001000
00000100
00010000
,
00001000
00100000
00010000
01000000
,
00100000
10000000
00100000
00000000
10000000
00000000
01000000
00000000
,
00100000
00010000
00100000
00000000
00010000
00000000
01010000
00000000
,
01000000
00001000
01000000
00000000
00001000
00000000
00010000
00000000
,
00000100
00000010
00000100
00000000
00000010
00000000
00000011
00000000
,
00000001
00001000
00000100
00000000
00000010
00000000
00000001
00000000
,
00000100
00000010
00001000
00000000
00000100
00000000
00010100
00000000
,
00010000
00001000
00100000
00000000
00001000
00000000
00010000
00000000
,
00000100
00000010
00000001
00000000
00000100
00000000
00000101
00000000
,
00000002
00000000
00001000
00000000
,
00000203
00000000
00001000
00000000
,
00000320
00000000
00010000
00000000
,
00002030
00000000
00000000
00000000
00000001
00000000
00000000
00000100
,
00003200
00000000
00001000
00000000
,
00020300
00000000
01000000
00000000
,
00032000
00000000
01000000
00000000
,
00013000
00000100
00010000
00000100
,
00010000
00001000
00010000
00000000
00000100
00000000
00000010
00000000
,
00000001
00001000
00000001
00000000
00000100
00000000
00000010
00000000
,
00001000
00000100
00010000
00000000
00001000
00000000
00100000
00000000
,
00010000
01000000
00010000
00000000
10000000
00000000
01010000
00000000
,
10000000
00010000
10000000
00000000
00100000
00000000
01000000
00000000
,
00010000
00100000
00001000
00000000
00010000
00000000
00001000
00000000
,
00100000
00010000
01000000
00000000
00001000
00000000
00010000
00000000
,
00000100
00000010
00000001
00000000
00000100
00000000
00000010
00000000
,
00000200
00000010
00000000
00000310
,
00000020
00001000
00000000
00000130
,
00000002
00001000
00000000
00000013
,
00000200
00001000
00000000
00010300
,
00001000
00000000
00000000
00010000
00000000
00000000
00001000
00000000
00000000
00000000
00000000
01000000
00000000
00000000
00100000
00000000
,
00000000
00000000
00000000
10000000
00000000
00000000
00010000
00000000
00000000
00000000
00000000
00100000
00000000
00000000
01000000
00000000
,
10000000
00000000
00000000
00010000
00000000
00000000
01000000
00000000
00000000
00000000
00000000
00001000
00000000
00000000
00010000
00000000
,
00001000
00010000
00011000
00000000
,
00001000
00000000
00100000
00000000
00010000
01000000
00010000
10000000
,
01000000
00100000
00010000
01000000
,
00001000
00010000
00000100
00001000
,
00000010
00000100
00000001
00001100
,
00000010
00000000
00000001
00000000
00001000
00000100
00001000
00000010
,
00000100
00000001
00001000
00000100
,
00010000
00001000
01000000
00100000
,
10000000
00000000
00010000
00000000
00100000
00000000
00001000
00010000
;

//---------------dance-double - ----------------
#NOTES:
     dance-double:
     :
     Hard:
     9:
     0.657,0.720,0.267,0.111,0.457:
00000000
00000000
00000000
00000000
,
00000000
00000000
00000000
00000000
,
00100000
00000000
01000000
00000000
00020000
00000000
00000000
00130000
,
00002000
00000000
00000000
00013000
02000000
00000000
00000000
00000000
,
03100000
00000000
00000000
00010000
00000000
10000000
00100000
00000000
01000000
00000000
00000000
00100000
00000000
01000000
00010000
00000000
,
00100000
00000000
00000000
00010000
00000000
01000000
00001000
00000000
00010000
00000000
00000000
00000100
00000000
00001000
00000010
00000000
,
00000100
00000000
00001001
00000000
00000010
00000100
00010100
00000000
,
00001000
00000010
00000000
00000000
00000101
00000000
00000000
00000000
00000000
00001000
00000000
00000000
00000110
00000000
00000000
00000000
,
00000001
00000000
00001100
00000000
00000100
00010000
00011000
00000000
,
00001000
00100000
00000000
00000000
10010000
00000000
00000000
00000000
00000000
00100000
00000000
00000000
01010000
00000000
00000000
00000000
,
00100000
00000000
10000000
00000000
00020000
00000000
00000000
00130000
,
02000000
00000000
00000000
03100000
00002000
00000000
00000000
00000000
,
00013000
00000000
00001100
00000000
00001000
00000010
00000110
00000000
,
00000010
00001000
00000000
00000000
00010100
00000000
00000000
00000000
00000000
00010000
00000000
00000000
00101000
00000000
00000000
00000000
,
00010000
00000000
01000000
00000000
00100000
00000000
00000000
10000000
00000000
00010000
00000000
10000000
00100000
00000000
01000000
00000000
,
00010000
00000000
00100000
00000000
00001000
00000000
00000000
00010000
00000000
00000100
00000000
00010000
00001000
00000000
00011000
00000000
,
00010000
00000000
00000100
00000000
00001000
00000000
00000000
00000010
00000000
00000100
00000000
00000010
00001000
00000000
00000001
00000000
,
00000010
00000000
00000100
00000000
00001000
00000000
00000000
00000001
00000000
00001000
00000000
00000001
00000100
00000000
00000010
00000000
,
00000100
00000000
00000001
00000000
00001000
00000000
00000000
00000100
00000000
00000010
00000000
00000001
00001000
00000000
00000010
00000000
,
00010000
00000000
00001000
00000000
01000000
00000000
00000000
00010000
00000000
00100000
00000000
01000000
00100000
00000000
10010000
00000000
,
00010000
00000000
01000000
00000000
00001000
00000000
00000000
00010000
00000000
00001000
00000000
00100000
00010000
00000000
01000000
00000000
,
00001000
00000000
00010000
00000000
00000100
00000000
00000000
00000010
00000000
00000100
00000000
00001000
00000010
00000000
00000100
00000000
,
00000001
00000000
00000010
00000000
00000001
00000000
00001000
00000100
00000000
00001000
00000010
00000000
00000100
00000000
00000010
00000000
,
00001000
00000100
00001000
00000000
00000010
00000000
00001000
00000100
00000000
00010000
00001000
00000000
00100000
00000000
00010000
00000000
,
01000000
00000000
00100000
00000000
01000000
00000000
00010000
10000000
00000000
01000000
10000000
00000000
00100000
00000000
01000000
00000000
,
00010000
00100000
00010000
00000000
01000000
00000000
00100000
01000000
00000000
00010000
00100000
00000000
00001000
00000000
00010000
00000000
,
00010000
00000000
00001000
00000000
00100000
00000000
00010000
01000000
00000000
00100000
10000000
00000000
00010000
00000000
00100000
00000000
,
00010000
01000000
00010000
00000000
00100000
00000000
01000000
10000000
00000000
00010000
01000000
00000000
00001000
00000000
00010000
00000000
,
00001000
00000000
00000100
00000000
00000010
00000000
00001000
00000001
00000000
00000100
00000001
00000000
00001000
00000000
00000010
00000000
,
00000110
00001010
00001100
00010100
,
00010000
00000100
00001000
00000010
00000001
00001000
00000100
00000010
,
00001000
00000100
00010000
00001000
01000000
00100000
10000000
00010000
,
00100000
00001000
01000000
00010000
00100000
01000000
00010000
10000000
,
00010000
01000000
00100000
00010000
01000000
00001000
00010000
00000100
,
00001000
00000010
00001000
00000001
00000100
00000010
00001000
00000100
,
00000010
00000001
00001000
00000010
00010000
00000100
00001000
00000010
,
00000001
00001000
00000100
00000010
00010000
00001000
00000100
00000010
,
00010000
00001000
00100000
00010000
01000000
00100000
10000000
01000000
,
00100000
00000000
00010000
00000000
01000000
00000000
00000000
00000000
00000000
00010000
00100000
00010000
00100000
00010000
00100000
00000000
,
00000000
00001000
00000000
00010000
00000000
00000100
00000000
00000000
00000000
00001000
00000010
00001000
00000010
00001000
00000010
00000000
,
00001000
00000001
00001000
00000001
00001000
00000001
00000000
00000000
00000000
00000010
00000100
00000010
00000100
00000010
00000100
00000000
,
00000000
00001000
00000100
00001000
00000100
00001000
00000000
00000000
00000000
00000100
00010000
00000100
00010000
00000100
00010000
00000000
,
00001000
00000000
00000000
00100000
00000000
00000000
00020000
00000000
00000000
00000000
00000000
01000000
00030000
00000000
00200000
00000000
,
00000000
00000000
00000000
10000000
00300000
00000000
00020000
00000000
00000000
00000000
00000000
01000000
00030000
00000000
00001000
00000000
,
00011000
00000000
00000000
00000100
00000000
00000000
00002000
00000000
00000000
00000000
00000000
00000010
00003000
00000000
00000100
00000000
,
00000101
00001001
00001100
00000000
,
00000010
00000001
00000100
00000010
00001000
00000100
00001000
00000100
,
00010000
00001000
01000000
00100000
10000000
00010000
10000000
00010000
,
00100000
00010000
01000000
00001000
00010000
01000000
00010000
01000000
,
10000000
00100000
01000000
00010000
00100000
00001000
00011000
00000000
,
00010000
00000100
00000010
00000001
00001000
00000010
00001000
00000010
,
00000100
00000001
00001000
00000010
00010000
00001000
00010000
00001000
,
00100000
00010000
01000000
00100000
00010000
00001000
00010000
00001000
,
00000100
00000010
00001000
00000100
00010000
00001000
00100000
11000000
;
