#TITLE:III;
#SUBTITLE:;
#ARTIST:Lv.4;
#TITLETRANSLIT:3;
#SUBTITLETRANSLIT:;
#ARTISTTRANSLIT:;
#GENRE:;
#CREDIT:;
#MENUCOLOR:;
#METERTYPE:DDR;
#BANNER:III-bn.png;
#BACKGROUND:III-bg.png;
#LYRICSPATH:;
#CDTITLE:ddrencorecdtitle.png;
#MUSIC:III.mp3;
#OFFSET:-0.024;
#SAMPLESTART:66.647;
#SAMPLELENGTH:10.626;
#SELECTABLE:YES;
#LISTSORT:;
#BPMS:0.000=180.000;
#STOPS:;
#BGCHANGES:;
#ATTACKS:;

//---------------dance-single - ----------------
#NOTES:
     dance-single:
     :
     Beginner:
     2:
     0.165,0.322,0.129,0.069,0.000:
0000
0000
0000
0000
,
0000
0000
0000
0000
,
0000
0000
0000
0000
,
0000
0000
0000
0000
,
1000
0000
1000
0000
,
0100
0000
0100
0000
,
0010
0000
0010
0000
,
0001
0000
0001
0000
,
1000
0000
0000
0000
,
0001
0000
1000
0000
,
0001
0000
0000
0000
,
1000
0000
0001
0000
,
0010
0000
0000
0000
,
0100
0000
0010
0000
,
0100
0000
0000
0000
,
0010
0000
0001
0000
,
1000
0000
0000
0000
,
0001
0000
0000
0000
,
0010
0000
0000
0000
,
0001
0000
1000
0000
,
0100
0000
0000
0000
,
1000
0000
0000
0000
,
0100
0000
0000
0000
,
0010
0000
0100
0000
,
2002
0000
0000
0000
,
3003
0000
0000
0000
,
0000
0100
0000
0000
,
0000
0000
0000
0000
,
0000
0010
0000
0000
,
0000
0000
0000
0000
,
0000
1000
0000
0000
,
0000
0001
0000
0000
,
1001
0000
0000
0000
,
0000
0000
0000
0000
,
0110
0000
0000
0000
,
0000
0000
0000
0000
,
1001
0000
0000
0000
,
0000
0000
0000
0000
,
1001
0000
0000
0000
,
1001
0000
0000
0000
,
0001
0000
0000
0000
,
0010
0000
0000
0000
,
0100
0000
0000
0000
,
1000
0000
0000
0000
,
0110
0000
0000
0000
,
1001
0000
1001
0000
,
0010
0010
0010
0000
,
1000
0000
0001
0000
,
2002
0000
3003
0000
,
2002
0000
3003
0000
,
1000
1000
1000
0000
,
0001
0001
0001
0000
,
0100
0100
0100
0000
,
0010
0010
0010
0000
,
1000
1000
0100
0000
,
0010
0010
0001
0000
,
0001
0001
0100
0000
,
0100
0100
0010
0000
,
1001
0000
0000
0000
,
0010
0000
1000
0000
,
0100
0000
0000
0000
,
0010
0000
0001
0000
,
1000
0000
0000
0000
,
0010
0000
0100
0000
,
0001
0000
0000
0000
,
1000
0000
0001
0000
,
1000
0000
0100
0000
,
1000
0000
1000
0000
,
0001
0000
0100
0000
,
0001
0000
0001
0000
,
0010
0000
0001
0000
,
0010
0000
0010
0000
,
0100
0000
1000
0000
,
0100
0000
0100
0000
,
1001
0000
0000
0000
,
0000
0000
0000
0000
,
0100
0000
0000
0000
,
0000
0000
0000
0000
,
1001
0000
0000
0000
,
0000
0000
0000
0000
,
0010
0000
0000
0000
,
0000
0000
0000
0000
,
2002
0000
0000
0000
,
3003
0000
0000
0000
;

//---------------dance-single - ----------------
#NOTES:
     dance-single:
     :
     Easy:
     5:
     0.277,0.393,0.129,0.172,0.000:
0000
0000
0000
0000
,
0000
0000
0000
0000
,
0000
0000
0000
0000
,
0000
0000
0000
0000
,
0010
0000
1000
0000
,
0100
0000
0010
0000
,
0001
0000
1000
0000
,
0010
0000
1000
0001
,
2000
0000
0000
3000
,
0010
1000
0001
0100
,
0002
0000
0000
0003
,
0010
0001
1001
0101
,
0200
0000
0000
0300
,
0010
1000
0001
0100
,
0020
0000
0000
0030
,
0100
0001
0011
1001
,
1000
0000
0010
0000
,
0010
0000
1000
0001
,
0100
0000
0001
0000
,
1000
0010
0110
1001
,
1000
0000
0010
0000
,
0100
0000
0001
1000
,
0010
0000
0100
0000
,
0001
0010
0110
1001
,
0002
0000
0000
0000
,
0000
0000
0000
0000
,
0000
2003
0000
0000
,
0000
0000
0000
0000
,
0000
3020
0000
0000
,
0000
0000
0000
0000
,
0000
2030
0000
0000
,
0000
0002
0000
3003
,
1000
0100
0010
0200
,
0000
0000
0000
0300
,
0010
0001
1000
0020
,
0000
0000
0000
0030
,
1000
0001
0100
0002
,
0000
0000
0000
0003
,
0010
0001
1000
1000
,
0010
1000
0001
0001
,
1001
0000
0100
0000
,
0010
0000
1000
0000
,
0001
0000
0010
0000
,
0100
0000
0010
0000
,
1001
0000
0000
0000
0000
0000
0000
0100
,
0100
0000
1010
0000
,
1001
0001
0010
0100
,
0110
0010
0001
1000
,
2000
0000
0000
3000
,
0002
0000
0000
0003
,
0100
0001
0010
0010
,
0001
1000
0100
0100
,
1000
0010
1000
1000
,
0001
0010
0001
0001
,
0100
0010
1000
0001
,
0001
1000
0010
0100
,
0010
0100
0001
1000
,
1000
0001
0100
0010
,
1000
0000
0100
0000
,
1000
0000
0010
0100
,
0001
0000
0010
0000
,
0001
0000
0100
0010
,
1000
0000
0001
0000
,
1000
0000
0010
0100
,
0001
0000
1000
0000
,
0001
0000
0010
0001
,
2000
0000
0100
0000
,
3001
0000
0100
1000
,
0002
0000
0100
0000
,
1003
0000
0010
0001
,
2000
0010
0000
0100
,
3100
0000
1000
0000
,
0002
0010
0000
0100
,
0103
0000
1000
0010
,
1001
0000
0100
0000
,
0010
0000
1000
0000
,
0100
0000
0010
0000
,
0001
0000
1000
0001
,
1000
0000
0010
0000
,
0100
0000
0001
0000
,
1000
0000
0100
0000
,
0010
0000
0001
1000
,
2002
0000
0000
0000
,
3003
0000
0000
0000
;

//---------------dance-single - ----------------
#NOTES:
     dance-single:
     :
     Medium:
     7:
     0.415,0.536,0.241,0.138,0.000:
0000
0000
0000
0000
,
0000
0000
0000
0000
,
0000
0000
0000
0000
,
0000
0000
0000
0000
,
0001
0100
0001
0010
,
0001
0000
1000
0000
0001
0000
0100
0001
,
1000
0100
1000
0010
,
1000
0001
1010
1001
,
0001
0100
0000
0001
0000
0100
0000
0010
,
0000
1000
0000
0100
0000
0010
0000
0001
,
1000
0100
0000
1000
0000
0100
0000
0010
,
0000
0001
0000
0100
0101
0000
1001
0000
,
1000
0010
0000
1000
0000
0010
0000
0100
,
0000
0001
0000
0010
0000
0100
0000
1000
,
0001
0010
0000
0001
0000
0010
0000
0100
,
0000
1000
0000
0010
1001
0000
0000
0000
,
0002
0100
0000
0010
,
0000
0000
1000
0000
0000
0000
0103
0010
,
2000
0100
0000
0010
,
0000
3001
1100
1001
,
2000
0010
0000
0001
,
0000
0000
0100
0000
0000
0000
3010
0100
,
0002
0010
0000
1000
,
0000
0103
1001
0000
,
0200
0000
0000
0000
,
0000
0000
0000
0000
,
0000
0000
0020
0000
0000
0300
0000
0000
,
0000
0000
0000
0000
,
0000
0000
2000
0000
0000
0030
0000
0000
,
0000
0000
0000
0000
,
0000
0000
0002
0000
0000
3000
0000
0000
,
0000
2000
0000
3003
,
1000
0010
0100
0100
,
0002
0000
0000
0003
,
0001
0010
0100
0100
,
2000
0000
0000
3000
,
1000
0001
0100
0100
,
0020
0000
0000
0030
,
0100
0000
0010
0000
1000
0001
1000
0000
,
0100
0000
0010
0000
0001
1000
0001
0000
,
0100
0010
0000
1000
0000
0001
0000
0010
,
0000
0100
0000
1000
0000
0100
0000
0010
,
0000
0001
0000
0100
0000
0010
0000
0100
,
0000
0001
0000
1000
0000
0001
0000
0010
,
0011
0000
0000
0000
0000
0000
0000
0001
,
1000
0000
0110
0000
,
0101
0110
0101
1001
,
1000
0100
0010
0001
1001
0000
0000
0000
,
0200
0000
0000
0300
,
0020
0000
0000
0030
,
1000
0000
0100
0000
1000
0010
0100
0000
,
0001
0000
0010
0000
0001
0100
0010
0000
,
1000
0000
0100
0000
0001
0100
1000
0000
,
0001
0000
0100
0000
1000
0100
0001
0000
,
0010
0000
0001
0000
0100
0010
1000
0000
,
0100
0000
1000
0000
0010
0100
0001
0000
,
1000
0010
0100
0000
0100
0010
1000
0000
,
0001
0100
0010
0000
1010
0000
0101
0000
,
1000
0100
0010
0001
,
1000
0100
0010
0001
0010
0100
1000
0000
,
0001
0100
0010
1000
,
0001
0100
0010
1000
0010
0100
0001
0000
,
1000
0100
0001
0100
,
1000
0100
0001
0100
1000
0010
0100
0000
,
0001
0100
1000
0100
,
0001
0100
1000
0100
0001
0010
0100
0000
,
0011
0001
1000
0010
,
0110
0000
1000
0000
1001
0000
0010
0001
,
0100
0010
0100
0001
,
0101
0000
1000
0000
1100
0000
0001
0100
,
0010
1000
0001
0010
,
0011
0000
0100
0000
1100
0000
1000
0010
,
0100
0001
1000
0001
,
0010
0001
1000
0000
0010
1000
0001
0000
,
0100
0010
0100
0010
,
1000
0000
0100
0000
0010
0000
0100
1000
,
0001
0100
0010
1000
,
0001
0010
0011
1100
,
0010
0100
0001
1000
,
0010
0000
1000
0000
0010
0000
0100
0001
,
0010
0100
1000
0010
,
0100
0001
1001
0000
,
2002
0000
0000
0000
,
3003
0000
0000
0000
;

//---------------dance-single - ----------------
#NOTES:
     dance-single:
     :
     Hard:
     9:
     0.641,0.894,0.310,0.103,0.349:
0000
0000
0000
0000
,
0000
0000
0000
0000
,
0000
0000
0000
0000
,
0000
0000
0000
0000
,
0100
0001
0100
0001
,
0010
0000
0100
0000
1000
0000
0010
0001
,
0010
1000
0010
1000
,
0100
0000
0000
0000
0010
0000
0000
0000
0001
0100
0001
0000
1000
0000
0010
0000
,
1000
0100
0000
0010
0000
0001
0000
1100
,
0000
0101
0000
0011
0000
1010
0001
0100
,
0001
0010
0000
0100
0000
1000
0000
0011
,
0000
0000
1010
0000
0000
0000
1000
0000
0001
0100
0001
0000
1000
0100
1000
0000
,
0010
0100
0000
0001
0000
1000
0000
0110
,
0000
0101
0000
1100
0000
0110
1000
0001
,
0010
0100
0000
1000
0000
0001
0000
0110
,
0000
0000
1010
0000
0000
0000
0001
0000
1000
0100
1000
0100
1000
0000
0001
0000
,
0100
0000
1001
0000
0010
1000
0001
0000
,
0010
0001
0100
0000
1000
0100
0001
0000
,
1000
0100
0011
0000
0001
0100
1010
0000
,
0100
0000
0000
0000
1001
0000
0000
0000
0100
1000
0100
0000
1000
0001
1000
0000
,
0010
0000
1001
0000
0010
0001
1000
0000
,
0010
1000
0100
0000
0001
0100
1000
0000
,
0010
0100
0101
0000
0010
0100
1100
0000
,
0010
0000
0000
0000
1001
0000
0000
0000
0001
1000
0001
1000
0001
0000
1000
0000
,
0020
0000
0000
0000
,
0000
0000
0000
0000
,
0000
0000
0200
0000
0000
0030
0000
0000
,
0000
0000
0000
0000
,
0000
0000
0002
0000
0000
0300
0000
0000
,
0000
0000
0000
0000
,
0000
0000
2000
0000
0000
0003
0000
0000
,
0000
0002
0000
3003
,
1000
0000
0010
0000
0100
0000
0000
0001
0000
0000
1000
0000
0001
0000
0020
0000
,
0000
0000
0000
0000
0000
0000
0000
0030
,
0001
0000
0100
0000
0010
0000
0000
1000
0000
0000
0001
0000
1000
0000
0200
0000
,
0000
0000
0000
0000
0000
0000
0000
0300
,
1000
0000
0100
0000
0010
0000
0000
0001
0000
0000
0010
0000
0100
0000
2000
0000
,
0000
0000
0000
0000
0000
0000
0000
3000
,
0001
0000
0010
0000
0100
0000
0000
1000
0000
0000
0100
0000
0010
0000
0001
0000
,
1000
0000
0010
0000
0100
0000
0000
0001
0000
0000
0100
0000
0010
0000
1000
0000
,
0001
0000
0010
0000
1000
0000
0000
1010
0000
0000
1000
0000
0010
0000
0001
0000
,
1000
0000
0100
0000
0001
0000
0000
0101
0000
0000
0001
0000
0100
0000
1000
0000
,
0010
0000
0100
0000
1000
0000
0000
1100
0000
0000
1000
0000
0100
0000
0001
0000
,
0010
0000
0100
0000
0001
0000
0000
0101
0000
0000
0001
0000
0100
0000
1000
0000
,
0101
0000
0000
0000
0000
0000
0000
0000
0000
0000
0000
0000
0000
0000
0010
1000
,
0001
0000
0110
0000
,
0011
1010
0101
1100
,
0001
0000
0010
0000
0100
0000
1000
0000
0001
1000
0001
1000
0001
1000
0001
0000
,
0200
0000
0000
0300
,
0020
0000
0000
0030
,
0100
0001
0000
0001
0100
0000
0100
0010
0000
0010
1000
0000
0001
0000
0010
0000
,
0100
1000
0000
1000
0100
0000
0100
0010
0000
0010
0001
0000
1000
0000
0100
0000
,
1000
0010
0000
0010
0100
0000
0100
0010
0000
0010
1000
0000
0001
0000
0010
0000
,
0001
0100
0000
0100
0010
0000
0010
0100
0000
0100
0001
0000
1000
0001
1000
0000
,
0001
0010
0000
0001
0010
0000
0100
1000
0000
0100
1000
0000
0001
0000
0001
0000
,
1000
0010
0000
1000
0010
0000
0100
0001
0000
0100
0001
0000
1000
0000
1000
0000
,
0001
0100
0000
0001
1000
0000
0001
0010
0000
0001
0100
0000
0010
0000
0010
0000
,
1000
0010
1000
0010
1000
0010
1000
0000
0001
0100
0001
0100
0001
0100
0001
0000
,
1000
0000
0100
0000
0001
0000
0100
0000
0010
0000
1000
0000
0010
0100
0010
0000
,
0001
0000
0100
0000
1000
0000
0100
0000
0010
0000
1000
0000
0010
0100
0010
0000
,
0100
0000
0001
0000
0010
0000
1000
0000
0001
0000
0100
0000
0010
0001
0010
0000
,
0100
0000
1000
0000
0010
0000
0001
0000
1000
0000
0100
0000
0010
1000
0010
0000
,
1000
0000
0100
0000
0010
0000
0001
0000
0100
0000
1000
0000
0100
1000
0100
0000
,
0001
0000
0100
0000
0010
0000
1000
0000
0100
0000
0001
0000
0100
0001
0100
0000
,
1000
0000
0010
0000
0001
0000
0010
0000
1000
0000
0001
0000
0100
0010
0100
0000
,
0001
0000
0010
0000
1000
0000
0010
0000
0001
0000
1000
0000
0100
0010
0100
0000
,
1000
0000
0101
0000
0010
0001
1100
0000
,
0010
0100
0001
0010
1000
0010
0100
1000
,
0001
0000
1100
0000
0010
1000
0101
0000
,
0010
0100
1000
0010
0001
0010
0100
0001
,
1000
0100
1000
0000
0001
0100
0001
0000
1000
0000
0010
0000
0100
0010
0100
0000
,
0001
0100
0001
0000
1000
0100
1000
0000
0001
0000
0010
0000
0100
0010
0100
0000
,
1000
0001
0100
0000
0001
1000
0100
0000
0010
0000
0001
0000
1000
0010
1000
0000
,
0001
0010
0100
1000
0010
0000
0010
0000
1000
0100
0010
0001
0100
0000
0010
1000
,
0001
0010
0100
1000
,
0010
0000
0100
0000
0001
0000
1000
0010
,
0100
1000
0100
0001
,
0010
0000
0000
0000
0100
0000
0000
0000
1000
0100
1000
0000
0001
0100
0001
0000
,
1000
0010
0100
0001
,
0010
0000
0100
0000
1000
0000
0001
0100
,
0010
0001
0010
1000
,
0100
0010
0110
0000
,
2002
0000
0000
0000
,
3003
0000
0000
0000
;

//---------------dance-double - ----------------
#NOTES:
     dance-double:
     :
     Easy:
     5:
     0.267,0.393,0.138,0.112,0.000:
00000000
00000000
00000000
00000000
,
00000000
00000000
00000000
00000000
,
00000000
00000000
00000000
00000000
,
00000000
00000000
00000000
00000000
,
00000000
10000000
00000000
00010000
,
00000000
01000000
00000000
00010000
,
10000000
01000000
00000000
00100000
,
00000000
00001000
00000000
00010000
,
00000200
00000000
00000000
00000000
,
00001300
00000000
00000001
00000000
,
00002000
00000000
00000000
00000000
,
00003010
00000000
00011000
01001000
,
00020000
00000000
00000000
00000000
,
10030000
00000000
00010000
00000000
,
02000000
00000000
00000000
00000000
,
03010000
00000000
00011000
00000000
,
00010000
00000000
00000100
00000000
,
00000010
00000000
00000001
00000100
,
00000010
00000000
00010000
00000000
,
00001000
00000000
01000000
00010000
,
10000000
00000000
01000000
00000000
,
00100000
00000000
00001000
00010000
,
00000010
00000000
00000100
00000000
,
00000001
00000010
00000110
00001001
,
00000002
00000000
00000000
00000000
,
00000000
00000000
00000000
00000000
,
00000000
00000203
00000000
00000000
,
00000000
00000000
00000000
00000000
,
00000000
00000320
00000000
00000000
,
00000000
00000000
00000000
00000000
,
00000000
00002030
00000000
00000000
,
00000000
00000002
00000000
00003003
,
00000001
00000100
00000001
00000001
,
00000000
00000000
00000000
00000000
,
00100000
00010000
00100000
00100000
,
00000000
00000000
00000000
00000000
,
00000010
00000100
00000010
00000010
,
00000000
00000000
00000000
00000000
,
10000000
01000000
10000000
10000000
,
00010000
01000000
00010000
00010000
,
10000000
00000000
00010000
00000000
,
00100000
00000000
00001000
00000000
,
00010000
00000000
00000010
00000000
,
00000100
00000000
00000001
00000000
,
00001001
00000000
00000000
00000000
00000000
00000000
00000000
00000100
,
00000100
00000000
00011000
00000000
,
00001000
01000000
00010000
00100000
,
01000000
00100000
01000000
00000000
00100000
01000000
00100000
00000000
,
00020000
00000000
00000000
00030000
,
20000000
00000000
00000000
30000000
,
00010000
01000000
00001000
00001000
,
00010000
00000010
00000100
00000100
,
00000001
00001000
00000010
00000010
,
00010000
00001000
01000000
01000000
,
00010000
00100000
01000000
10000000
,
00010000
00100000
00001000
00010000
,
00000010
00001000
00000001
00000100
,
00000001
00000010
00000100
00001000
,
00000001
00000000
00000101
00000000
,
00000001
00000000
00001000
00000010
,
00010000
00000000
00011000
00000000
,
01000000
00000000
00010000
00100000
,
01000000
00000000
11000000
00000000
,
00010000
00000000
00100000
00001000
,
00010000
00000000
00011000
00000000
,
00000100
00000010
00000001
00000100
,
00000010
00000000
00000101
00000000
,
00000010
00001000
00000100
00000100
,
00010000
00000000
00001100
00000000
,
00010000
00001000
01000000
01000000
,
00100000
00000000
10010000
00000000
,
01000000
00001000
00010000
00010000
,
00000100
00000000
00011000
00000000
,
00000010
00000100
00000001
00001000
,
00000100
00000000
00010000
00000000
,
00001000
00000000
01000000
00000000
,
00100000
00000000
10000000
00000000
,
00010000
00000000
00100000
00001000
,
00010000
00000000
00000010
00000000
,
00000100
00000000
00000001
00000000
,
00001000
00000000
00000100
00000000
,
00010000
00000000
00000010
00010000
,
00022000
00000000
00000000
00000000
,
00033000
00000000
00000000
00000000
;

//---------------dance-double - ----------------
#NOTES:
     dance-double:
     :
     Medium:
     7:
     0.417,0.501,0.276,0.103,0.000:
00000000
00000000
00000000
00000000
,
00000000
00000000
00000000
00000000
,
00000000
00000000
00000000
00000000
,
00000000
00000000
00000000
00000000
,
00000010
00000100
00000010
00001000
,
00000010
00000000
00010000
00000000
00001000
00000000
00010000
00001000
,
00100000
01000000
00100000
00010000
,
00100000
00001000
00011000
00001000
,
00010000
00000010
00000000
00000100
00000000
00000010
00000000
00001000
,
00000000
00000100
00000000
00000010
00000000
00000100
00000000
00010000
,
00000000
00001000
00000000
00100000
00000000
01000000
00000000
00100000
,
00000000
00010000
00000000
01000000
01010000
00000000
01001000
00000000
,
00010000
00000100
00000000
00000010
00000000
00000100
00000000
00001000
,
00000000
00000010
00000000
00010000
00000000
00001000
00000000
00100000
,
00000000
00010000
00000000
01000000
00000000
00001000
00000000
00010000
,
00000000
00000100
00000000
00000010
00000110
00000000
00000000
00000000
,
00000010
00000000
00000100
00000000
00001000
00000010
00000100
00000000
,
00000010
00000000
00010000
00000000
00001000
00100000
00010000
00000000
,
01000000
00000000
00100000
00000000
01000000
00010000
00100000
00000000
,
00001000
00010000
00001100
00010100
,
00001000
00000000
00100000
00000000
00010000
01000000
00100000
00000000
,
01000000
00000000
00010000
00000000
00100000
00001000
00010000
00000000
,
00000010
00000000
00000100
00000000
00000010
00001000
00000100
00000000
,
00000010
00000100
00011000
00000000
,
00020000
00000000
00000000
00000000
,
00000000
00000000
00000000
00000000
,
00000000
00032000
00000000
00000000
,
00000000
00000000
00000000
00000000
,
00000000
02003000
00000000
00000000
,
00000000
00000000
00000000
00000000
,
00000000
03020000
00000000
00000000
,
00000000
00200000
00000000
00330000
,
01000000
00100000
00010000
00000000
,
02000000
00000000
00000000
03000000
,
00010000
00100000
00001000
00000000
,
00020000
00000000
00000000
00030000
,
00000010
00001000
00000100
00000000
,
00000020
00000000
00000000
00000030
,
00000100
00010000
00001000
00001000
,
01000000
00001000
00010000
00010000
,
00000010
00000100
00000000
00000010
00000000
00001000
00000000
00000010
,
00000000
00010000
00000000
00001000
00000000
00100000
00000000
00010000
,
00000000
01000000
00000000
00001000
00000000
00100000
00000000
00010000
,
00000000
00100000
00000000
01000000
00000000
00100000
00000000
00001000
,
00011000
00000000
00000000
00000000
00000000
00000000
00000000
00000100
,
00000010
00000000
00011000
00000000
,
01001000
01010000
01001000
00011000
,
00000010
00001000
00000010
00000000
00011000
00000000
00000000
00000000
,
02000000
00000000
00000000
03000000
,
00200000
00000000
00000000
00300000
,
01000000
00010000
01000000
00000000
00001000
00000000
00010000
00000000
,
00000100
00001000
00000100
00000000
00000010
00000000
00000100
00000000
,
00010000
00001000
00010000
00000000
00000010
00000000
00010000
00000000
,
00001000
00010000
00001000
00000000
01000000
00000000
00011000
00000000
,
00001000
00100000
00010000
00000000
01000000
00000000
00011000
00000000
,
00010000
00000010
00001000
00000000
00000100
00000000
00011000
00000000
,
01000000
00100000
00001000
00011000
,
00000100
00000010
00010000
00011000
,
00100000
01000000
00100000
01000000
,
00100000
00010000
00100000
00001000
00010000
00000010
00001000
00000000
,
00000010
00000100
00000010
00000100
,
00000010
00001000
00000010
00010000
00001000
00100000
00010000
00000000
,
01000000
00001000
01000000
00001000
,
00010000
00001000
00010000
00000100
00010000
00000010
00001000
00000000
,
00000100
00010000
00000100
00010000
,
00001000
00010000
00001000
00100000
00001000
01000000
00010000
00000000
,
00100000
00011000
00000100
00011000
,
00000010
00001000
00000100
00000000
00010000
00001000
01000000
00000000
,
00100000
00011000
00000010
00011000
,
01000000
00100000
00010000
01000000
00001000
00000000
00010000
00000000
,
00000010
00011000
01000000
00011000
,
00000100
00000010
00001000
00000000
00000010
00010000
00001000
00000000
,
00100000
00011000
00000010
00011000
,
01010000
00000000
00001100
00000000
,
00010000
00010000
00001000
00001000
,
01000000
00000000
00010000
00000000
00100000
00000000
00001000
00010000
,
00000100
00001000
00000010
00010000
,
00000100
00000010
00001100
00010100
,
00010000
00001000
01000000
00010000
,
00100000
00000000
00001000
00000000
00010000
00000000
00000010
00001000
,
00000100
00010000
00001000
01000000
,
00100000
00010000
00001000
00000000
,
00022000
00000000
00000000
00000000
,
00033000
00000000
00000000
00000000
;

//---------------dance-double - ----------------
#NOTES:
     dance-double:
     :
     Hard:
     10:
     0.665,0.965,0.267,0.103,0.409:
00000000
00000000
00000000
00000000
,
00000000
00000000
00000000
00000000
,
00000000
00000000
00000000
00000000
,
00000000
00000000
00000000
00000000
,
00010000
01000000
00010000
00001000
,
00000010
00000000
00001000
00000000
00010000
00000000
00100000
10000000
,
00100000
00010000
00001000
00000100
,
00001000
00000000
00000000
00000000
00010000
00000000
00000000
00000000
00000010
00001000
00000010
00000000
00000100
00000000
00000001
00000000
,
00000010
00000100
00000000
00010000
00000000
00001000
00000000
01010000
,
00000000
00001100
00000000
00110000
00000000
00001010
00000000
00000100
,
00000001
00001000
00000000
00000010
00000000
00010000
00000000
00001100
,
00000000
00000000
00110000
00000000
00000000
00000000
00001000
00000000
01000000
00010000
01000000
00000000
00100000
10000000
00100000
00000000
,
10000000
01000000
00000000
00100000
00000000
00001000
00000000
00110000
,
00000000
00001010
00000000
01010000
00000000
00001100
00000000
00010000
,
00001000
01000000
00000000
00001000
00000000
00010000
00000000
00001010
,
00000000
00000000
01010000
00000000
00000000
00000000
00001000
00000000
00010000
00001000
00010000
00001000
00010000
00000000
00000010
00000000
,
00000100
00000001
00000010
00000100
00000000
00001000
00000010
00010000
,
00001000
01000000
00010000
00100000
00000000
01000000
10000000
00010000
,
00100000
00001000
00010000
00000010
00000000
00000100
00000001
00001000
,
00000100
00000000
00010000
00000000
00001000
00000000
00100000
00000000
00001000
00010000
00000100
00000000
00010000
00001000
01000000
00000000
,
00010000
00100000
01000000
10000000
00000000
00100000
01000000
00010000
,
00100000
00001000
00010000
00000010
00000000
00001000
00000100
00000010
,
00000001
00001000
00000010
00010000
00000000
00001000
00100000
00010000
,
01000000
00000000
00001000
00000000
00010000
00000000
00010000
00000000
00001000
00010000
00001000
00100000
00001000
00000000
00010000
00000000
,
00000020
00000000
00000000
00000000
,
00000000
00000000
00000000
00000000
,
00000000
00000000
00000200
00000000
00000000
00000030
00000000
00000000
,
00000000
00000000
00000000
00000000
,
00000000
00000000
00000002
00000000
00000000
00000300
00000000
00000000
,
00000000
00000000
00000000
00000000
,
00000000
00000000
00002000
00000000
00000000
00000003
00000000
00000000
,
00000000
00000200
00000000
00003300
,
00010000
00001000
00000000
00010000
00001000
00000000
00000000
01000000
00000000
00000000
00010000
00000000
00100000
00000000
02000000
00000000
,
00000000
00000000
00000000
00000000
00000000
00000000
00000000
03000000
,
10000000
00100000
00000000
10000000
00100000
00000000
00000000
01000000
00000000
00000000
00010000
00000000
00100000
00000000
00002000
00000000
,
00000000
00000000
00000000
00000000
00000000
00000000
00000000
00003000
,
00001000
00010000
00000000
00001000
00010000
00000000
00000000
00000010
00000000
00000000
00001000
00000000
00000100
00000000
00000020
00000000
,
00000000
00000000
00000000
00000000
00000000
00000000
00000000
00000030
,
00000001
00001000
00000000
00000001
00001000
00000000
00000000
00000010
00000000
00000000
00010000
00000000
00001000
00000000
00100000
00000000
,
00010000
10000000
00000000
00010000
10000000
00000000
00000000
01000000
00000000
00000000
00100000
00000000
00001000
00010000
00001000
00000000
,
01000000
00000000
00100000
00000000
10000000
00000000
00010000
01000000
00000000
01000000
00001000
00000000
00010000
00000010
00001000
00000000
,
00000010
00000000
00000100
00000000
00000001
00000000
00001000
00000100
00000000
00000100
00010000
00000000
00001000
01000000
00010000
00000000
,
00100000
00000000
01000000
00000000
10000000
00000000
10000000
00010000
00000000
00010000
00100000
00000000
00001000
00010000
00000010
00000000
,
00000010
00000000
00000100
00000000
00000001
00000000
00000001
00001000
00000000
00001000
00000010
00000000
00010000
00001000
01000000
00000000
,
00011000
00000000
00000000
00000000
00000000
00000000
00000000
00000000
00000000
00000000
00000000
00000000
00000000
00000000
00000001
00000010
,
00000001
00000000
00011000
00000000
,
11000000
00011000
00000101
00011000
,
00010000
00000000
00100000
00000000
01000000
00000000
10000000
00000000
00010000
10000000
00010000
10000000
00010000
10000000
00010000
00000000
,
02000000
00000000
00000000
03000000
,
00200000
00000000
00000000
00300000
,
10000000
01000000
00000000
01000000
00100000
00000000
00100000
00001000
00000000
00001000
00010000
00000000
00000010
00000000
00000010
00000000
,
00000100
00000001
00000000
00000001
00001000
00000000
00001000
00000010
00000000
00000010
00010000
00000000
00001000
00000000
00001000
00000000
,
00100000
00001000
00000000
00001000
00000010
00000000
00000010
00001000
00000000
00001000
00100000
00000000
00001000
00000000
00010000
00000000
,
00000010
00010000
00000000
00010000
00100000
00000000
00100000
00010000
00000000
00010000
00000010
00000000
00000100
00000010
00000100
00000000
,
00000001
00000010
00000000
00000010
00000100
00000000
00000100
00010000
00000000
00010000
00001000
00000000
01000000
00000000
01000000
00000000
,
00100000
10000000
00000000
10000000
00010000
00000000
00010000
01000000
00000000
01000000
00001000
00000000
00010000
00000000
00010000
00000000
,
00000010
00010000
00000000
00010000
00100000
00000000
00100000
00010000
00000000
00010000
00000010
00000000
00010000
00000000
00001000
00000000
,
00100000
00001000
00100000
00001000
00100000
00001000
00100000
00001000
00010000
00000100
00010000
00000100
00010000
00000100
00010000
00000100
,
00001000
00000000
00000001
00000000
00000100
00000000
00001000
00000000
00010000
00000000
00100000
00000000
10000000
00100000
10000000
00000000
,
00010000
00000000
10000000
00000000
01000000
00000000
00010000
00000000
00001000
00000000
00000010
00000000
00000001
00000010
00000001
00000000
,
00001000
00000000
00000010
00000000
00010000
00000000
00000100
00000000
00010000
00000000
01000000
00000000
00100000
00010000
00100000
00000000
,
00010000
00000000
01000000
00000000
00001000
00000000
00100000
00000000
00001000
00000000
00000100
00000000
00000010
00001000
00000010
00000000
,
00000100
00000000
00000001
00000000
00000010
00000000
00001000
00000000
00000010
00000000
00000100
00000000
00010000
00001000
00010000
00000000
,
01000000
00000000
10000000
00000000
00100000
00000000
00010000
00000000
00100000
00000000
01000000
00000000
00001000
00010000
00001000
00000000
,
00000010
00000000
00000001
00000000
00000100
00000000
00001000
00000000
00010000
00000000
00001000
00000000
00010000
00100000
00010000
00000000
,
00100000
00000000
10000000
00000000
01000000
00000000
00010000
00000000
00001000
00000000
00010000
00000000
00001000
00000010
00001000
00000000
,
00000010
00000000
00000011
00000000
00000100
00001000
00001010
00000000
,
00010000
00001000
01000000
00100000
00010000
00100000
10100000
00000000
,
00010000
00000000
11000000
00000000
00100000
00010000
01010000
00000000
,
00001000
00010000
00000010
00000100
00001000
00000100
00000101
00000000
,
00000001
00000000
00000100
00000000
00001000
00000000
00000100
00000000
00001000
00000000
00010000
00000000
00100000
10000000
00100000
00000000
,
10000000
00000000
01000000
00000000
00010000
00000000
01000000
00000000
00010000
00000000
00001000
00000000
00000010
00000001
00000010
00000000
,
00000100
00001000
00000100
00010000
00001000
00100000
00001000
01000000
,
00010000
00100000
01000000
10000000
00010000
00000000
00010000
00000000
10000000
00100000
01000000
00010000
10000000
00000000
01000000
00100000
,
00010000
00100000
00001000
00010100
,
00001000
00000000
00000010
00000000
00001001
00000000
00000010
00010000
,
00001000
00100000
01000000
10010000
,
00100000
00000000
00000000
00000000
00001000
00000000
00000000
00000000
00100000
00010000
00100000
00000000
01000000
10000000
01000000
00000000
,
00100000
00001000
00010000
00001100
,
00000010
00000000
00000001
00000000
00001001
00000000
00000010
00010000
,
00001000
01000000
00010000
00101000
,
00010000
00000010
00000100
00000000
00000001
00001000
00000100
00000000
,
00022000
00000000
00000000
00000000
,
00033000
00000000
00000000
00000000
;
