#TITLE:I Want It;
#SUBTITLE:(7th Heaven Mix);
#ARTIST:Chanelle Hayes;
#TITLETRANSLIT:;
#SUBTITLETRANSLIT:;
#ARTISTTRANSLIT:;
#GENRE:;
#CREDIT:;
#MENUCOLOR:;
#METERTYPE:DDR;
#BANNER:I Want It (7th Heaven Mix)-bn.png;
#BACKGROUND:I Want It (7th Heaven Mix)-bg.png;
#LYRICSPATH:I Want It (7th Heaven Mix).lrc;
#CDTITLE:ddrencorecdtitle.png;
#MUSIC:I Want It (7th Heaven Mix).mp3;
#OFFSET:-0.036;
#SAMPLESTART:45.000;
#SAMPLELENGTH:15.000;
#SELECTABLE:YES;
#LISTSORT:;
#BPMS:0.000=127.999;
#STOPS:;
#BGCHANGES:;
#ATTACKS:;

//---------------dance-single - ----------------
#NOTES:
     dance-single:
     :
     Beginner:
     1:
     0.114,0.152,0.018,0.000,0.000:
0000
0000
0000
0000
,
0000
0000
0000
0000
,
0000
0000
0000
0000
,
0000
0000
0000
0000
,
1000
0000
0000
0000
,
0001
0000
0000
0000
,
0010
0000
0000
0000
,
0001
0000
1000
0000
,
0010
0000
0000
0000
,
0010
0000
0100
0000
,
0010
0000
0000
0000
,
0010
0000
1000
0000
,
0010
0000
0000
0000
,
0010
0000
0001
0000
,
0010
0000
0000
0000
,
1001
0000
0000
0000
,
1000
0000
0001
0000
,
0100
0000
0010
0000
,
1000
0000
0001
0000
,
1000
0000
0100
0000
,
0100
0000
0010
0000
,
0001
0000
1000
0000
,
0010
0000
0100
0000
,
0001
0000
0000
0000
,
1000
0000
0001
0000
,
0100
0000
0010
0000
,
1000
0000
0000
0000
,
0001
0000
0000
0000
,
1000
0000
0100
0000
,
0010
0000
0001
0000
,
1000
0000
0000
0000
,
0001
0000
1000
0000
,
0100
0000
1000
1000
,
0000
0001
0001
0000
,
0100
0000
0010
0010
,
0000
0100
0100
0000
,
0010
0000
1000
1000
,
0000
0001
0001
0000
,
0100
0000
0010
0000
,
1000
0000
0001
0000
,
1000
0000
0000
0000
,
0100
0000
0000
0000
,
1000
0000
0000
0000
,
0010
0000
0000
0000
,
0010
0000
0100
0000
,
0010
0000
0000
0000
,
0010
0000
0001
0000
,
0010
0000
0000
0000
,
0010
0000
0010
0000
,
0010
0000
0000
0000
,
0100
0000
0100
0000
,
0100
0000
0000
0000
,
0001
0000
0001
0000
,
0001
0000
0000
0000
,
1000
0000
1000
0000
,
1000
0000
0000
0000
,
1001
0000
0000
0000
;

//---------------dance-single - ----------------
#NOTES:
     dance-single:
     :
     Easy:
     4:
     0.242,0.258,0.045,0.226,0.000:
0000
0000
0000
0000
,
0000
0000
0000
0000
,
0000
0000
0000
0000
,
0000
0000
0000
0000
,
1000
0000
0100
0000
,
1000
0000
0001
0000
,
0100
0000
0010
0000
,
2002
0000
0000
3003
,
0001
0100
0020
0000
,
1030
0001
0100
0010
,
1000
0100
0020
0000
,
0031
1000
0100
1001
,
0001
0100
0020
0000
,
1030
0010
0100
0001
,
1000
0001
0200
0000
,
0020
0000
0000
0330
,
0010
1000
0010
1000
,
0001
0100
0010
0010
,
1000
0010
0100
0001
,
0010
0100
1000
0001
,
1001
1000
0010
0100
,
0001
0010
0100
0100
,
0020
0000
0230
0000
,
1300
0100
0010
0001
,
2000
0000
3010
1000
,
0002
0000
0013
0001
,
0000
0100
0010
1000
,
0000
0010
0100
0001
,
2000
0000
3001
1000
,
0002
0000
1003
0001
,
1000
0010
0100
0001
,
1000
0000
0001
0000
,
2000
0000
3100
0010
,
0000
0010
0001
1000
,
0020
0100
0130
0001
,
0000
1000
0010
1000
,
0200
0010
1300
0001
,
0000
0100
0010
1000
,
0001
0001
1000
1000
,
0010
0100
0002
0000
,
1003
0000
0100
0000
,
1000
0100
0010
0001
,
0001
0000
0100
0000
,
0001
0010
0100
1000
,
1000
0010
0100
0000
,
0010
1000
0001
0100
,
0010
1000
0001
0000
,
2002
0000
0000
3003
,
1000
0010
1000
0010
,
0200
0000
0000
0300
,
0001
0100
0001
0100
,
0020
0000
0000
0030
,
1000
0100
1000
0100
,
0020
0000
0000
0030
,
0001
0010
0001
0010
,
0200
0000
0000
0300
,
2002
0000
0000
0000
,
3003
0000
0000
0000
;

//---------------dance-single - ----------------
#NOTES:
     dance-single:
     :
     Medium:
     6:
     0.307,0.335,0.045,0.172,0.000:
0000
0000
0000
0000
,
0000
0000
0000
0000
,
0000
0000
0000
0000
,
0000
0000
0000
0000
,
1000
0000
0001
0000
,
0100
0000
0001
0000
,
1000
0000
0010
0000
,
0100
0001
1000
0100
,
1000
0001
0000
0001
0200
0000
0001
0000
,
0301
1000
0000
1000
0200
0000
0000
0000
,
1300
0010
0000
0010
2000
0000
0100
0000
,
3100
0010
0000
0010
0002
0000
1000
0000
,
1003
0100
0000
0100
0020
0000
0001
0000
,
0031
1000
0000
1000
0020
0000
0000
0000
,
0130
0001
0000
0001
2000
0000
0001
0000
,
3001
0100
0020
0000
,
1030
0000
0010
0000
1000
0010
1000
0000
,
0001
0000
0100
0000
0010
0100
0010
0000
,
1000
0000
0100
0000
0010
0100
0010
0000
,
0001
0000
1000
0000
0010
1000
0010
0100
,
0100
0000
0001
0000
1000
0100
1000
0000
,
0010
0000
0100
0000
0001
1000
0001
0000
,
1000
0010
1000
0000
0001
0000
0100
0000
,
0020
0000
0000
0000
,
2030
0000
0000
0000
3100
0010
0001
0000
,
0200
0000
0000
0000
0310
1000
0001
0000
,
1000
0100
0010
1001
,
0010
0001
0100
0010
,
2000
0000
0000
0000
3001
0100
0010
0000
,
0020
0000
0000
0000
1030
0100
0010
0000
,
0001
0100
0010
1000
,
0002
0000
0000
1003
,
0100
0000
0010
0000
0100
1000
0100
0000
,
0010
0001
0000
0001
1000
0000
0010
0000
,
1000
0001
1000
0000
0001
1000
0001
0000
,
0100
0010
0000
0010
1000
0000
0001
0000
,
0100
0010
0100
0000
0001
0000
0010
0000
,
0001
0100
0000
0100
0001
0000
1000
0000
,
0010
1000
0010
0000
1000
0001
1000
0000
,
0001
0000
0100
0000
0010
1000
0001
0000
,
1000
0000
0100
0000
,
1000
0100
0001
0100
,
1000
0000
0010
0000
,
1000
0010
0001
0010
,
1000
0100
0000
0100
2000
0000
0001
0000
,
3001
0100
0000
0100
0020
0000
0000
0000
,
0130
0001
0000
0001
1000
0000
0010
0000
,
0200
0000
0000
0010
0000
0010
0300
0000
,
0010
1000
0010
1000
,
0001
0010
1100
0000
,
0010
0001
1000
0010
,
0100
0001
0110
0000
,
0010
0001
1000
0010
,
0100
0010
1001
0000
,
0010
1000
0100
0010
,
0001
1000
0010
0100
,
2002
0000
0000
0000
,
3003
0000
0000
0000
;

//---------------dance-single - ----------------
#NOTES:
     dance-single:
     :
     Hard:
     7:
     0.440,0.438,0.172,0.099,0.081: // measure 1
0000
0000
0000
0000
,  // measure 2
0000
0000
0000
0000
,  // measure 3
0000
0000
0000
0000
,  // measure 4
0000
0000
0000
0000
,  // measure 5
0001
0000
0010
0000
0001
1000
0100
0000
,  // measure 6
1000
0000
0001
0000
1000
0001
0010
0000
,  // measure 7
0001
0000
0100
0000
0010
1000
0001
0000
,  // measure 8
0010
0000
0000
0000
1001
0000
0000
0000
0100
0000
0000
0010
1000
0000
0001
0000
,  // measure 9
0100
0020
0000
0100
0130
0000
1001
0000
,  // measure 10
1000
0100
0000
0100
0010
0000
0001
0000
,  // measure 11
1000
0020
0000
1000
1030
0000
0101
0000
,  // measure 12
0001
0000
0010
0000
0000
0000
0010
0000
0100
0000
0000
0000
0100
1000
0100
0000
,  // measure 13
1000
0002
0000
1000
1003
0000
0110
0000
,  // measure 14
0010
1000
0000
1000
0001
0000
0010
0000
,  // measure 15
0001
0200
0000
0001
0301
0000
1010
0000
,  // measure 16
1000
0000
0001
0000
0100
0000
0000
0000
0001
1000
0000
0100
0000
1000
0001
0000
,  // measure 17
0100
0000
0010
1000
0010
0100
0001
0010
,  // measure 18
0100
1000
0100
0010
0001
1000
0010
0000
,  // measure 19
1000
0010
1000
0001
0100
0010
0100
0001
,  // measure 20
0010
0100
1000
0100
0010
0001
1000
0010
,  // measure 21
0010
0100
0001
1000
0100
0010
0100
1000
,  // measure 22
0001
0100
0010
0100
0001
1000
0010
0000
,  // measure 23
1000
0100
0010
0001
0100
0001
0010
0100
,  // measure 24
1000
0000
0000
0000
0001
0000
0000
0000
0100
0010
0000
0100
0010
0000
1000
0000
,  // measure 25
0001
0000
0010
0000
0001
0100
0010
1000
,  // measure 26
0100
0000
0010
0000
0100
1000
0001
0100
,  // measure 27
0010
0200
0000
0010
0310
0000
1001
0000
,  // measure 28
0000
1010
0000
0101
0000
0001
1000
0000
,  // measure 29
0100
0000
1000
0000
0010
0100
0001
0010
,  // measure 30
0100
0000
0010
0000
0001
1000
0100
0000
,  // measure 31
0010
0100
1000
0000
0010
0100
0001
0000
,  // measure 32
2000
0000
0000
0000
0000
0000
0000
0000
3001
0000
1000
0000
0001
0100
0001
0000
,  // measure 33
0010
0001
0100
0010
1000
0100
0010
0000
,  // measure 34
0100
1000
0010
0100
0001
1000
0100
0000
,  // measure 35
0010
0100
0010
0001
0100
0010
1000
0000
,  // measure 36
0001
0100
0001
0010
0100
1000
0010
0000
,  // measure 37
0100
0001
0100
0001
0100
0000
0010
0000
1000
0000
0001
0000
0010
0000
0000
0000
,  // measure 38
0100
0010
0001
0010
0100
1000
0010
0000
,  // measure 39
1000
0010
0100
0100
0001
0010
0100
0000
,  // measure 40
0010
0001
1000
0010
0200
0000
0000
0000
,  // measure 41
0310
0000
1000
0000
0010
0100
0001
0000
,  // measure 42
0010
0001
0000
1100
0000
0110
0000
0001
,  // measure 43
1000
0000
0010
0000
1000
0001
0100
0000
,  // measure 44
0010
1000
0000
0101
0000
0110
0000
0010
,  // measure 45
1000
0200
0000
0010
0310
0000
1001
0000
,  // measure 46
0010
0001
0000
1100
0000
0110
0000
0010
,  // measure 47
0001
0200
0000
0010
0310
0000
1001
0000
,  // measure 48
1000
0010
0000
0110
0000
1001
0000
0100
,  // measure 49
0010
1000
0001
0100
,  // measure 50
0010
0000
0000
1000
0000
0000
0100
0000
0001
0000
0100
0000
1000
0000
0000
0000
,  // measure 51
0010
0100
0001
0010
,  // measure 52
0100
0000
0000
1000
0000
0000
0010
0000
0001
0000
0010
0000
1000
0000
0000
0000
,  // measure 53
0100
0000
0000
0100
1000
0000
0000
0000
0001
0000
0000
0001
0100
0000
0000
0000
,  // measure 54
0010
0000
0000
1000
0000
0000
0001
0000
0100
0000
0001
0000
0010
0000
0000
0000
,  // measure 55
0001
0000
0000
0001
0100
0000
0000
0000
0010
0000
0000
0010
1000
0000
0000
0000
,  // measure 56
0100
0000
0000
1000
0000
0000
0010
0000
0100
0000
0010
0000
1000
0000
0000
0000
,  // measure 57
2002
0000
0000
0000
,  // measure 58
3003
0000
0000
0000
;

//---------------dance-double - ----------------
#NOTES:
     dance-double:
     :
     Easy:
     3:
     0.200,0.232,0.027,0.163,0.000:
00000000
00000000
00000000
00000000
,
00000000
00000000
00000000
00000000
,
00000000
00000000
00000000
00000000
,
00000000
00000000
00000000
00000000
,
00001000
00000000
00100000
00000000
,
00010000
00000000
00100000
00000000
,
00001000
00000000
00010000
00000000
,
00000100
00000000
00001000
00000001
,
00000200
00000000
00000320
00000000
,
00001030
00000001
00001000
00000000
,
00000200
00000000
00002300
00000000
,
00003010
00010000
00000100
00010000
,
00002000
00000000
00023000
00000000
,
00031000
00010000
00001000
00000000
,
00200000
00000000
00320000
00000000
,
10030000
00100000
20000000
00000000
,
30010000
01000000
00100000
00000000
,
10000000
00010000
01000000
00000000
,
00100000
01000000
00010000
00000000
,
00100000
00001000
00010000
00000000
,
00011000
00000000
00010000
00000000
,
00000100
00000000
00001000
00000010
,
00000100
00000000
00000010
00000000
,
00001000
00000001
00000100
00000010
,
00002000
00000000
00003100
00000000
,
00000200
00000000
00000310
00000000
,
00000100
00001000
00000100
00000000
,
00001000
00000001
00001000
00000000
,
00000200
00000000
00010300
00000000
,
00020000
00000000
00031000
00000000
,
00100000
00000000
00010000
00000000
,
20020000
00000000
00000000
30030000
,
10000000
00000000
01000000
01000000
,
00000000
00100000
00001000
00000000
,
00010000
00000000
00000100
00000100
,
00000000
00001000
00000010
00000000
,
00000100
00000001
00000100
00000100
,
00000000
00000010
00001000
00000000
,
00000010
00000100
00000010
00000100
,
00000001
00001000
00000100
00000000
,
00001000
00000000
00000100
00000000
,
00010000
00001000
00010000
00000000
,
00001000
00000000
01000000
00000000
,
00010000
10000000
00010000
00000000
,
10000000
00000000
01000000
00000000
,
00100000
00010000
00100000
00001000
,
00010000
00000000
00001000
00000000
,
00020000
00000000
00000000
00030000
,
00000010
00000000
00001000
00000000
,
00000010
00000000
00000100
00000000
,
00000001
00000000
00000100
00000000
,
00000010
00000000
00001000
00000000
,
00000100
00001000
00000100
00000000
,
00010000
00001000
00010000
00000000
,
00001000
01000000
00001000
00000000
,
01000000
00100000
10000000
00010000
,
20020000
00000000
00000000
00000000
,
30030000
00000000
00000000
00000000
;

//---------------dance-double - ----------------
#NOTES:
     dance-double:
     :
     Medium:
     6:
     0.336,0.335,0.018,0.145,0.000:
00000000
00000000
00000000
00000000
,
00000000
00000000
00000000
00000000
,
00000000
00000000
00000000
00000000
,
00000000
00000000
00000000
00000000
,
01000000
00010000
01000000
00010000
,
00100000
00001000
00100000
00001000
,
01000000
00100000
01000000
00100000
,
10000000
01000000
00100000
00001000
,
00010000
00002000
00000000
00010000
00020000
00000000
00033000
00000000
,
00010000
00000100
00000000
00000100
00001000
00000000
00000010
00000000
,
00000100
00000002
00000000
00001000
00002000
00000000
00003003
00000000
,
00001000
00000010
00000000
00000010
00001000
00000000
00001100
00000000
,
00000100
00020000
00000000
00001000
00002000
00000000
00033000
00000000
,
00001000
00100000
00000000
00100000
00010000
00000000
01000000
00000000
,
00100000
20000000
00000000
00010000
00020000
00000000
30030000
00000000
,
10000000
00010000
00000000
00010000
02000000
00000000
00000000
00000000
,
03100000
00000000
10000000
00100000
10000000
00000000
00100000
00000000
,
01000000
00000000
00010000
00100000
00001000
00100000
00010000
00000000
,
00100000
00000000
00001000
00010000
00001000
00000000
00010000
00000000
,
00000100
00000000
00001000
00000010
00000100
00000001
00001000
00000100
,
00000100
00000000
00001000
00000100
00001000
00000000
00000010
00000000
,
00000100
00000000
00000001
00000010
00000100
00001000
00000100
00000000
,
00010000
00001000
01000000
00100000
,
10000000
00000000
01000000
00000000
10000000
00100000
01000000
00100000
,
20000000
00010000
30010000
01000000
,
00002000
00010000
00013000
00001000
,
00100000
00000000
00010000
00000000
01000000
00010000
01000000
00000000
,
00010000
00000000
00100000
00000000
00001000
00010000
00001000
00000000
,
00020000
00000100
00030100
00010000
,
00000020
00001000
00001030
00000010
,
00000100
00000001
00001000
00000100
,
00000010
00000001
00000010
00000000
00000100
00001000
00000100
00000000
,
00000020
00000000
00000000
00000031
00000010
00000000
00000100
00000000
,
00000010
00000000
00000001
00000000
00001000
00000100
00000000
00000000
,
00001000
00000100
00001000
00000000
00000100
00001000
00000100
00000000
,
00010000
00000000
00001000
00000000
01000000
00010000
00000000
00000000
,
01000000
00100000
10000000
00100000
01000000
00000000
00010000
00000000
,
01000000
00000000
00010000
00000000
00100000
01000000
00000000
00000000
,
00100000
00010000
00100000
00000000
01000000
10000000
01000000
00000000
,
00100000
00000000
00001000
00000000
00010000
00001000
00010000
00000000
,
00000100
00001000
00000100
00001000
,
00000010
00000100
00000000
00000010
00000000
00001000
00000000
00001000
,
00000010
00000100
00000001
00000010
,
00000100
00001000
00000000
00000010
00000000
00001000
00000000
00000100
,
00001000
00000010
00010000
00001000
,
00010000
00001000
00000000
01000000
00000000
00010000
00000000
01000000
,
00001000
00100000
00010000
01000000
,
00100000
10000000
00000000
00010000
00000000
01000000
00000000
00000000
,
00100000
10000000
00100000
10000000
,
01000000
00100000
01000000
00100000
,
00010000
01000000
00010000
01000000
,
00001000
00010000
00000100
00000010
,
00000001
00001000
00000001
00000000
00001000
00000001
00001000
00000000
,
00000010
00010000
00001000
00100000
,
00010000
10000000
00010000
00000000
10000000
00010000
10000000
00000000
,
00100000
01000000
00001000
00010000
,
00022000
00000000
00000000
00000000
,
00033000
00000000
00000000
00000000
;

//---------------dance-double - ----------------
#NOTES:
     dance-double:
     :
     Hard:
     8:
     0.522,0.490,0.235,0.181,0.136:
00000000
00000000
00000000
00000000
,
00000000
00000000
00000000
00000000
,
00000000
00000000
00000000
00000000
,
00000000
00000000
00000000
00000000
,
00001000
00100000
01000000
00000000
00100000
00001000
00010000
00000000
,
00010000
00000010
00000100
00000000
00000010
00010000
00001000
00000000
,
00100000
01000000
10000000
00000000
01000000
00100000
00001000
00000000
,
00011000
00000000
00000000
00000000
00010100
00000000
00000000
00000000
00000110
00000000
00000000
00000100
00001000
00000000
00000001
00000000
,
00000100
00000020
00000000
00001030
00000002
00000000
00001003
00000000
,
00000010
00020000
00000000
00031000
00200000
00000000
00310000
00000000
,
10000000
00200000
00000000
01300000
00020000
00000000
00130000
00000000
,
00001000
00000000
00200000
00000000
00000000
00000000
00310000
00000000
02000000
00000000
00000000
00000000
03001000
00010000
00001000
00000000
,
00010000
00000200
00000000
00001300
00000020
00000000
00000130
00000000
,
00000001
00000020
00000000
00000130
00002000
00000000
00003010
00000000
,
00010000
00000200
00000000
00010300
00002000
00000000
01003000
00000000
,
00100000
00000000
10000000
00000000
00100000
00000000
01000000
00000000
00001000
00010000
00000000
00000100
00000000
00001000
00000010
00000000
,
00000100
00000000
00000000
00000010
00001000
00000000
00000010
00000000
00000100
00000000
00000001
00000000
00000010
00000000
00001000
00000000
,
00000010
00000100
00010000
00001000
01000000
00010000
00100000
00000000
,
00010000
10000000
10000000
00100000
01000000
00010000
00100000
10000000
,
00100000
00001000
00010000
00000010
00000100
00000001
00001000
00000101
,
00000101
00000100
00000010
00001000
00000100
00000010
00000001
00000010
,
00000100
00001000
00000010
00010000
00001000
01000000
00100000
00000000
,
10000000
01000000
00100000
00001000
00100000
00010000
01000000
00100000
,
10000000
00000000
00000000
10000000
00010000
00000000
00000000
01000000
00001000
00010000
00000000
00010000
00000100
00000000
00001000
00000000
,
00000020
00000000
00001000
00000000
00000031
00000010
00001000
00000100
,
00020000
00000000
00000010
00000000
00030100
00001000
00000010
00000100
,
00000000
00000110
00000000
00000010
00010000
00001000
00100000
00000000
,
00100000
00000000
00010000
00100000
00000000
00000000
00100000
01000000
00000000
00000000
01000000
10000000
01000000
00000000
00000000
00000000
,
00200000
00000000
00010000
00000000
10300000
00100000
00010000
01000000
,
00002000
00000000
00100000
00000000
01003000
00010000
00100000
00000000
,
01000000
00100000
00001000
00010000
00000000
00000010
00000100
00000000
,
00000100
00000000
00000001
00000000
00000000
00000000
00000100
00000000
00000010
00000000
00001000
00000000
00000001
00000100
00000010
00000000
,
00001000
00000100
00000001
00000100
00010000
00001000
01010000
00000000
,
00000000
00011000
00000000
00100000
01000000
10000000
00100000
01000000
,
00010000
00100000
10000000
00100000
00001000
00010000
00001100
00000000
,
00000000
00011000
00000000
00000010
00000100
00000001
00001000
00000010
,
00000100
00000001
00000100
00000001
00000100
00000000
00000010
00000000
00001000
00000000
00000100
00000000
00011000
00000000
00000000
00000000
,
00000000
00001100
00000000
00010000
00001000
01000000
00010000
01000000
,
00100000
10000000
01000000
00010000
00001000
00000010
00000011
00000000
,
00000001
00000000
00001000
00000100
00001000
00000000
00000010
00000000
00000100
00000001
00001000
00000000
00000100
00000000
00010000
00000000
,
00001000
01000000
00000000
00100000
01000000
00010000
10000000
01000000
,
00100000
00110000
00000000
00101000
00000000
00011000
00000000
00010000
,
00000100
00000010
00000000
00000001
00000100
00000010
00001000
00000100
,
00010000
00011000
00000000
00101000
00000000
00110000
00000000
00010000
,
01000000
00100000
00000000
10000000
01000000
00010000
00010000
01000000
,
00100000
00110000
00000000
00101000
00000000
00011000
00000000
00010000
,
00000010
00000100
00000000
00000001
00000100
00001000
00001000
00000100
,
00000010
00001010
00000000
00010010
00000000
00011000
00000000
00001000
,
00100000
00000000
00100000
00010000
00100000
00000000
00100000
00000000
00010000
00000000
00010000
01000000
00010000
00000000
00010000
00000000
,
10000000
00000000
00000000
00100000
00000000
00000000
00001000
00000000
00100000
00000000
00010000
00000000
00100000
00000000
10000000
00000000
,
01000000
00000000
01000000
10000000
01000000
00000000
01000000
00000000
00100000
00000000
00100000
00010000
00100000
00000000
00100000
00000000
,
00001000
00000000
00000000
00010000
00000000
00000000
00000010
00000000
00001000
00000000
00000001
00000000
00000010
00000000
00000010
00000000
,
00000001
00000000
00000001
00000010
00000001
00000000
00000001
00000000
00001000
00000000
00001000
00000010
00001000
00000000
00001000
00000000
,
00000001
00000000
00000000
00000100
00000000
00000000
00010000
00000000
00000100
00000000
00001000
00000000
00000100
00000000
00000010
00000000
,
00000100
00000000
00000100
00000001
00000100
00000000
00000100
00000000
00000010
00000000
00000010
00001000
00000010
00000000
00000010
00000000
,
00010000
00000000
00000000
00001000
00000000
00000000
01000000
00000000
00100000
00000000
10000000
00000000
00010000
00000000
00100000
00000000
,
22000000
00000000
00000000
00000000
,
33000000
00000000
00000000
00000000
;
