#TITLE:I Turn To You;
#SUBTITLE:(Hex Hector Radio Mix);
#ARTIST:Melanie C.;
#TITLETRANSLIT:;
#SUBTITLETRANSLIT:;
#ARTISTTRANSLIT:;
#GENRE:;
#CREDIT:;
#MENUCOLOR:;
#METERTYPE:DDR;
#BANNER:I Turn To You (Hex Hector Radio Mix)-bn.png;
#BACKGROUND:I Turn To You (Hex Hector Radio Mix)-bg.png;
#LYRICSPATH:I Turn To You (Hex Hector Radio Mix).lrc;
#CDTITLE:DDREncore2.png;
#MUSIC:I Turn To You (Hex Hector Radio Mix).mp3;
#OFFSET:-0.006;
#SAMPLESTART:40.000;
#SAMPLELENGTH:11.920;
#SELECTABLE:YES;
#LISTSORT:;
#BPMS:0.000=138.000;
#STOPS:;
#BGCHANGES:;
#ATTACKS:;

//---------------dance-single - ----------------
#NOTES:
     dance-single:
     :
     Beginner:
     1:
     0.086,0.140,0.018,0.026,0.000:
0000
0000
0000
0000
,
0000
0000
0000
0000
,
0000
0000
0000
0000
,
0000
0000
0000
0000
,
0010
0000
0010
0000
,
0000
0000
0000
0000
,
0010
0000
0010
0000
,
0000
0000
0000
0000
,
1000
0000
0000
0000
,
0010
0000
0000
0000
,
1000
0000
0000
0000
,
0000
0000
0000
0000
,
0001
0000
0000
0000
,
0010
0000
0000
0000
,
0001
0000
0000
0000
,
0000
0000
0000
0000
,
1000
0000
0000
0000
,
0001
0000
0000
0000
,
0100
0000
0000
0000
,
0000
0000
0000
0000
,
0001
0000
0000
0000
,
1000
0000
0000
0000
,
0010
0000
0000
0000
,
0000
0100
0100
0100
,
0100
0000
0000
0000
,
0001
0000
0000
0000
,
1000
0000
0000
0000
,
0000
0100
0100
0100
,
0100
0000
0000
0000
,
1000
0000
0000
0000
,
0001
0000
0000
0000
,
0000
0000
0010
0000
,
1001
0000
0000
0000
,
0001
0000
1000
0000
,
0010
0000
0000
0000
,
0000
0100
0100
0100
,
0100
0000
0000
0000
,
0000
0000
0000
0000
,
0100
0000
0000
0000
,
0000
0000
0000
0000
,
0002
0000
0003
0000
,
0100
0000
0000
0000
,
2000
0000
3000
0000
,
0010
0000
0000
0000
,
0100
0000
0000
0000
,
0001
0000
0000
0000
,
2000
0000
3000
0000
,
0000
0000
0000
0000
,
1000
0000
0100
0000
,
1000
0000
0000
0000
,
0001
0000
0100
0000
,
0001
0000
0000
0000
,
1000
0000
0000
0000
,
1000
0000
0000
0000
,
0001
0000
0000
0000
,
0001
0000
0000
0000
,
0100
0000
0100
0000
,
0000
0000
0000
0000
,
0100
0000
0100
0000
,
0000
0000
0000
0000
,
0010
0000
0010
0000
,
0000
0000
0000
0000
,
0010
0000
0010
0000
,
0000
0000
0000
0000
,
1001
0000
0000
0000
;

//---------------dance-single - ----------------
#NOTES:
     dance-single:
     :
     Easy:
     3:
     0.168,0.280,0.079,0.070,0.000:
0000
0000
0000
0000
,
0000
0000
0000
0000
,
0000
0000
0000
0000
,
0000
0000
0000
0000
,
0100
0000
0100
0000
,
0000
0000
0000
0000
,
0100
0000
0100
0000
,
0000
0000
0000
0000
,
0001
0000
0100
0000
,
0001
0000
1000
0000
,
0100
0000
0000
0000
,
0100
0000
0000
0000
,
1000
0000
0010
0000
,
1000
0000
0001
0000
,
0010
0000
0000
0000
,
0010
0000
0000
0000
,
0001
0000
0100
0001
,
1000
0000
0010
1000
,
0100
0000
0000
0000
,
0100
0000
0000
0000
,
1000
0000
0010
1000
,
0001
0000
0100
0001
,
0010
0000
0000
0000
,
0010
0100
1000
0010
,
0100
0000
0000
0100
,
0001
0010
0001
1000
,
0010
0000
0000
0000
,
0001
0010
0001
0100
,
0010
0000
0000
0010
,
1000
0100
1000
0001
,
0100
0000
0000
0000
,
0100
1000
0010
0100
,
0110
0000
0100
0000
,
0010
0001
0100
0010
,
0110
0000
0010
0000
,
0001
0010
0001
1000
,
0200
0000
0000
0300
,
0020
0000
0000
0030
,
0002
0000
0000
0003
,
2000
0000
0000
3000
,
1001
0000
0000
0000
,
1000
0010
0001
0000
,
0000
0000
0000
0000
,
0001
0100
1000
0000
,
0001
0000
0100
0000
,
0010
0000
1000
0000
,
2002
0000
0000
3003
,
0100
0100
0100
0100
,
1001
0000
0100
0010
,
0001
0100
1000
0000
,
0000
0000
0100
0010
,
1000
0100
0001
0100
,
2000
0000
3000
0000
,
0002
0000
0003
0000
,
1000
0000
1000
0000
,
0001
0000
0001
0000
,
0100
0000
0100
0000
,
0000
0000
0000
0000
,
0100
0000
0100
0000
,
0000
0000
0000
0000
,
0011
0000
0011
0000
,
0000
0000
0000
0000
,
1010
0000
1010
0000
,
0000
0100
0000
0100
;

//---------------dance-single - ----------------
#NOTES:
     dance-single:
     :
     Medium:
     4:
     0.226,0.336,0.175,0.114,0.000:
0000
0000
0000
0000
,
0000
0000
0000
0000
,
0000
0000
0000
0000
,
0000
0000
0000
0000
,
1000
0000
1000
0000
,
0000
0000
0000
0000
,
0001
0000
0001
0000
,
0000
0000
0000
0000
,
0010
0000
0001
0000
,
0100
0000
0010
0000
,
0010
0000
0000
1000
0000
0000
1000
0000
,
0001
0000
0000
0001
0000
0000
1000
0000
,
0100
0000
1000
0000
,
0010
0000
0100
0000
,
0100
0000
0000
0001
0000
0000
0001
0000
,
1000
0000
0000
1000
0000
0000
0001
0000
,
0010
0001
0000
1000
,
0000
0010
0000
0100
,
0001
0000
0000
0010
0000
0000
0001
0000
,
1000
0000
0000
0010
0000
0000
1000
0000
,
0100
1000
0000
0001
,
0000
0100
0000
0010
,
1000
0000
0000
0001
0000
0000
0010
0000
,
2002
0000
0000
3003
1001
0000
0110
0000
,
1000
0100
0001
0010
,
1000
0010
0001
0100
,
1000
0000
1000
0001
0000
0000
0100
0000
,
0010
0000
1000
0000
,
0001
0010
1000
0100
,
0001
0100
1000
0010
,
0001
0000
0001
1000
0000
0000
0010
0000
,
0100
0000
0001
0010
,
0011
0000
0000
0100
0000
0000
1000
0000
,
0001
0000
0100
0000
,
1010
0000
0000
0100
0000
0000
0001
0000
,
1000
0000
0010
0000
,
0200
0000
0000
0300
,
2002
0000
0000
3003
,
0011
0000
1100
0000
,
0010
0010
0010
0010
,
0100
0002
2000
0000
,
0000
0003
3000
0000
,
0100
2000
0002
0000
,
0000
3000
0003
0000
,
0001
1000
0000
0010
0000
1000
0000
0001
,
0000
0010
0000
0001
0000
0100
0000
0010
,
0000
0010
0000
0100
0000
0100
0000
0001
,
0010
0010
0010
0010
,
0001
0000
0100
0000
,
1000
0100
0010
0000
,
1000
0000
0100
0000
,
0001
0100
0010
0001
,
2002
0000
0000
3003
,
0220
0000
0000
0330
,
1010
0000
0101
0000
,
0010
0010
0010
0010
,
0011
0000
0011
0000
,
0000
0000
0000
0000
,
1010
0000
1010
0000
,
0000
0000
0100
0010
,
0110
0000
1001
0000
,
0000
0000
0000
0000
,
1001
0000
0110
0000
,
0000
0001
0000
1000
;

//---------------dance-single - ----------------
#NOTES:
     dance-single:
     :
     Hard:
     7:
     0.414,0.477,0.298,0.254,0.066: // measure 1
0000
0000
0000
0000
,  // measure 2
0000
0000
0000
0000
,  // measure 3
0000
0000
0000
0000
,  // measure 4
0000
0000
0000
0000
,  // measure 5
0100
0000
0001
0100
0000
0000
0100
0000
0010
0000
1000
0010
0000
0000
0020
0000
,  // measure 6
0000
0100
0030
1000
,  // measure 7
0100
0000
1000
0100
0000
0000
0100
0000
0010
0000
0001
0010
0000
0000
0020
0000
,  // measure 8
0000
0100
0030
0001
,  // measure 9
1001
0010
1000
0100
,  // measure 10
0010
0001
0100
0010
,  // measure 11
1000
0000
1000
0001
0000
0001
0100
0010
,  // measure 12
1000
0000
1000
0001
0000
1000
0100
0010
,  // measure 13
0001
0100
0001
0010
,  // measure 14
0100
1000
0010
0100
,  // measure 15
0001
0000
0001
1000
0000
1000
0010
0100
,  // measure 16
0001
0000
0001
1000
0000
0001
0010
0100
,  // measure 17
1000
1100
0001
0101
,  // measure 18
0010
1000
0010
0011
,  // measure 19
1000
0000
1000
0001
0000
0001
0010
0100
,  // measure 20
1000
0000
1000
0001
0000
1000
0010
0100
,  // measure 21
0001
0011
1000
1010
,  // measure 22
0100
0001
0100
1100
,  // measure 23
0001
0000
0001
1000
0000
1000
0001
0000
,  // measure 24
2002
0000
0000
3003
1001
0000
0110
0000
,  // measure 25
1000
0100
1000
0100
0001
0100
0001
0100
,  // measure 26
0001
0010
0001
0010
1000
0010
1000
0010
,  // measure 27
0100
0000
0001
0010
0000
0001
1000
0010
,  // measure 28
0100
0010
1001
0110
,  // measure 29
0001
0010
0001
0010
1000
0010
1000
0010
,  // measure 30
1000
0100
1000
0100
0001
0100
0001
0100
,  // measure 31
0010
0000
1000
0100
0000
1000
0001
0000
,  // measure 32
1000
0100
0010
0001
0000
0110
0000
1000
,  // measure 33
0200
0000
0300
1010
0000
0100
0010
0001
,  // measure 34
0200
0000
0300
0011
0000
0100
0010
0000
,  // measure 35
1100
0000
0000
0101
0000
1000
0001
0000
,  // measure 36
1001
0002
0203
2300
,  // measure 37
3020
0000
0000
0030
,  // measure 38
2002
0000
0000
3003
,  // measure 39
1010
0000
0101
0000
,  // measure 40
0010
0001
0100
0000
0010
1000
0100
0000
,  // measure 41
0020
0000
0032
0000
2000
0000
0003
0001
,  // measure 42
3000
1000
0001
0000
0011
0000
0000
0000
,  // measure 43
0020
0000
2030
0000
0002
0000
3000
1000
,  // measure 44
0003
0001
1000
0000
1010
0000
0000
0000
,  // measure 45
0010
0001
0000
0100
0000
1000
0000
0001
,  // measure 46
0000
0010
0000
1000
0000
0010
0000
0200
,  // measure 47
0000
0010
0000
0301
,  // measure 48
1010
1001
0100
0110
,  // measure 49
2000
0000
0000
0000
0000
0001
0000
0010
,  // measure 50
0000
0100
0000
0010
0000
0000
3000
0000
,  // measure 51
0002
0000
0000
0000
0100
0100
0000
1000
,  // measure 52
0000
0010
0000
1000
0000
0000
0103
0000
,  // measure 53
0220
0000
0000
0330
,  // measure 54
2002
0000
0000
3003
,  // measure 55
0011
0000
1100
0000
,  // measure 56
0110
1001
0010
1000
,  // measure 57
0001
0000
0010
0001
0000
0000
0001
0000
1000
0000
0010
1000
0000
0000
2000
0000
,  // measure 58
0000
0000
0001
0000
0000
0001
3000
0000
0000
0000
0000
0000
0000
0000
0000
0000
,  // measure 59
1000
0000
0100
1000
0000
0000
1000
0000
0001
0000
0100
0001
0000
0000
0002
0000
,  // measure 60
0000
0000
0000
0000
0000
0000
1003
0000
0000
0001
0000
0000
0110
0000
0000
0000
,  // measure 61
0010
0000
1000
0010
0000
0000
0010
0000
0100
0000
0001
0100
0000
0000
0200
0000
,  // measure 62
0000
0000
0010
0000
0000
0010
0300
0000
0000
0000
0000
0000
0000
0000
0000
0000
,  // measure 63
0100
0000
1000
0100
0000
0000
0100
0000
0010
0000
0001
0010
0000
0000
0020
0000
,  // measure 64
0000
0000
0100
0030
0000
0000
0100
0000
,  // measure 65
1001
0000
0000
0000
;

//---------------dance-double - ----------------
#NOTES:
     dance-double:
     :
     Easy:
     2:
     0.130,0.225,0.114,0.105,0.000:
00000000
00000000
00000000
00000000
,
00000000
00000000
00000000
00000000
,
00000000
00000000
00000000
00000000
,
00000000
00000000
00000000
00000000
,
00010000
00000000
00010000
00000000
,
00000000
00000000
00000000
00000000
,
00001000
00000000
00001000
00000000
,
00000000
00000000
00000000
00000000
,
10000000
00000000
10000000
00000000
,
00010000
00000000
00010000
00000000
,
00100000
00000000
00000000
00000000
,
00000000
00000000
00000000
00000000
,
00000001
00000000
00000001
00000000
,
00001000
00000000
00001000
00000000
,
00000010
00000000
00000000
00000000
,
00000000
00000000
00000000
00000000
,
00100000
00000000
00010000
00000000
,
01000000
00000000
00100000
00000000
,
01100000
00000000
00000000
00000000
,
00000000
00000000
00000000
00000000
,
00000100
00000000
00001000
00000000
,
00000010
00000000
00000100
00000000
,
00000110
00000000
00000000
00000000
,
00002000
00000000
00003200
00000000
,
00000302
00000000
00000003
00000000
,
00000010
00000000
00000100
00000000
,
00010000
00000000
00000000
00000000
,
00020000
00000000
00230000
00000000
,
20300000
00000000
30000000
00000000
,
01000000
00000000
00100000
00000000
,
00001000
00000000
00000000
00000000
,
00000000
00000000
00001000
00000000
,
00000010
00000000
00000000
00000000
,
00000000
00000000
00010000
00000000
,
00100000
00000000
00000000
00000000
,
10000000
00000000
00010000
00000000
,
02000000
00000000
00000000
03000000
,
00200000
00000000
00000000
00300000
,
00100000
00000000
00100000
00000000
,
20020000
00000000
00000000
30030000
,
10010000
00000000
00000000
00000000
,
00100000
00010000
01000000
00000000
,
00000000
00000000
00000000
00000000
,
00000100
00001000
00000010
00000000
,
00000000
00000000
00000100
00000000
,
00000001
00000000
00001000
00000000
,
00000010
00000000
00000000
00000000
,
00002002
00000000
00000000
00003003
,
00001001
00000000
00000000
00000000
,
00000001
00000100
00001000
00000000
,
00000000
00000000
00000000
00000000
,
10000000
01000000
00010000
00000000
,
00011000
00000000
00000000
00000000
,
10000000
00000000
00000000
00000000
,
00011000
00000000
00000000
00000000
,
00000001
00000000
00000000
00000000
,
00000100
00000000
00000100
00000000
,
00000000
00000000
00000000
00000000
,
00000100
00000000
00000100
00000000
,
00000000
00000000
00000000
00000000
,
00000011
00000000
00000011
00000000
,
00000000
00000000
00000000
00000000
,
10100000
00000000
10100000
00000000
,
00000000
00000000
00000000
00000000
,
00011000
00000000
00000000
00000000
;

//---------------dance-double - ----------------
#NOTES:
     dance-double:
     :
     Medium:
     5:
     0.252,0.308,0.202,0.070,0.000:
00000000
00000000
00000000
00000000
,
00000000
00000000
00000000
00000000
,
00000000
00000000
00000000
00000000
,
00000000
00000000
00000000
00000000
,
00001000
00000000
00001000
00000000
,
00000000
00000000
00000000
00000000
,
00000001
00000000
00000001
00000000
,
00000000
00000000
00000000
00000000
,
00000100
00000001
00000010
00000001
,
00001000
00000010
00000100
00000010
,
00010000
00001000
00100000
01000000
,
10000000
00000000
00010000
01000000
00000000
01000000
00100000
01000000
,
00100000
10000000
01000000
10000000
,
00010000
01000000
00100000
01000000
,
00001000
00010000
00000010
00000100
,
00000001
00000000
00001000
00000100
00000000
00000100
00000010
00000100
,
00000010
00000011
00000000
00001001
,
00000000
00001010
00000000
00000110
,
00000001
00000100
00001000
00010000
,
00100000
00000000
10000000
00100000
00000000
01000000
00100000
01000000
,
00100000
10100000
00000000
10010000
,
00000000
00110000
00000000
01100000
,
10000000
01000000
00010000
00001000
,
00011000
00000000
00001000
00000000
00010000
00000000
00100000
10000000
,
00000000
10100000
00000000
00100000
,
10000000
00010000
00100000
00001000
,
00000100
00000000
00000010
00001000
00000000
00000001
00000100
00000000
,
00000010
00000000
00010000
00000000
00001000
00000000
00000010
00000001
,
00000000
00000011
00000000
00000100
,
00000001
00001000
00000010
00010000
,
01000000
00000000
00100000
00010000
00000000
10000000
01000000
00000000
,
10000000
00010000
01000000
00001000
,
00000200
00000000
00000300
00000000
,
00000001
00001000
00000010
00010000
,
00200000
00000000
00300000
00000000
,
10000000
01000000
00100000
00010000
,
10010000
00000000
01000000
00000000
,
00011000
00000000
00000100
00000000
,
00001001
00000000
00000110
00000000
,
00011000
00000000
01000000
00100000
,
10010000
00000000
00000000
00000000
00000000
00000000
00000000
00100000
,
00000000
00100000
01000000
00000000
00002000
00000000
00000000
00000000
,
00003000
00000000
00000000
00000000
00000000
00000000
00000000
00000010
,
00000000
00000010
00000100
00000000
00020000
00000000
00000000
00000000
,
00030000
00000000
00000000
00000000
00001000
00010000
00000000
00000100
,
00000000
00010000
00000000
00001000
00000000
01000000
00000000
00022000
,
00000000
00000000
00000000
00033000
,
00000100
00000010
00001000
00000001
,
00000010
00000000
00000000
00000000
00000000
00000001
00000000
00001000
,
00000000
00000010
00000000
00010000
00000000
00000000
00000000
00000000
,
00011000
00000000
00000000
00000000
00001000
01000000
00000000
00010000
,
00000000
10000000
00000000
00100000
00000000
01000000
00010000
01000000
,
00000000
00001000
00000000
00020000
00000000
00000000
00000000
00000000
,
00000000
00000000
00000000
00030000
00000000
00000100
00001000
00000100
,
00000000
00010000
00000000
00002000
00000000
00000000
00000000
00000000
,
00000000
00000000
00000000
00003000
00000000
00000000
00000000
00000000
,
01000000
00000000
01000000
00000000
,
00000000
00000000
00000000
00000000
,
00000100
00000000
00000100
00000000
,
00000000
00000000
00000000
00000000
,
00001010
00000000
00000011
00000000
,
00000000
00000000
00000000
00000000
,
00110000
00000000
10100000
00000000
,
00000000
01000000
00000000
01000000
;

//---------------dance-double - ----------------
#NOTES:
     dance-double:
     :
     Hard:
     7:
     0.345,0.393,0.167,0.211,0.066:
00000000
00000000
00000000
00000000
,
00000000
00000000
00000000
00000000
,
00000000
00000000
00000000
00000000
,
00000000
00000000
00000000
00000000
,
00000100
00000000
00000000
00000100
00000000
00000000
00000100
00000000
00000010
00000000
00000000
00000010
00000000
00000000
00000010
00000000
,
00000000
00000000
00000000
00000000
,
00100000
00000000
00000000
00100000
00000000
00000000
00100000
00000000
01000000
00000000
00000000
01000000
00000000
00000000
01000000
00000000
,
00000000
00000000
00000000
00000000
,
10000000
01000000
10000000
00100000
,
00010000
00001000
00000100
00000001
,
00000010
00000000
00000100
00000001
00000000
00000100
00001000
00000100
,
00010000
00000000
00000010
00000100
00000000
00000100
00001000
00000100
,
00000001
00000010
00000001
00000100
,
00001000
00010000
00100000
10000000
,
01000000
00000000
00100000
10000000
00000000
00100000
00010000
00100000
,
00001000
00000000
01000000
00100000
00000000
00100000
00010000
00100000
,
10000000
01000000
00000000
10000000
,
00010000
00001000
00000000
00000001
,
00000100
00000000
00000010
00001000
00000000
00000100
00000010
00000100
,
00010000
00000000
00000010
00001000
00000000
00001000
00000010
00000100
,
00000001
00000010
00000000
00000001
,
00001000
00010000
00000000
10000000
,
01000000
00000000
00100000
00010000
00000000
00100000
00001000
00000000
,
00011000
00000000
00020000
00000000
00230000
00000000
00302000
00000020
,
00003000
00000000
00000030
00000000
00000000
00000000
00001000
00000010
,
00000100
00000001
00000000
00000010
00000000
00000100
00000000
00010000
,
00001000
00000000
00001000
00010000
00000000
00000000
00010000
00001000
,
00010000
00000000
00002000
00000000
00003200
00000000
00020300
02000000
,
00030000
00000000
03000000
00000000
00000000
00000000
00010000
10000000
,
01000000
00000000
00100000
00010000
00000000
01000000
00000000
00001000
,
00010000
00000000
00010000
00001000
00000000
00000000
00001000
00000000
,
00000010
00000001
00000100
00000010
00000000
00000001
00000000
00000100
,
00000010
00000000
00000000
00001000
00000000
00001000
00010000
00000000
,
00100000
10000000
01000000
00100000
00000000
10000000
00000000
01000000
,
00100000
00000000
00000000
00010000
00000000
00010000
00001000
00000000
,
00010000
00002000
00003020
00020030
,
00230000
00000000
00000000
00300000
,
20020000
00000000
00000000
30030000
,
10010000
00000000
00011000
00000000
,
00001001
00000000
00000110
00000000
00000001
00000010
00000001
00001000
,
00000010
00000200
00000002
00000000
,
00000000
00000000
00000000
00000300
,
00001003
00000020
00020000
00000000
,
00000000
00000000
00000000
00000030
,
00031000
00010000
00000000
01000000
00000000
00010000
00000000
00001000
,
00000000
00000100
00000000
00001000
00000000
00010000
00000000
00100000
,
00000000
10000000
00000000
00010000
00000000
00001000
00000000
00000001
,
00000100
00000000
00000001
00000000
00001000
00000010
00001000
00000001
,
00000200
00000000
00000000
00000000
00000300
00000010
00000000
00010000
,
00000000
00001000
00000000
00100000
00000000
00000000
00000000
00000000
,
00200000
00000000
00000000
00000000
00310000
01000000
00000000
00001000
,
00000000
00010000
00000000
00000100
00000000
00010000
00001000
00010000
,
00000000
01000000
00000000
10000000
00000000
00001000
00010000
00001000
,
00000000
00000100
00000000
00000001
00000000
00010000
00001000
00000000
,
00011000
00000000
01001000
00000000
,
10010000
01100000
00100000
10000000
,
01000000
00000000
00000000
01000000
00000000
00000000
01000000
00000000
00100000
00000000
00000000
00100000
00000000
00000000
00100000
00000000
,
00000000
00000000
00002000
00000000
00000000
00020000
00003000
00000000
00000000
00030000
00000000
00000000
00000000
00000000
00000000
00000000
,
00000010
00000000
00000000
00000010
00000000
00000000
00000010
00000000
00000100
00000000
00000000
00000100
00000000
00000000
00000100
00000000
,
00000000
00000000
00000000
00000000
00000000
00000000
00001000
00000000
00000000
00000001
00000000
00000000
00000100
00000000
00000000
00000000
,
00001001
00000000
00000000
00000110
00000000
00000000
00000000
00000000
00000110
00000000
00000000
00001001
00000000
00000000
00000000
00000000
,
00000000
00000000
00020000
00000000
00000000
00002000
00030000
00000000
00000000
00003000
00000000
00000000
00000000
00000000
00000000
00000000
,
10010000
00000000
00000000
01100000
00000000
00000000
00000000
00000000
01100000
00000000
00000000
10010000
00000000
00000000
00000000
00000000
,
00000000
00100000
00000000
00000010
,
00011000
00000000
00000000
00000000
;
