#TITLE:I Miss You;
#SUBTITLE:;
#ARTIST:D.H.T. ft. Edmee;
#TITLETRANSLIT:;
#SUBTITLETRANSLIT:;
#ARTISTTRANSLIT:;
#GENRE:I Miss You;
#CREDIT:;
#MENUCOLOR:;
#METERTYPE:DDR;
#BANNER:I Miss You-bn.png;
#BACKGROUND:I Miss You-bg.png;
#LYRICSPATH:;
#CDTITLE:DDREncore2.png;
#MUSIC:I Miss You.mp3;
#OFFSET:-0.105;
#SAMPLESTART:56.210;
#SAMPLELENGTH:14.183;
#SELECTABLE:YES;
#LISTSORT:;
#DISPLAYBPM:70.000:140.000;
#BPMS:0.000=140.030,64.000=146.000,68.021=140.030;
#STOPS:128.000=1.285
;
#BGCHANGES:;
#ATTACKS:;

//---------------dance-single - [Ness]----------------
#NOTES:
     dance-single:
     [Ness]:
     Hard:
     7:
     0.374,0.472,0.059,0.084,0.185: // measure 1
0000
0000
0000
0000
,  // measure 2
0000
0000
0000
0000
,  // measure 3
0000
0000
0000
0000
,  // measure 4
0000
0000
0000
0000
,  // measure 5
0000
0000
0000
0000
,  // measure 6
0000
0000
0000
0000
,  // measure 7
0000
0000
0000
0000
,  // measure 8
0000
0000
0000
0000
,  // measure 9
1001
1000
0100
1000
,  // measure 10
0001
0001
0100
0001
,  // measure 11
1000
0010
1000
1000
,  // measure 12
0001
0010
0100
1000
,  // measure 13
0001
0010
0001
0001
,  // measure 14
1000
0010
0100
0001
,  // measure 15
1000
0001
0100
0010
,  // measure 16
1000
0001
0100
0010
,  // measure 17
2002
0000
0000
3003
,  // measure 18
0000
0000
0000
0000
0010
0010
0000
1000
,  // measure 19
0000
0100
0000
0001
0000
0100
0000
2000
,  // measure 20
0000
0000
3000
0000
0001
0001
0000
0020
,  // measure 21
0000
0000
0000
0230
0000
0000
0000
0300
,  // measure 22
0000
0000
0000
0000
1000
1000
0000
0001
,  // measure 23
0000
0100
0000
1000
0000
0100
0000
0002
,  // measure 24
0000
0000
0000
0003
0010
0010
0000
0200
,  // measure 25
0000
0000
0000
0302
0000
0000
0000
0000
,  // measure 26
0003
0000
0000
0000
1000
0000
0010
0001
,  // measure 27
0000
1000
0000
0001
0000
0100
0000
0010
,  // measure 28
0000
1000
0000
0001
0000
1000
0000
0001
,  // measure 29
0000
1100
0000
0100
0000
0010
0001
1000
,  // measure 30
0000
0101
0000
0100
0000
0010
1000
0001
,  // measure 31
0000
0010
0000
0011
0000
0010
0000
0100
,  // measure 32
1000
0001
1000
0001
0100
0010
1000
0001
,  // measure 33
1000
0000
0000
0000
1001
0000
0001
1000
0000
0000
0010
0000
0000
0000
0100
0000
,  // measure 34
0000
0000
0001
0000
0000
0000
1000
0001
0000
0000
1000
0000
0000
0000
0010
0000
,  // measure 35
0100
0000
0001
0000
0000
0000
1000
0001
0000
0000
0010
0000
0000
0000
0100
0000
,  // measure 36
0000
0000
1000
0000
0000
0000
0001
0100
0000
0000
0010
0000
1000
0000
0000
0000
,  // measure 37
1000
0000
0100
0000
0010
0000
0001
0100
0000
0000
0001
0000
0000
0000
1000
0000
,  // measure 38
0000
0000
0010
0000
0000
0000
1000
0100
0000
0000
1000
0000
0000
0000
0001
0000
,  // measure 39
0010
0000
0100
0000
0000
0000
0010
0001
0000
0000
1000
0000
0000
0000
0001
0000
,  // measure 40
0000
0000
0100
0000
0000
0000
0010
1000
0000
0000
0001
0000
1000
0000
0000
0000
,  // measure 41
0010
0000
1000
0000
0001
0000
0010
0100
0000
0000
1000
0000
0000
0000
0001
0000
,  // measure 42
0000
0000
0100
0000
0000
0000
0010
0100
0000
0000
0001
0000
0000
0000
1000
0000
,  // measure 43
0001
0000
0010
0000
0000
0000
0100
1000
0000
0000
0010
0000
0000
0000
1000
0000
,  // measure 44
0000
0000
0001
0000
0000
0000
0010
0001
0000
0000
1000
0000
0010
0000
0100
0000
,  // measure 45
0010
0000
0100
0000
0001
0000
0010
0001
0000
0000
0010
0001
0000
0000
0010
0001
,  // measure 46
0000
0000
0010
0001
0000
0000
1000
0001
0000
0000
1000
0100
0000
0000
1000
0001
,  // measure 47
0000
0000
1000
0100
0000
0000
1000
0010
0000
0000
1000
0010
0000
0000
1000
0010
,  // measure 48
0000
0000
1000
0010
0000
0000
0001
1000
0000
0000
0001
0100
0000
0000
0001
1000
,  // measure 49
0000
0000
0001
0100
0002
0000
0000
0000
0010
0000
0000
0000
1000
0000
0000
0000
,  // measure 50
0100
2000
0000
0000
,  // measure 51
3003
1001
0010
1000
,  // measure 52
0100
1000
0001
0010
,  // measure 53
0100
1000
0010
0001
,  // measure 54
0100
0001
0010
0001
,  // measure 55
0100
0010
1000
0001
,  // measure 56
1000
0100
0010
0001
,  // measure 57
1000
0001
0100
1000
,  // measure 58
0100
0010
1000
0100
,  // measure 59
0010
0000
0000
0000
0001
0000
0010
0000
0100
0000
0010
0100
0000
0000
1000
0000
,  // measure 60
0100
0000
1000
0100
0000
0000
1000
0000
0001
0000
1000
0001
0000
0000
1000
0000
,  // measure 61
0010
0000
1000
0010
0000
0000
0100
0000
0001
0000
0100
0001
0000
0000
0010
0000
,  // measure 62
0001
0000
0010
0001
0000
0000
0010
0000
0100
0000
0010
0100
0000
0000
1000
0000
,  // measure 63
0001
0000
1000
0001
0000
0000
0100
0000
1000
0000
0100
0010
0000
0000
1000
0000
,  // measure 64
0010
0000
1000
0001
0000
0000
0010
0000
0001
0000
0010
0100
0000
0000
0001
0000
,  // measure 65
0100
0000
1000
0100
0000
0000
1000
0000
0001
0000
0100
0001
0000
0000
0001
0000
,  // measure 66
1000
0000
0010
1000
0000
0000
0010
0000
1000
0000
0001
0010
0000
0000
0100
0000
,  // measure 67
1000
0000
0001
1000
0001
0000
0000
0000
0000
0000
0000
0000
0000
0000
0000
0000
;

//---------------dance-single - [Ness]----------------
#NOTES:
     dance-single:
     [Ness]:
     Medium:
     5:
     0.253,0.333,0.092,0.059,0.000:
0000
0000
0000
0000
,
0000
0000
0000
0000
,
0000
0000
0000
0000
,
0000
0000
0000
0000
,
0000
0000
0000
0000
,
0000
0000
0000
0000
,
0000
0000
0000
0000
,
0000
0000
0000
0000
,
0010
1000
0100
0100
,
0010
0001
0100
0100
,
0010
1000
0001
0001
,
0010
0001
1000
1000
,
0200
0000
0000
0300
,
0010
0001
1000
0001
,
0200
0000
0000
0300
,
0010
1000
0001
1000
,
0020
0000
0000
0000
,
0030
0000
1000
0000
,
0100
0000
0001
0000
,
0100
0000
1000
0000
,
0020
0000
0000
0030
,
0010
0000
0000
0000
,
0010
0000
0001
0000
,
0100
0000
1000
0000
,
0200
0000
0000
0300
,
0100
0000
0000
0000
,
0100
0000
0001
0000
,
0010
0000
1000
0000
,
0100
0000
0001
0000
,
0010
0000
1000
0000
,
0001
0000
0010
0000
,
1000
0000
0100
0000
,
0001
1001
0010
0001
,
1000
0000
0010
0000
0100
0000
0001
1000
,
0100
0010
0001
1000
,
0010
0000
0100
0000
0001
0000
1000
0001
,
0100
0010
1000
0100
,
0010
0000
0001
0000
1000
0000
0001
1000
,
0010
0100
0001
0010
,
0100
0000
1000
0000
0010
0000
1000
0001
,
0010
0001
1000
0100
,
0001
0000
0100
0000
1000
0000
0001
1000
,
0001
1000
0001
0100
,
1000
0000
0100
0000
0001
0000
1000
0001
,
1000
0010
0100
0001
,
0010
0000
0100
0000
1000
0000
0010
1000
,
0100
0000
0010
0001
0100
0000
0010
1000
,
0100
0010
0100
0010
,
0100
2002
0000
0000
,
0000
0000
0000
0000
,
3003
0010
0001
1000
,
0001
0100
1000
0001
,
1000
0010
0001
1000
,
0001
0100
1000
0001
,
1000
0010
1000
0100
,
0001
0010
0001
0100
,
1000
0001
0100
1000
,
0100
0001
1000
0100
,
0001
0100
1001
0100
,
1000
0100
1001
0100
,
0001
0100
1001
0100
,
0010
0100
1001
0010
,
1000
0001
1001
0010
,
0001
0010
1001
0010
,
0001
1000
1001
0010
,
1000
0000
0010
0000
1001
0000
1000
0001
,
1000
1001
0000
0000
;

//---------------dance-single - [Ness]----------------
#NOTES:
     dance-single:
     [Ness]:
     Easy:
     3:
     0.151,0.222,0.034,0.109,0.000:
0000
0000
0000
0000
,
0000
0000
0000
0000
,
0000
0000
0000
0000
,
0000
0000
0000
0000
,
0000
0000
0000
0000
,
0000
0000
0000
0000
,
0000
0000
0000
0000
,
0000
0000
0000
0000
,
0010
1000
0010
0000
,
0001
0000
0010
0000
,
1000
0000
0100
0000
,
0010
0000
0001
0000
,
0100
0001
0100
0000
,
1000
0000
0100
0000
,
0001
0000
0010
0000
,
0100
0000
1000
0000
,
1002
0000
0000
0000
,
0000
0003
0000
0000
,
0020
0000
0000
0000
,
0000
0030
0000
0000
,
0200
0000
0000
0000
,
0000
0300
0000
0000
,
2000
0000
0000
0000
,
0000
3000
0000
0000
,
0020
0000
0000
0000
,
0000
0030
0000
0000
,
0200
0000
0000
0000
,
0000
0300
0000
0000
,
0002
0003
0001
0000
,
2000
3000
1000
0000
,
0020
0030
0010
0000
,
0200
0300
0100
0000
,
1001
0000
1000
0000
,
0010
0000
0001
0010
,
0001
0000
1000
0000
,
0001
0000
0100
1000
,
0100
0000
0001
0000
,
1000
0000
0010
1000
,
0010
0000
1000
0000
,
0001
0000
0010
0001
,
0010
0000
0100
0000
,
1000
0000
0001
1000
,
0001
0000
0100
0000
,
1000
0000
0001
1000
,
0001
0000
0010
0000
,
0010
0000
0100
0000
,
0100
0000
1000
0000
,
0000
0002
0000
0000
,
0003
0020
0000
0000
,
0000
0200
0000
0000
,
0330
1001
0010
0010
,
0000
1000
0000
0100
,
0000
0001
0010
0010
,
0000
0001
0000
0100
,
0000
1000
0100
0100
,
0000
0010
0000
0100
,
0000
0001
0100
0100
,
0000
0010
0000
0100
,
0000
1000
0010
0000
,
0010
0000
0010
0000
,
0010
0000
0001
0000
,
0010
0000
1000
0000
,
0001
0000
0100
0000
,
0100
0000
0100
0000
,
0100
0000
1000
0000
,
0100
0000
0001
0000
,
1000
1001
0000
0000
;

//---------------dance-single - [Ness]----------------
#NOTES:
     dance-single:
     [Ness]:
     Beginner:
     1:
     0.074,0.111,0.025,0.000,0.000:
0000
0000
0000
0000
,
0000
0000
0000
0000
,
0000
0000
0000
0000
,
0000
0000
0000
0000
,
0000
0000
0000
0000
,
0000
0000
0000
0000
,
0000
0000
0000
0000
,
0000
0000
0000
0000
,
0010
0000
0000
0000
,
0100
0000
0000
0000
,
0001
0000
0000
0000
,
1000
0000
0000
0000
,
0001
0000
0000
0000
,
0010
0000
0000
0000
,
0100
0000
0000
0000
,
1000
0000
0000
0000
,
1001
0000
0000
0000
,
0000
0000
0000
0000
,
0010
0000
0000
0000
,
0000
0000
0000
0000
,
0100
0000
0000
0000
,
0000
0000
0000
0000
,
0001
0000
0000
0000
,
0000
0000
0000
0000
,
1000
0000
0000
0000
,
0000
0000
0000
0000
,
0100
0000
0000
0000
,
0000
0000
0000
0000
,
0001
0000
0000
0000
,
0000
0000
0000
0000
,
0100
0000
0000
0000
,
0000
0000
0000
0000
,
1000
0000
0001
0000
,
0001
0000
0001
0000
,
0000
0000
1000
0000
,
1000
0000
1000
0000
,
0000
0000
0010
0000
,
0010
0000
0010
0000
,
0000
0000
0100
0000
,
0100
0000
0100
0000
,
0000
0000
0001
0000
,
1000
0000
0001
0000
,
0000
0000
1000
0000
,
0001
0000
1000
0000
,
0000
0000
0010
0000
,
0100
0000
0010
0000
,
0000
0000
1000
0000
,
0100
0000
1000
0000
,
0000
0010
0000
0000
,
0000
0000
0000
0000
,
0000
1001
0000
0000
,
0000
0001
0000
0000
,
0000
0100
0000
0000
,
0000
1000
0000
0000
,
0000
0001
0000
0000
,
0000
0010
0000
0000
,
0000
1000
0000
0000
,
0000
0001
0000
0000
,
0000
1000
0000
0000
,
0000
0100
0000
0000
,
0000
0010
0000
0000
,
0000
0001
0000
0000
,
0000
1000
0000
0000
,
0000
0010
0000
0000
,
0000
0100
0000
0000
,
0000
0001
0000
0000
,
0000
1001
0000
0000
;

//---------------dance-double - [Ness]----------------
#NOTES:
     dance-double:
     [Ness]:
     Hard:
     6:
     0.324,0.389,0.109,0.059,0.000:
00000000
00000000
00000000
00000000
,
00000000
00000000
00000000
00000000
,
00000000
00000000
00000000
00000000
,
00000000
00000000
00000000
00000000
,
00000000
00000000
00000000
00000000
,
00000000
00000000
00000000
00000000
,
00000000
00000000
00000000
00000000
,
00000000
00000000
00000000
00000000
,
00000110
00010000
00000100
00001000
,
00010000
00100000
01000000
10000000
,
00100000
01000000
00001000
00010000
,
00000010
00000001
00000100
00001000
,
00010000
00100000
01000000
10000000
,
00100000
00010000
00001000
00000100
,
00000001
00000010
00000100
00001000
,
00010000
00100000
10000000
01000000
,
00020000
00000000
00000000
00000000
,
00030000
00000000
00000000
00000000
00100000
00100000
00000000
00001000
,
00000000
00010000
00000000
00000010
00000000
00000100
00000000
00001000
,
00000000
00000000
00000000
00000000
00010000
00010000
00000000
00200000
,
00000000
00000000
00000000
02300000
00000000
00000000
00000000
00000000
,
00000000
00000000
03000000
00000000
00001000
00001000
00000000
00010000
,
00000000
00000010
00000000
00000001
00000000
00000100
00000000
00001000
,
00000000
00000000
00000000
00000000
00010000
00010000
00000000
00200000
,
00000000
00000000
00000000
20300000
00000000
00000000
00000000
00000000
,
00000000
00000000
30000000
00000000
00100000
00000000
00001000
00010000
,
00000000
00000010
00000000
00000001
00000000
00000100
00000000
00000010
,
00000000
00000000
00000000
00000000
00000100
00000001
00000000
00000010
,
00000000
00000100
00000000
00011000
00000000
00001000
01000000
00010000
,
00000000
10000000
00000000
00100000
00010000
00100000
00000000
10000000
,
00000000
00010000
00000000
01000000
00000000
00001000
00000000
00010000
,
00000100
00000010
00000100
00001000
00000001
00000100
00000001
00000010
,
00000001
00000000
00000110
00000010
00000000
00000100
00000000
00010000
,
00000000
00001000
01000000
00001000
00000000
01000000
00000000
00100000
,
00000000
10000000
00100000
10000000
00000000
01000000
00000000
00100000
,
00000000
00001000
00010000
00000100
00000000
00000010
00000001
00000100
,
00000000
00000001
00001000
00000100
00000000
00000010
00000000
00000001
,
00000000
00000100
00000010
00010000
00000000
00001000
00000000
01000000
,
00000000
00010000
00100000
01000000
00000000
10000000
00000000
00100000
,
00000000
10000000
00010000
01000000
00000000
00001000
00010000
00000100
,
00000000
00010000
00000010
00001000
00000000
00001100
00000000
00000100
,
00000000
00000010
00000001
00001000
00000000
00001001
00000000
00000001
,
00000000
00000100
00000010
00010000
00000000
00011000
00000000
00001000
,
00000000
01000000
00100000
10000000
00000000
00010000
10000000
01000000
,
00000000
00100000
00001000
00010000
00000000
00011000
00000000
01000000
,
00000000
00100000
10000000
01000000
00000000
01100000
00000000
00100000
,
00000000
00001000
00010000
00000100
00000000
00001100
00000000
00000100
,
00000000
00000100
00000010
00000001
00000100
00000001
00000010
00000001
,
00000100
00000001
00000020
00000000
00000100
00000000
00000100
00000000
,
00000100
00000200
00000000
00000000
,
00000030
00001300
00000100
00010000
,
00001000
01000000
00010000
10000000
,
00100000
00010000
00001000
00000100
,
00000001
00000010
00000100
00010000
,
00001000
01000000
00100000
10000000
,
01000000
00010000
00001000
00000100
,
00000001
00000010
00001000
00000100
,
00000010
00000001
00000100
00000010
,
00010000
00000000
00001000
00010000
00001000
00000000
01000000
00001000
,
01000000
00100000
01100000
01000000
,
01100000
00000000
00100000
10000000
00010000
00000000
10000000
00010000
,
10000000
00000000
01000000
00000000
00100000
00000000
00001000
00010000
,
00001000
00011000
00010000
00000100
,
00000010
00000000
00000001
00000000
00000100
00000000
00000001
00001000
,
00000100
00000010
00000100
00010000
,
00001000
00011000
01000000
00010000
,
00100000
01000000
00000000
00000000
;

//---------------dance-double - [Ness]----------------
#NOTES:
     dance-double:
     [Ness]:
     Medium:
     5:
     0.278,0.361,0.109,0.059,0.000:
00000000
00000000
00000000
00000000
,
00000000
00000000
00000000
00000000
,
00000000
00000000
00000000
00000000
,
00000000
00000000
00000000
00000000
,
00000000
00000000
00000000
00000000
,
00000000
00000000
00000000
00000000
,
00000000
00000000
00000000
00000000
,
00000000
00000000
00000000
00000000
,
00000010
00000010
00000100
00000100
,
00000001
00001000
00000100
00000010
,
00000100
00000100
00010000
00010000
,
00001000
01000000
00100000
10000000
,
00010000
00010000
10000000
10000000
,
00100000
01000000
00010000
10000000
,
00010000
00010000
00100000
00001000
,
00010000
00000100
00001000
00000010
,
00000200
00000000
00000000
00000000
,
00000300
00000000
00000000
00000000
00000001
00000000
00000000
00000010
,
00000000
00000000
00000000
00000100
00000000
00000000
00000000
00010000
,
00000000
00000000
00001000
00000000
,
02000000
00000000
00000000
00000000
,
03000000
00000000
00000000
00000000
00100000
00000000
00000000
10000000
,
00000000
00000000
00000000
01000000
00000000
00000000
00000000
00100000
,
00000000
00000000
00001000
00000000
,
00020000
00000000
00000000
00000000
,
00030000
00000000
00000000
00000000
00000100
00000000
00000000
00000010
,
00000000
00000000
00000000
00000001
00000000
00000000
00000000
00000100
,
00000000
00000000
00000010
00000000
,
00010000
00010000
00001000
00001000
,
00010000
00010000
00001000
00000000
,
01000000
01000000
00100000
00100000
,
01000000
01000000
00100000
00100000
,
10000000
00000000
10010000
00000000
00010000
00000000
00100000
00010000
,
00100000
00000000
00010000
01000000
00010000
00000000
10000000
00000000
,
00010000
00000000
00100000
00000000
00001000
00000000
00010000
00001000
,
00010000
00000000
00000010
00001000
00000010
00000000
00000100
00000000
,
00000001
00000000
00000010
00000000
00000001
00000000
00000100
00000001
,
00000100
00000000
00000010
00001000
00000010
00000000
00001000
00000000
,
00000100
00000000
00010000
00000000
00001000
00000000
01000000
00100000
,
01000000
00000000
00010000
10000000
00010000
00000000
00100000
00000000
,
01000000
00000000
10000000
00000000
00100000
00000000
10000000
01000000
,
10000000
00000000
00010000
01000000
00100000
00000000
10000000
00000000
,
00010000
00000000
00100000
00000000
00001000
00000000
00010000
00000010
,
00000100
00000000
00000001
00000010
00000100
00000000
00001000
00000000
,
00000001
00000000
00000100
00000010
00000000
00000010
00000000
00001000
,
00000000
00001000
00000000
00000100
00000000
00010000
00000000
00001000
,
00000000
00010000
00000000
00001000
00000000
01000000
00000000
00010000
,
00000000
01000000
00200000
00000000
00000000
00000000
01000000
00000000
,
00000000
02000000
00000000
00000000
,
03300000
20020000
00000000
00000000
,
30030000
10000000
01000000
00010000
,
00001000
00000010
00000001
00000010
,
00000100
00001000
00000001
00000100
,
00000010
00010000
00001000
01000000
,
01100000
00100000
10000000
00010000
,
10000000
01000000
00010000
00001000
,
00000010
00000001
00000100
00000010
,
00001000
00010000
00100000
10000000
,
00100000
01000000
10010000
10000000
,
10010000
00000000
00100000
00000000
10000000
00010000
00100000
00000000
,
00001000
00010000
00011000
00000100
,
00011000
00000000
00000100
00000000
00000010
00000001
00000100
00000000
,
00000001
00000010
00001001
00000100
,
00001001
00000000
00000001
00000000
00001000
00000100
00010000
00000000
,
00011000
01000000
01100000
00100000
,
01100000
00000000
00010000
00000000
10000000
00010000
00100000
00000000
,
01000000
10010000
00000000
00000000
;

//---------------dance-double - [Ness]----------------
#NOTES:
     dance-double:
     [Ness]:
     Easy:
     2:
     0.145,0.195,0.042,0.084,0.000:
00000000
00000000
00000000
00000000
,
00000000
00000000
00000000
00000000
,
00000000
00000000
00000000
00000000
,
00000000
00000000
00000000
00000000
,
00000000
00000000
00000000
00000000
,
00000000
00000000
00000000
00000000
,
00000000
00000000
00000000
00000000
,
00000000
00000000
00000000
00000000
,
00000010
00000000
00000100
00000000
,
00010000
00000000
00001000
00000000
,
01000000
00100000
01000000
00000000
,
00010000
00000000
10000000
00000000
,
01000000
00000000
00100000
00000000
,
00001000
00000000
00010000
00000000
,
00001000
00000000
00010000
00000000
,
00000010
00000000
00000100
00000000
,
00002002
00000000
00000000
00000000
,
00003003
00000000
00000000
00000000
,
00000010
00000000
00000010
00000000
,
00000100
00000000
00010000
00000000
,
00002000
00000000
00000000
00000000
,
00003000
00000000
00000000
00000000
,
01000000
00000000
01000000
00000000
,
00100000
00000000
10000000
00000000
,
02000000
00000000
00000000
00000000
,
03000000
00000000
00000000
00000000
,
00100000
00000000
00100000
00000000
,
00001000
00000000
00010000
00000000
,
00001000
00000000
00000000
00000000
,
00010000
00000000
00000010
00000000
,
00000100
00000000
00000000
00000000
,
00000001
00000000
00001000
00000000
,
00000001
00000000
00000010
00000000
,
00000010
00000000
00000100
00000000
,
00000100
00000000
00010000
00000000
,
00001000
00000000
00010000
00000000
,
00001000
00000000
01000000
00000000
,
01000000
00000000
00100000
00000000
,
00100000
00000000
10000000
00000000
,
01000000
00000000
00010000
00000000
,
00001000
00000000
00000010
00000000
,
00000010
00000000
00000100
00000000
,
00000100
00000000
00001000
00000000
,
00000001
00000000
00001000
00000000
,
00000001
00000200
00000000
00000000
,
00000000
00000300
00000010
00000000
,
00000010
00020000
00000000
00000000
,
00000000
00030000
00001000
00000000
,
00001000
00002000
00000000
00000000
,
00000000
00020000
00000000
00000000
,
00033000
00011000
00000000
01000000
,
00000000
00100000
00000000
10000000
,
00000000
01000000
00000000
01000000
,
00000000
00100000
00000000
00001000
,
00000000
00100000
00000000
00100000
,
00000000
00010000
00000000
10000000
,
00000000
01000000
00000000
00100000
,
00000000
00001000
00000000
00010000
,
00000000
00011000
00000100
00000000
,
00000100
00000010
00000001
00000000
,
00000001
00001000
00000001
00000000
,
00000001
00000100
00000010
00000000
,
00000010
00020000
00000000
00000000
,
00000000
00030000
00001000
00000000
,
00001000
00020000
00000000
00000000
,
00030000
00011000
00000000
00100000
,
00000000
01100000
00000000
00000000
;
