#TITLE:I Gotta Feeling;
#SUBTITLE:;
#ARTIST:Black Eyed Peas;
#TITLETRANSLIT:;
#SUBTITLETRANSLIT:;
#ARTISTTRANSLIT:;
#GENRE:;
#CREDIT:;
#MENUCOLOR:;
#METERTYPE:DDR;
#BANNER:I Gotta Feeling-bn.png;
#BACKGROUND:I Gotta Feeling-bg.png;
#LYRICSPATH:;
#CDTITLE:ddrencorecdtitle.png;
#MUSIC:I Gotta Feeling.mp3;
#OFFSET:-13.160;
#SAMPLESTART:60.020;
#SAMPLELENGTH:12.000;
#SELECTABLE:YES;
#LISTSORT:13;
#BPMS:0.000=127.995;
#STOPS:97.500=0.469
;
#BGCHANGES:-29.000=I Gotta Feeling.avi=1.000=1=1=0,
232.000=I Gotta Feeling.avi=0.000=0=0=1,
99999=-nosongbg-=1.000=0=0=0 // don't automatically add -songbackground-
;
#ATTACKS:;

//---------------dance-single - ----------------
#NOTES:
     dance-single:
     :
     Challenge:
     8:
     0.488,0.483,0.421,0.154,0.101: // measure 1
0000
0000
0000
0000
,  // measure 2
1001
0000
0100
0000
0001
0010
0100
0000
,  // measure 3
1001
0000
0010
0000
0100
1000
0001
0100
,  // measure 4
1001
0000
1000
0000
0001
1000
0100
0000
,  // measure 5
1001
0000
0010
0000
0100
0010
0001
1000
,  // measure 6
1001
0000
0010
0000
1000
0100
0010
0000
,  // measure 7
1001
0000
0100
0000
0001
1000
0100
1000
,  // measure 8
1001
0000
0100
0000
0010
1000
0100
0010
,  // measure 9
0001
1000
0001
1000
0100
0000
1001
0000
,  // measure 10
1000
0002
0100
0000
0010
0000
0013
0000
,  // measure 11
0001
2000
0100
0000
0010
0000
3010
0000
,  // measure 12
1000
0020
0100
0000
1000
0000
1030
0000
,  // measure 13
0001
0200
0010
0000
0001
0000
0301
0000
,  // measure 14
1000
0020
0100
0030
0001
0020
0100
0030
,  // measure 15
1000
0002
0100
0003
0001
2000
0100
3000
,  // measure 16
1000
0010
0100
0000
0110
0000
1010
0000
,  // measure 17
2000
0000
0001
0000
3100
1000
0001
0100
,  // measure 18
0101
0000
0000
0001
1000
0000
0000
1000
0100
0000
0000
0100
0001
0000
0000
0001
,  // measure 19
0100
0000
0000
0100
0010
0000
0000
0010
0001
0000
0000
0001
1000
0000
0001
0000
,  // measure 20
0010
0000
0000
0010
0100
0000
0000
0100
1000
0000
0000
1000
0100
0000
0000
0100
,  // measure 21
0001
0000
0000
0001
0100
0000
0000
0100
1000
0000
0000
1000
0010
0000
0100
0000
,  // measure 22
0001
0000
0000
0001
1000
0000
0000
1000
0100
0000
0000
0100
1000
0000
0000
1000
,  // measure 23
0001
0000
0000
0001
0100
0000
0000
0100
0010
0000
0000
0010
1000
0000
0001
0000
,  // measure 24
0010
0000
0000
0010
0001
0000
0000
0001
0010
0000
0000
0010
1000
0000
0000
1000
,  // measure 25
0001
0100
1000
0100
1001
0000
1000
0100
,  // measure 26
0101
0000
0001
0100
1100
0000
1000
0100
,  // measure 27
0020
0001
0001
0001
0001
0031
0100
0010
,  // measure 28
1010
0000
0001
0010
1010
0000
0010
0001
,  // measure 29
0200
0001
0001
0001
0001
0301
1000
0100
,  // measure 30
0011
0000
0001
0100
1001
0000
0100
0010
,  // measure 31
0200
0001
0001
0001
0001
0301
1000
0010
,  // measure 32
0101
0000
0001
0010
1100
0000
1000
0001
,  // measure 33
0200
0010
0010
0010
0010
0310
2001
0000
,  // measure 34
3100
1002
0103
0012
,  // measure 35
0103
0010
1020
0000
0130
0000
2001
0000
,  // measure 36
3100
0000
1001
0100
0001
0000
1001
0100
,  // measure 37
0001
1000
1100
0000
1001
0000
1000
1000
,  // measure 38
1000
1000
1000
0010
0100
0000
0001
1000
,  // measure 39
0001
1000
1100
0000
0101
0000
0001
0100
,  // measure 40
0010
1000
0200
1000
1000
1300
0010
0100
,  // measure 41
0001
0010
0100
1000
0001
0100
0101
0000
,  // measure 42
1000
0100
0001
0100
,  // measure 43
1000
0010
0100
1001
,  // measure 44
0001
1000
0001
1100
,  // measure 45
0101
1000
0010
1010
,  // measure 46
0001
0100
0001
1100
,  // measure 47
0101
1000
0100
0110
,  // measure 48
1000
0001
0100
0101
,  // measure 49
1100
0000
0101
0000
1000
0000
1001
0010
,  // measure 50
1000
0010
0100
0010
0001
0010
0100
0010
,  // measure 51
1000
0100
0010
0001
0100
0010
1001
1000
,  // measure 52
0001
0100
1000
0100
0001
1000
1100
0001
,  // measure 53
0101
0001
1000
0100
0010
0001
1010
1000
,  // measure 54
0001
0010
0100
1000
0001
0010
1100
0100
,  // measure 55
0101
0001
1000
0001
0100
1000
0110
0001
,  // measure 56
1000
0010
0001
0010
1000
0001
0101
1000
,  // measure 57
1100
0001
1000
0100
0001
0100
1000
0000
;

//---------------dance-single - ----------------
#NOTES:
     dance-single:
     :
     Hard:
     7:
     0.415,0.414,0.437,0.049,0.000:
0000
0000
0000
0000
,
1001
1000
0010
0100
,
0001
0000
0010
0000
0100
1000
0001
0100
,
0010
1000
0001
0100
,
0010
0000
1000
0000
0100
0010
0001
1000
,
0010
0100
0001
1000
,
0010
0000
0100
0000
0001
1000
0100
1000
,
0001
0000
0100
0000
0010
1000
0100
0010
,
0001
1000
0100
1001
,
1000
0001
0100
0000
0010
0000
0010
0000
,
0001
1000
0100
0000
0010
0000
0010
0000
,
1000
0010
0100
0000
1000
0000
1000
0000
,
0001
0100
0010
0000
0001
0000
0001
0000
,
1000
0010
0100
0000
0001
0010
0100
0000
,
1000
0001
0100
0000
0001
1000
0100
0000
,
1000
0010
0100
0000
0110
0000
1010
0000
,
1000
0000
0001
0000
0100
0010
1000
0001
,
0100
0010
0100
0010
0100
0000
1001
0000
,
0001
1000
0001
1000
0001
0000
1001
0000
,
1000
0100
1000
0100
1000
0000
1100
0000
,
0001
0010
0001
0010
0001
0000
0011
0000
,
0001
1000
0001
1000
0001
0000
1001
0000
,
0100
0001
0100
0001
0100
0000
0101
0000
,
0001
1000
0001
1000
0001
0000
1001
0000
,
0010
0000
0010
0000
1001
0000
1000
0010
,
1000
0000
0001
0010
0001
0000
1000
0100
,
1000
0000
1001
0000
1001
0000
0001
0100
,
0001
0000
1000
0100
1000
0000
0010
0100
,
0010
0000
0110
0000
0110
0000
1000
0001
,
0100
0000
0001
1000
0100
0000
0010
0001
,
1000
0000
1001
0000
0110
0000
0100
0001
,
1000
0000
0100
1000
0001
0000
1100
0000
,
0101
0000
1000
0001
0100
0001
1002
0000
,
1003
2001
3001
1002
,
1003
0001
2001
0000
3001
0000
1002
0000
,
1003
0000
1001
1000
0001
0000
1001
0001
,
1000
0001
2001
0000
3001
0000
0010
0100
,
1000
0001
0010
0100
1100
0000
0100
1000
,
0001
0100
0010
0000
0110
0000
0010
1000
,
0001
0100
0010
0000
0110
0000
0010
1000
,
0001
0100
0010
0000
0110
0000
0101
0000
,
1000
0100
0001
0100
,
1000
0010
0100
1001
,
0001
1000
0001
1100
,
0101
1000
0010
1010
,
0001
0100
0001
1100
,
0101
1000
0100
0110
,
1000
0001
0100
0101
,
1100
0000
0101
0000
1000
0000
1001
0010
,
1000
0001
0100
0010
1001
0000
0100
0001
,
1000
0000
0010
0100
0001
0000
1001
1000
,
0001
1000
0001
1100
,
0101
0000
1000
0100
0010
0000
0011
0001
,
0100
0001
1000
0100
1000
0000
1100
0000
,
0101
0001
1000
0000
0100
0000
0110
1000
,
0001
0100
0001
0010
0001
0000
0101
0000
,
1100
0000
1000
0100
0001
0100
1000
0000
;

//---------------dance-single - ----------------
#NOTES:
     dance-single:
     :
     Easy:
     4:
     0.205,0.253,0.105,0.065,0.000:
0000
0000
0000
0000
,
1000
1000
0000
0100
,
0000
0010
0000
0001
,
0000
1000
0000
0100
,
0000
1000
0000
0100
,
0000
0010
0000
0001
,
0000
0100
0000
1000
,
0000
0010
0000
0100
,
0100
0000
0010
0000
,
1001
0000
0001
0000
,
1000
0000
0010
0000
,
0100
0001
0100
0000
,
0001
0000
0010
0000
,
0100
1000
0100
0000
,
1000
0000
0010
0000
,
0100
0001
0100
0000
,
0001
0001
1000
0000
,
0010
1000
0100
1000
,
0010
1000
0100
1000
,
0010
0100
0001
0100
,
0010
0100
0001
0100
,
0010
1000
0001
1000
,
0010
1000
0001
1000
,
0010
0100
0001
1000
,
0010
0000
0000
0101
,
0100
0000
0001
0000
,
1000
1001
1001
0010
,
1000
0000
0001
0000
,
0010
0110
0110
0100
,
0000
1000
0000
0001
,
1000
1001
1001
0100
,
0000
0001
0000
0010
,
0100
1100
1100
2000
,
3000
0020
0030
0100
,
0001
1000
0001
0020
,
0030
0200
0300
1000
,
0001
0100
0010
1000
,
1000
1000
1000
0001
,
0100
0001
0000
1000
,
0100
1000
0000
0001
,
0100
0001
0000
1001
,
0000
2000
0000
0020
,
0000
3030
1000
0100
,
1000
0100
0000
0010
,
0000
0001
0000
0100
,
0000
0010
0000
1000
,
0001
0010
0000
0100
,
0000
1000
0000
0010
,
0100
0001
1000
1001
,
0000
0002
0000
0020
,
0000
0033
0001
0100
,
0001
0100
0000
0010
,
0000
1000
0000
0100
,
0000
0010
0000
0001
,
1000
0010
0000
0100
,
0000
0001
0000
0010
,
0100
1000
0001
1001
;

//---------------dance-single - ----------------
#NOTES:
     dance-single:
     :
     Beginner:
     1:
     0.110,0.138,0.008,0.000,0.000:
0000
0000
0000
0000
,
1000
0000
0000
0000
,
0010
0000
0000
0000
,
0100
0000
0000
0000
,
0001
0000
0000
0000
,
0010
0000
0000
0000
,
0100
0000
0000
0000
,
1000
0000
0000
0000
,
0010
0000
0000
0000
,
0100
0000
0100
0000
,
0100
0000
0000
0000
,
0001
0000
0000
0000
,
1000
0000
0000
0000
,
0001
0000
0000
0000
,
1000
0000
0000
0000
,
0010
0000
0010
0000
,
0100
0100
0100
0000
,
0100
0000
0001
0000
,
1000
0000
0001
0000
,
0100
0000
0000
0000
,
0010
0000
0000
0000
,
1000
0000
0100
0000
,
0010
0000
0001
0000
,
1000
0000
0000
0000
,
0001
0000
0000
0010
,
0000
0010
0000
0010
,
0000
0000
0000
0100
,
0000
0100
0000
0100
,
0000
0000
0000
1000
,
0000
1000
0000
1000
,
0000
0000
0000
0001
,
0000
0001
0000
0001
,
0000
0000
0000
0100
,
0000
0100
0000
0010
,
0000
0010
0000
1000
,
0000
1000
0000
0001
,
0000
0001
0000
0100
,
0000
0000
0010
0010
,
0000
0010
0000
1000
,
0000
0000
1000
1000
,
0000
0000
0001
0001
,
0000
0001
0000
0001
,
0000
0010
0000
0100
,
0000
1000
0000
0010
,
0000
0100
0000
0001
,
0000
0010
0000
0100
,
0000
1000
0000
0010
,
0000
0100
0000
0001
,
0000
0010
0000
0100
,
0000
0100
0000
1000
,
0000
0001
0000
0100
,
0000
0001
0000
1000
,
0000
0100
0000
1000
,
0000
0001
0000
0100
,
0000
0010
0000
1000
,
0000
0100
0000
0010
,
0010
0010
0000
1001
;

//---------------dance-double - ----------------
#NOTES:
     dance-double:
     :
     Challenge:
     9:
     0.501,0.437,0.194,0.081,0.146:
00000000
00000000
00000000
00000000
,
00011000
00000000
00001000
00000000
00100000
00010000
10000000
00000000
,
10010000
00000000
01000000
00000000
00100000
10000000
00010000
00100000
,
00001000
00000000
00010000
00000000
00001000
00010000
00001000
00000000
,
00011000
00000000
00000100
00000000
00001000
00000010
00000100
00000001
,
00000110
00000000
00000100
00000000
00010000
00000100
00001000
00000000
,
00011000
00000000
00100000
00000000
10000000
01000000
00100000
00001000
,
00010000
00000000
00000100
00000000
00001000
00000100
00000010
00000000
,
00000110
00000000
00000010
00000000
00000001
00000010
00000100
00001000
,
00001100
00000000
00000100
00000000
00010000
00001000
00010000
00000000
,
00001000
01000000
00001000
00000000
01000000
00000000
01010000
00000000
,
01000000
00100000
10000000
00000000
01000000
00100000
00010000
00000000
,
00100000
00001000
00010000
00000000
00011000
00000000
00100000
00000000
,
01000000
10000000
00010000
00000000
01000000
00010000
00100000
00000000
,
00001000
00000000
00011000
00000000
00010000
00000100
00001000
00000000
,
00000010
00000100
00000001
00000000
00000010
00000100
00001000
00000000
,
00001100
00000000
00001100
00000000
00000100
00010000
00001000
01000000
,
00010000
00000000
00000000
00010000
00100000
00000000
00000000
00100000
10000000
00000000
00000000
10000000
01000000
00000000
00000000
01000000
,
00010000
00000000
00000000
00010000
00100000
00000000
00000000
00100000
00001000
00000000
00000000
00001000
00010000
00000000
00000000
00010000
,
00000010
00000000
00000000
00000010
00000100
00000000
00000000
00000100
00000001
00000000
00000000
00000001
00000010
00000000
00000000
00000010
,
00001000
00000000
00000000
00001000
00000100
00000000
00000000
00000100
00000001
00000000
00000000
00000001
00000100
00000000
00000000
00000100
,
00000010
00000000
00000000
00000010
00000001
00000000
00000000
00000001
00001000
00000000
00000000
00001000
00000100
00000000
00000000
00000100
,
00010000
00000000
00000000
00010000
00001000
00000000
00000000
00001000
01000000
00000000
00000000
01000000
00100000
00000000
00000000
00100000
,
00010000
00000000
00000000
00010000
01000000
00000000
00000000
01000000
10000000
00000000
00000000
10000000
00100000
00000000
00000000
00100000
,
00010000
00100000
01000000
00010000
10010000
00000000
10010000
00100000
,
01000000
00010000
00100000
00001000
00010000
00000100
00001000
00000010
,
00000200
00000001
00000001
00000001
00000001
00000301
00000010
00000100
,
00010000
00001000
00100000
00010000
01000000
00100000
10000000
01000000
,
00200000
00010000
00010000
00010000
00010000
00310000
00100000
00001000
,
00010000
00000100
00001000
00000010
00000100
00000001
00000010
00000100
,
00020000
00001000
00001000
00001000
00001000
00031000
00100000
00010000
,
00100000
01000000
10000000
00100000
01000000
00010000
00100000
00001000
,
00020000
00000100
00000100
00000100
00000100
00030100
00020100
00000000
,
00031000
00012000
01003000
02001000
,
03100000
10000000
12000000
00000000
03010000
00000000
02010000
00000000
,
03100000
00000000
00110000
00100000
00001000
00000000
00110000
00100000
,
00001000
00010000
00000100
00000000
00001000
00000000
00000110
00000100
,
00000100
00000100
00000100
00000001
00001000
00000000
00000100
00010000
,
00001000
01000000
00010000
00000000
01010000
00000000
00010000
00100000
,
10000000
00100000
00020000
01000000
01000000
01030000
00010000
00100000
,
10000000
00100000
00010000
01000000
00100000
10000000
11000000
10000000
,
01000000
10000000
00010000
01000000
00010000
00100000
00001000
00010000
,
00000100
00001000
00000010
00000001
00000010
00001000
00000100
00001000
,
00000001
00000100
00000001
00001000
00000100
00001000
00000001
00000100
,
00000001
00001000
00000100
00010000
00001000
00100000
00010000
00100000
,
10000000
00100000
00010000
00100000
10000000
00100000
00010000
00100000
,
01000000
10000000
00010000
01000000
00100000
10000000
01000000
00100000
,
00001000
00010000
00000100
00001000
00000010
00000100
00000001
00000100
,
00000001
00000000
00000100
00000000
00000010
00000000
00001000
00000000
00000100
00000000
00010000
00000000
00001000
00000000
00100000
00010000
,
00100000
00000000
00010000
00000000
01000000
00000000
00100000
10000000
00010000
00000000
01000000
00000000
00100000
00000000
10000000
00000000
,
00010000
00000000
00100000
00000000
00001000
00000000
00010000
00000000
00001000
00000000
00010000
00000000
00000100
00000000
00001000
00000010
,
00000100
00000000
00000001
00000000
00000010
00000000
00000100
00001000
00000100
00000000
00010000
00000000
00001000
00000000
00010000
00000000
,
00001000
00000000
01000000
00000000
00100000
00000000
10000000
00000000
00010000
00000000
00100000
00000000
00001000
00000000
00010000
00000100
,
00010000
00000000
00000100
00000000
00001000
00000000
00000100
00001000
00000100
00000000
00010000
00000000
00001000
00000000
00100000
00000000
,
01000000
00000000
10000000
00000000
00010000
00000000
01000000
00000000
00100000
00000000
10000000
00000000
01000000
00000000
00100000
01000000
,
10000000
00000000
00010000
00000000
00100000
00000000
00001000
00010000
00000010
00000000
00010000
00000000
00000100
00000000
00001000
00000000
,
00000100
00000010
00000100
00001000
00010000
00001000
00010000
00000000
;

//---------------dance-double - ----------------
#NOTES:
     dance-double:
     :
     Medium:
     6:
     0.340,0.322,0.194,0.040,0.000:
00000000
00000000
00000000
00000000
,
00011000
00100000
01000000
01000000
,
10000000
00010000
01000000
00010000
,
00100000
00100000
00001000
00001000
,
00010000
00000010
00000100
00000001
,
00000010
00000010
00000100
00000100
,
00010000
00001000
00010000
00001000
,
00100000
00100000
01000000
01000000
,
10000000
00010000
10000000
00010000
,
01100000
01000000
00010000
00100000
,
00001000
00010000
00001000
00000000
00010000
00000000
00000100
00000000
,
00001000
00000010
00000100
00000001
,
00001000
00000001
00001000
00000000
00000100
00000000
00010000
00000000
,
00001000
01000000
00100000
10000000
,
01000000
10000000
01000000
00000000
00100000
00000000
00010000
00000000
,
01000000
00100000
01000000
00001000
,
00010000
00001000
00010000
00000000
00001000
00000000
00100000
00000000
,
01000000
10000000
00010000
00000000
10010000
00000000
00010000
00000000
,
00100000
00001000
00010000
00000000
00011000
00000000
00010000
00000000
,
00000100
00001000
00000100
00000000
00001100
00000000
00000100
00000000
,
00000010
00000001
00000100
00000000
00001001
00000000
00001000
00000000
,
00000100
00010000
00001000
00000000
00010000
00000000
00010100
00000000
,
00001000
00100000
00010000
00000000
01000000
00000000
01100000
00000000
,
01000000
00100000
10000000
00000000
01010000
00000000
10000000
00000000
,
00010000
00000000
10000000
00000000
10010000
00000000
10000000
00100000
,
10000000
00000000
01010000
00000000
00010000
00000000
01000000
00010000
,
01000000
00000000
01010000
00000000
00011000
00000000
00010000
00000100
,
00001000
00000000
00001100
00000000
00000001
00000000
00000010
00000100
,
00001000
00000000
00011000
00000000
00110000
00000000
01000000
00100000
,
01000000
00000000
10100000
00000000
01000000
00000000
00010000
00100000
,
00001000
00000000
00011000
00000000
00001100
00000000
00001000
00000010
,
00000100
00000000
00000011
00000000
00000100
00000000
00010000
00001000
,
00010000
00011000
00101000
00200000
,
00310000
02000000
03100000
20000000
,
31000000
00100000
00002000
00000000
00013000
00000000
00000200
00000000
,
00001300
00000000
00000010
00000100
00000001
00000000
00000010
00000100
,
00000010
00000001
00000100
00000000
00000010
00000000
00001000
00000100
,
00001000
00000100
00010000
00001000
00010000
00000000
00001000
00000000
,
00100000
00110000
00110000
00100000
,
01000000
10000000
00010000
00100000
,
00001000
00000000
00010000
00000100
00001000
00000100
00001000
00000000
,
00000010
00000100
00000001
00000100
,
00000010
00010000
00001000
00100000
,
01000000
10000000
00010000
00100000
,
00001000
00010000
00000100
00000010
,
00000001
00000010
00001000
00000100
,
00010000
00001000
01000000
10000000
,
01000000
00010000
00100000
01000000
,
10000000
00010000
00100000
00001000
,
00000010
00000000
00000100
00000001
00001000
00000000
00000100
00010000
,
00001000
00000000
01000000
00010000
10000000
00000000
01000000
00000000
,
00100000
00000000
00001000
00010000
00000100
00000000
00001000
00000010
,
00000100
00000000
00000001
00000010
00001000
00000000
00000010
00000000
,
00000001
00000000
00000010
00000100
00010000
00000000
00001000
00100000
,
00010000
00000000
01000000
00010000
10000000
00000000
00010000
00000000
,
01000000
00000000
00010000
00100000
00010000
00000000
00100000
01000000
,
10000000
00000000
00010000
00100000
00001000
00010000
00000100
00000000
;

//---------------dance-double - ----------------
#NOTES:
     dance-double:
     :
     Easy:
     5:
     0.259,0.253,0.081,0.000,0.000:
00000000
00000000
00000000
00000000
,
00100000
00100000
01000000
01000000
,
10000000
00100000
01000000
00010000
,
00100000
00100000
00001000
00001000
,
00010000
00001000
00010000
00001000
,
00010000
00000100
00001000
00000010
,
00000100
00000001
00001000
00000100
,
00010000
00001000
00010000
00001000
,
00100000
01000000
10000000
00100000
,
01100000
01000000
00010000
00010000
,
00100000
00100000
00001000
00001000
,
00010000
00001000
00010000
00001000
,
00100000
00010000
01000000
00100000
,
10000000
01000000
10000000
00010000
,
00100000
00001000
00010000
00000010
,
00001000
00000100
00000010
00000100
,
00010000
00001000
00010000
00001000
,
00100000
00100000
01000000
00000000
,
10000000
00010000
10000000
00000000
,
00010000
00100000
00001000
00000000
,
00010000
00000100
00010100
00000000
,
00000100
00001000
00000010
00000000
,
00000100
00000001
00001000
00000000
,
00000100
00010000
00001000
00000000
,
00100000
01000000
10010000
10000000
,
10000000
00010000
00010000
10000000
,
01000000
00100000
00001000
00010000
,
00010000
00001000
00001000
00010000
,
00000100
00001000
00000010
00000100
,
00000100
00000001
00000001
00000010
,
00000100
00010000
00001000
00100000
,
00100000
01000000
01000000
10000000
,
00010000
01000000
00100000
10010000
,
00010000
10000000
10000000
00010000
,
00100000
00001000
00010000
00001000
,
00010000
00010000
00001000
00010000
,
00000100
00001000
00001000
00001100
,
00000100
00000100
00000100
00001001
,
00001000
00000001
00000000
00001001
,
00000001
00001000
00000000
00001001
,
00000001
00001000
00000100
00010000
,
00010000
00001000
00001000
00100000
,
01000000
10000000
00100000
01000000
,
01000000
00010000
00010000
00100000
,
01000000
10000000
00010000
00100000
,
00100000
01000000
01000000
00100000
,
00001000
00010000
00000100
00001000
,
00001000
00000010
00000010
00000100
,
00000001
00001000
00000100
00001000
,
00001000
00000010
00000010
00000100
,
00000010
00001001
00000100
00000010
,
00000010
00001000
00001000
00000100
,
00000010
00000001
00001000
00000100
,
00000100
00000010
00000010
00000100
,
00010000
00001000
00100000
00010000
,
00010000
01000000
01000000
00100000
,
10000000
00010000
00000000
00011000
;

//---------------dance-single - ----------------
#NOTES:
     dance-single:
     :
     Medium:
     5:
     0.292,0.276,0.073,0.040,0.000:
0000
0000
0000
0000
,
1001
0010
0100
1000
,
0010
0100
0001
0010
,
0100
1000
0010
0100
,
0002
0013
0100
1000
,
0010
0100
0001
1000
,
0002
0103
0010
1000
,
0010
0100
0001
1000
,
1100
0101
1100
0002
,
0103
0000
0020
0000
,
0200
0000
0000
0000
0330
0001
0100
0001
,
0000
0010
0000
0100
0000
1000
0000
0010
,
0000
0100
0000
0000
0000
0001
0000
0001
,
0000
0010
0000
0100
0000
1000
0000
0010
,
0000
1000
0000
0000
0000
0001
0000
0100
,
0000
1000
0000
0100
0000
0001
0000
0010
,
0000
0010
0000
0001
0100
0001
0000
0000
,
1000
0100
0010
0001
,
1000
0100
1000
0000
0001
0000
0010
0000
,
0100
1000
0010
0100
,
0001
0010
1000
0000
0010
0000
0100
0000
,
0001
1000
0001
0100
,
0010
1000
0100
0000
1000
0000
0010
0000
,
0100
0001
0010
0100
,
1000
0000
0000
0000
1001
0000
0010
1000
,
0010
0000
1000
0001
1000
0000
0001
0000
,
0010
0000
0100
0000
1000
0000
0010
0100
,
0001
0000
0010
0100
1000
0000
0010
0000
,
0100
0000
0001
0000
1000
0000
0001
0100
,
0001
0000
1000
0100
1000
0000
0010
0000
,
1000
0000
0100
0000
1000
0000
0001
0010
,
0100
0000
1000
0010
0100
0000
0001
0000
,
0010
0100
1000
0101
,
0010
0100
1000
0010
,
1000
0001
0100
0000
1000
0000
0100
0000
,
0001
0000
0010
0100
1000
0000
0010
0100
,
0001
1000
0100
0010
,
0001
0000
1000
0000
0101
0000
0010
1000
,
0100
0000
0010
0000
0000
0000
0010
0001
,
0100
0000
0010
0000
0000
0000
0010
0001
,
0100
0010
0000
1000
,
0100
0001
0100
1000
,
0010
0100
0001
0010
,
1000
0010
0001
0100
,
0010
1000
0100
1000
,
0010
0001
0010
1000
,
0100
0010
0001
0100
,
0010
0000
1000
0000
0001
0000
0010
0100
,
1000
0000
0001
0100
0001
0000
1100
0000
,
0010
0100
0001
0010
,
0100
1000
0010
1000
,
0001
0100
0010
1000
,
0100
0000
0010
0000
0001
0000
1000
0100
,
1000
0010
0100
0001
,
0010
0000
1000
0000
0010
0000
0001
1000
,
0001
0100
0010
1000
,
1000
0000
0001
1000
0100
0000
1001
0000
;

//---------------dance-double - ----------------
#NOTES:
     dance-double:
     :
     Hard:
     7:
     0.399,0.368,0.211,0.000,0.000:
00000000
00000000
00000000
00000000
,
00011000
00001000
00100000
00010000
,
01000000
00000000
01000000
00000000
00100000
10000000
00010000
00100000
,
00001000
00010000
00001000
00001000
,
00010000
00000000
00000100
00000000
00001000
00000010
00000100
00000001
,
00000010
00000100
00010000
00001000
,
01000000
00000000
00100000
00000000
10000000
01000000
00100000
00001000
,
00010000
00000100
00001000
00000010
,
00000100
00000000
00000100
00000000
00000001
00000010
00000100
00001000
,
00001100
00000000
00000100
00000000
00010000
00001000
00010000
00000000
,
00001000
01000000
00001000
00000000
01000000
00000000
01010000
00000000
,
01000000
00100000
10000000
00000000
01000000
00100000
00010000
00000000
,
00100000
00001000
00010000
00000000
00011000
00000000
00100000
00000000
,
01000000
10000000
00010000
00000000
01000000
00010000
00100000
00000000
,
00001000
00000000
00011000
00000000
00010000
00000100
00001000
00000000
,
00000010
00000100
00000001
00000000
00000010
00000100
00001000
00000000
,
00001100
00000000
00001100
00000000
00000100
00010000
00001000
01000000
,
00010000
00100000
00010000
00100000
01000000
00000000
10010000
00000000
,
10000000
00100000
10000000
00100000
01000000
00000000
01010000
00000000
,
01000000
00010000
00100000
00001000
00010000
00000000
00011000
00000000
,
00010000
00000010
00001000
00000100
00001000
00000000
00001100
00000000
,
00000100
00001000
00000001
00000100
00000010
00000000
00000110
00000000
,
00000100
00000001
00001000
00000100
00001000
00000000
00001100
00000000
,
00000100
00010000
00001000
01000000
00010000
00010000
00100000
00000000
,
01000000
10000000
01000000
10000000
10010000
00000000
10000000
00010000
,
00100000
00000000
00001000
00010000
00000100
00000000
00001000
00000010
,
00000100
00000001
00000100
00000001
00000010
00000100
00010000
00001000
,
00010000
00000000
00000100
00001000
00000100
00000000
00000010
00000001
,
00000100
00000010
00001000
00000001
00001000
00000001
00000010
00000100
,
00001000
00000000
00000100
00010000
00001000
00000000
01000000
00010000
,
10000000
01000000
00100000
00010000
01000000
00100000
10000000
01000000
,
10000000
00000000
00010000
01000000
00010000
00000000
00100000
00001000
,
00010000
00000100
00001000
00000010
00000100
00000001
00000010
00000000
,
00000110
00001000
00001100
00000100
,
00010000
00001000
01000000
00000000
01010000
00000000
01000000
00000000
,
10100000
00000000
10000000
01000000
11000000
00000000
10000000
00100000
,
01000000
00010000
00100000
00000000
00110000
00000000
00100000
00001000
,
00010000
00000000
00000100
00000000
00001000
00000000
00000010
00000100
,
00000001
00000000
00000110
00000000
00000000
00000000
00000100
00010000
,
00001000
00000000
01010000
00000000
00000000
00000000
00100000
10000000
,
01000000
00000000
00110000
00000000
00001000
00010000
00011000
00000000
,
00100000
00001000
00010000
00000010
,
00000100
00001000
00000100
00000010
,
00001000
00000100
00010000
00001000
,
01000000
00010000
10000000
01000000
,
00100000
00001000
00010000
00000010
,
00001000
00000100
00000010
00000001
,
00000100
00000010
00001000
00000100
,
00010000
00000000
00001000
01000000
00100000
10000000
11000000
10000000
,
00100000
10000000
01000000
00100000
00010000
00000000
00100000
00001000
,
00010000
00000100
00001000
00000010
00000100
00000000
00000010
00000100
,
00001000
00000100
00000010
00000100
00000001
00000000
00000100
00000010
,
00001000
00000100
00010000
00001000
01000000
00000000
00010000
00100000
,
01000000
10000000
00100000
01000000
00010000
00000000
00100000
00001000
,
00010000
00000100
00001000
00000010
00000100
00000000
00000001
00000010
,
00000100
00001000
00000100
00010000
00001000
00000000
01000000
00010000
,
00100000
00001000
00010000
00000100
00001000
00000100
00001100
00000000
;
