#TITLE:I Gotta Feeling;
#SUBTITLE:[ANOTHER];
#ARTIST:Orangez;
#TITLETRANSLIT:;
#SUBTITLETRANSLIT:;
#ARTISTTRANSLIT:;
#GENRE:;
#CREDIT:;
#MENUCOLOR:;
#METERTYPE:DDR;
#BANNER:igotta.png;
#BACKGROUND:;
#LYRICSPATH:;
#CDTITLE:currentcdtitle.png;
#MUSIC:I Gotta Feeling [A].mp3;
#OFFSET:-0.015;
#SAMPLESTART:12.680;
#SAMPLELENGTH:12.000;
#SELECTABLE:YES;
#LISTSORT:;
#BPMS:0.000=142.005,96.000=71.003,112.000=142.005;
#STOPS:;
#BGCHANGES:;
#ATTACKS:;

//---------------dance-single - ----------------
#NOTES:
     dance-single:
     :
     Challenge:
     9:
     0.626,0.913,0.539,0.235,0.283: // measure 1
0000
0000
0000
0000
,  // measure 2
0000
0000
0000
0000
,  // measure 3
0000
0000
0000
0000
,  // measure 4
0000
0000
0000
0000
,  // measure 5
0000
0000
0000
0000
,  // measure 6
0000
0000
0000
0000
,  // measure 7
0000
0000
0000
0000
,  // measure 8
0000
0000
0000
0000
0000
0000
0000
0000
1000
0000
0010
0100
0001
0010
0100
0000
,  // measure 9
1001
0100
0001
0020
0000
1000
0000
0031
,  // measure 10
0010
0000
0010
0000
1000
0000
0010
0000
0001
0000
1000
0100
0001
0100
1000
0000
,  // measure 11
0001
0100
1000
0200
0000
0010
0000
1000
,  // measure 12
0301
0000
0000
0100
0000
0000
0100
0000
0010
0000
1000
0010
0001
1000
0100
0000
,  // measure 13
0001
1000
0020
0001
0000
1000
0000
0100
,  // measure 14
1000
0000
1030
0000
0100
0000
0100
0000
0001
0000
0100
0010
0100
1000
0100
0000
,  // measure 15
0010
0001
0020
1000
0000
0001
0000
0100
,  // measure 16
0001
0001
0100
0100
0031
1000
0100
0010
,  // measure 17
1001
0101
1001
0101
2001
0000
3010
0000
,  // measure 18
1010
0110
0101
0110
1002
0010
0010
0013
,  // measure 19
1001
0101
1100
0101
1001
0001
0010
0100
,  // measure 20
1000
1001
1100
0110
1002
0100
0100
0103
,  // measure 21
0001
0000
1001
0000
0011
0000
1100
0000
1010
0000
0000
0100
0001
0000
0000
0001
,  // measure 22
1000
1010
0110
0101
1001
0001
0010
0100
,  // measure 23
1000
1001
1100
0011
0101
1001
2000
0010
,  // measure 24
3001
1100
0110
1001
0001
0010
0110
1000
,  // measure 25
0001
0000
1000
0000
0010
0000
0100
0000
0002
0000
0000
0000
1000
0000
0000
0000
0103
0000
0000
0000
0001
0000
0100
0000
0001
0000
0000
1000
0010
0000
0000
0000
,  // measure 26
1000
0000
0100
0000
0001
0000
0100
0000
1000
0000
0000
0010
0100
0000
0001
0000
0100
0000
0001
0000
1000
0000
0010
0000
0100
0000
0000
0000
0110
0000
0000
0000
,  // measure 27
1000
0000
0010
0000
1000
0000
0100
0000
0010
0000
0000
0000
0001
0000
0010
0000
0100
0000
1000
0000
0001
0000
0100
0000
0110
0000
0001
0000
0010
0000
0100
1000
,  // measure 28
0000
0001
0010
0100
1100
2000
0010
3001
1000
0010
0100
0001
1000
0010
0100
0001
,  // measure 29
2000
0100
3020
0001
,  // measure 30
2030
0000
0001
0000
3100
0001
0100
1000
,  // measure 31
0010
1000
0001
0010
0001
0100
1000
0100
,  // measure 32
0001
1000
0002
0000
1003
0010
0100
0001
,  // measure 33
0010
1000
0010
0001
1000
0100
0001
0100
,  // measure 34
1000
0001
2000
0000
3010
0001
0010
1000
,  // measure 35
0001
0100
1000
0100
0010
0100
0001
1000
,  // measure 36
0010
0100
0001
1000
0010
1000
0001
0020
,  // measure 37
0001
0001
0001
0032
,  // measure 38
0100
0000
0203
0000
1000
0000
1300
0100
,  // measure 39
0001
0000
0001
0100
1000
0000
1000
0100
,  // measure 40
0001
0000
0100
0000
0001
0000
0010
0000
1000
0000
0010
0001
0010
0100
1000
0000
,  // measure 41
0001
0010
0100
2000
0000
0010
0000
3100
,  // measure 42
1000
0000
1000
0000
0100
0000
0020
0000
0001
0000
0031
0100
0010
1000
0100
0000
,  // measure 43
1000
0010
0200
1000
0000
0001
0000
1300
,  // measure 44
0100
0000
0000
0001
1000
0000
0010
0000
0001
0000
1000
0100
0001
1000
0010
0000
,  // measure 45
0001
0010
1000
0002
0000
0100
0000
2003
,  // measure 46
0001
0000
0001
0000
0010
0000
3010
0000
1000
0000
0010
0100
0001
0010
0100
0000
,  // measure 47
1000
0100
0010
0002
0000
1000
0000
0013
,  // measure 48
0001
0000
0010
1000
0000
0010
0001
0000
1000
0000
0001
0010
0100
1000
0001
0000
,  // measure 49
0101
1000
0100
0020
0000
1000
0000
0031
,  // measure 50
0100
0000
1000
0000
0001
0000
0100
0000
1000
0000
0100
0001
0010
0100
1000
0000
,  // measure 51
0001
0100
0002
0010
0000
1000
0000
0103
,  // measure 52
0010
0000
0000
0010
1000
0000
1000
0000
0001
0000
0100
0010
1000
0001
0100
0000
,  // measure 53
1010
1100
0101
1001
,  // measure 54
0110
0000
0000
0000
0011
0000
0000
0000
1100
0000
1000
0100
1000
0100
1000
0000
,  // measure 55
0101
1001
0011
0101
,  // measure 56
0110
0000
0000
0000
1001
0000
0000
0000
0011
0000
0001
0010
0001
0010
0001
0000
,  // measure 57
0110
1001
0101
1100
,  // measure 58
0110
0000
0000
0000
1001
0000
0000
0000
1010
0000
1000
0010
1000
0010
2000
0000
,  // measure 59
0001
0100
0001
0001
,  // measure 60
0010
0000
0000
0000
3100
0000
0000
0000
1000
0100
0010
0001
1000
0100
0010
0001
,  // measure 61
1000
0000
0000
0000
;

//---------------dance-double - ----------------
#NOTES:
     dance-double:
     :
     Challenge:
     9:
     0.614,0.887,0.600,0.139,0.265:
00000000
00000000
00000000
00000000
,
00000000
00000000
00000000
00000000
,
00000000
00000000
00000000
00000000
,
00000000
00000000
00000000
00000000
,
00000000
00000000
00000000
00000000
,
00000000
00000000
00000000
00000000
,
00000000
00000000
00000000
00000000
,
00000000
00000000
00000000
00000000
10000000
00010000
01000000
00100000
,
10010000
10000000
01000000
00200000
00000000
10000000
00000000
00310000
,
00100000
00000000
00001000
00000000
00010000
00000000
00000010
00000000
00001000
00000000
00000100
00001000
00000100
00001000
00000010
00000000
,
00000100
00000001
00001000
00000200
00000000
00010000
00000000
00001300
,
00000100
00000000
00000000
00000010
00000100
00000000
00010000
00000000
00001000
00000000
01000000
00010000
10000000
00100000
01000000
00000000
,
00010000
00100000
01000000
20000000
00000000
00100000
00000000
31000000
,
10000000
00000000
00010000
00000000
01000000
00000000
00010000
00000000
00100000
00000000
00001000
00010000
00000100
00001000
00000010
00000000
,
00000100
00001000
00000100
00000002
00000000
00001000
00000000
00000013
,
00000011
00000000
00000000
00000010
00000000
00000000
00000100
00000000
00010000
00000000
00001000
00000000
00010000
00000000
00001000
00000000
,
01000000
01010000
01100000
10010000
00110000
00000000
00100000
00000000
,
00001000
00011000
00001100
00011000
00001100
00000010
00000100
00000010
,
00000100
00000101
00001001
00001100
00000110
00001100
00010000
00001000
,
01000000
01100000
10010000
01100000
10010000
10000000
00100000
01000000
,
00010000
00000000
00110000
00000000
00011000
00000000
00010100
00000000
00001100
00000000
00000011
00000000
00000010
00000000
00000000
00000001
,
00000100
00000101
00001001
00001100
00011000
00000100
00011000
01010000
,
01100000
10100000
10010000
11000000
01100000
00110000
00100000
00001000
,
00010000
00011000
00011000
00011000
00000000
00000000
00100010
00000000
,
00000000
00000000
00000010
00000000
00000100
00000000
00000010
00000000
00000200
00000000
00000000
00000000
00001000
00000000
00000000
00000000
00000300
00000000
00000000
00000000
00000100
00000000
00000001
00000000
00000100
00000000
00000000
00000001
00000020
00000000
00000000
00000000
,
00000130
00000000
00010000
00000000
00001000
00000000
01000000
00000000
00010000
00000000
00000000
10000000
00010000
00000000
00100000
00000000
01000000
00000000
10000000
00000000
01000000
00000000
00100000
00000000
00000000
00000000
00000000
00000000
10010000
00000000
00000000
00000000
,
00000000
00000000
10000000
00000000
00100000
00000000
01000000
00000000
00020000
00000000
00000000
00000000
00130000
00000000
00001000
00000000
00100000
00000000
00001000
00000000
00010000
00000000
00000100
00000000
00001000
00000000
00000010
00000000
00000100
00000000
00000001
00000100
,
00000000
00000000
00000001
00000000
00000010
00000000
00000100
00000000
00001000
00000000
00000010
00000000
00000100
00000000
00000001
00000100
00000001
00000000
00000010
00000000
00000100
00000000
00001000
00000000
00000001
00000000
00000100
00000000
00000001
00000000
00001000
00000000
,
00001100
00000100
00001000
00000010
00000100
00000001
00001000
00000100
,
00010000
00001000
01000000
00010000
10000000
00100000
00010000
00100000
,
10000000
01000000
00100000
00001000
00010000
00000100
00001000
00000010
,
00000001
00000010
00001000
00000100
00000010
00000001
00001000
00000001
,
00000100
00000010
00001000
00000100
00010000
00001000
00100000
00010000
,
01000000
00100000
10000000
00100000
01000000
00010000
00001000
00000010
,
00000100
00000001
00000010
00000100
00010000
00001000
01000000
00010000
,
10000000
00100000
00010000
00100000
10000000
01000000
00100000
00001000
,
00011000
00001100
00000110
00000011
,
00000101
00000000
00000000
00000000
00001001
00000000
00000000
00000000
00001010
00000000
00001000
00000010
00001000
00000010
00001000
00000000
,
00001100
00011000
01001000
00110000
,
10100000
00000000
00000000
00000000
11000000
00000000
00000000
00000000
01010000
00000000
00010000
10000000
00010000
10000000
00010000
00000000
,
00110000
01100000
10010000
00110000
,
01001000
00000000
00000000
00000000
00110000
00000000
00000000
00000000
00011000
00000000
00000100
00001000
00000100
00000010
00000100
00000000
,
00000011
00000110
00011000
00001100
,
02020000
00000000
00000000
00000000
00000000
00000000
00000000
03030000
,
10010000
01000000
00010000
00200000
00000000
01000000
00000000
00310000
,
00100000
00000000
00001000
00000000
00010000
00000000
00000010
00000000
00001000
00000000
00000100
00010000
00001000
01000000
00010000
00000000
,
00100000
00001000
00020000
00100000
00000000
00001000
00000000
00130000
,
00010000
00000000
00000000
00100000
00000000
00000000
10000000
00000000
00010000
00000000
01000000
00100000
10000000
00010000
00100000
00000000
,
00001000
00010000
00000100
00002000
00000000
00000010
00000000
00003100
,
00001000
00000000
00000010
00000000
00000100
00000000
00000001
00000000
00001000
00000000
00000001
00000010
00000100
00001000
00000100
00000000
,
00001000
00000010
00001000
00000200
00000000
00010000
00000000
00001300
,
00000100
00000000
00000000
00010000
00001000
00000000
01000000
00000000
00010000
00000000
10000000
00100000
01000000
00010000
10000000
00000000
,
00010000
00100000
00010000
00200000
00000000
10000000
00000000
00310000
,
00100000
00000000
00001000
00000000
00010000
00000000
00000100
00000000
00001000
00000000
00000100
00010000
00001000
01000000
00010000
00000000
,
10000000
00100000
02000000
10000000
00000000
03010000
00000000
00100000
,
00001000
00000000
00000000
00010000
00000100
00000000
00001000
00000000
00000010
00000000
00000100
00000001
00000010
00000100
00001000
00000000
,
00000010
00000100
00001000
00000200
00000000
00000301
00000000
00001000
,
00000100
00000000
00001000
00000000
00010000
00000000
00100000
00000000
00010000
00000000
00001000
00000100
00001000
00000100
00000010
00000000
,
00000001
00000100
00001000
00000010
,
00001000
00000000
00000100
00000000
00010000
00000000
00001000
00000000
00100000
00000000
00010000
00000000
10000000
01000000
00100000
00010000
,
00001000
00000000
00000000
00000000
;
