#TITLE:I Believe In You;
#SUBTITLE:;
#ARTIST:Toy Box;
#TITLETRANSLIT:;
#SUBTITLETRANSLIT:;
#ARTISTTRANSLIT:;
#GENRE:;
#CREDIT:;
#MENUCOLOR:;
#METERTYPE:DDR;
#BANNER:ibelieveinyou.png;
#BACKGROUND:ibelieveinyou-bg.png;
#LYRICSPATH:;
#CDTITLE:ddrencorecdtitle.png;
#MUSIC:I Believe In You.mp3;
#OFFSET:-0.999;
#SAMPLESTART:58.581;
#SAMPLELENGTH:18.200;
#SELECTABLE:YES;
#LISTSORT:;
#BPMS:0.000=99.992;
#STOPS:;
#BGCHANGES:;
#ATTACKS:;

//---------------dance-single - ----------------
#NOTES:
     dance-single:
     :
     Hard:
     8:
     0.406,0.457,0.415,0.233,0.151: // measure 1
0000
0000
0000
0000
,  // measure 2
0000
0000
0000
0000
,  // measure 3
0000
0000
0000
0000
,  // measure 4
0000
0000
0000
0000
0000
0000
0001
0001
,  // measure 5
2000
0000
3001
0200
0000
0300
0110
0000
,  // measure 6
0020
0000
1030
0002
0000
0003
0011
0000
,  // measure 7
0200
0000
1300
0020
0000
0030
0110
0000
,  // measure 8
0200
0000
0301
2000
0100
3000
1100
0000
,  // measure 9
0010
0000
0000
0100
0000
0000
1100
0000
0000
0000
1000
0000
0010
0000
0000
0000
,  // measure 10
0100
0000
0000
0001
0000
0000
0011
0000
0000
0000
0100
0000
1000
0000
0000
0000
,  // measure 11
0010
0000
0000
1000
0000
0000
1010
0000
0000
0000
0010
0000
1000
0000
0000
0000
,  // measure 12
1001
0000
0000
0110
0000
0000
0101
0000
0000
0000
0010
0000
1001
0000
0000
0000
,  // measure 13
0010
0000
0000
0001
0000
0000
1001
0000
0000
0000
0010
0000
0100
0000
0000
0000
,  // measure 14
0001
0000
0000
1000
0000
0000
1010
0000
0000
0000
0010
0000
0100
0000
0000
0000
,  // measure 15
0010
0000
0000
0100
0000
0000
0101
0000
0000
0000
0001
0000
1000
0000
0000
0000
,  // measure 16
1100
0000
0000
1010
0000
0000
0101
0000
0000
0000
1000
0000
0110
0000
0000
0000
,  // measure 17
0010
1000
0101
0001
0000
0010
0011
0001
,  // measure 18
0010
0001
1100
0100
0000
1000
1010
0010
,  // measure 19
1000
0000
1010
0000
0001
0010
1001
0000
,  // measure 20
0010
0001
1000
0100
0000
0000
1001
0000
,  // measure 21
1000
0001
0110
0010
0000
1000
1001
0001
,  // measure 22
0010
0001
1100
1000
0000
0010
1010
0100
,  // measure 23
0001
0000
1001
0000
0010
1000
0101
0100
,  // measure 24
0001
0000
0010
0000
0001
1000
1001
0000
,  // measure 25
0010
1000
0001
0010
0000
0001
1000
0100
,  // measure 26
1000
0000
0000
0001
0000
0000
0010
0000
0000
0000
0001
0000
1100
0000
0100
0000
,  // measure 27
0020
0000
0031
2000
0000
0010
0000
3100
,  // measure 28
0010
0000
0000
0001
0000
0000
1100
0000
0000
0000
0010
0000
0101
0000
0000
0000
,  // measure 29
1000
0001
0010
0001
0000
1000
0010
0100
,  // measure 30
0001
0000
1001
0000
0010
1000
1010
0001
,  // measure 31
0000
1100
0000
0010
0011
0100
1000
0010
,  // measure 32
0000
0000
1000
0000
0010
0000
0200
0000
0010
0000
0000
0000
0310
1000
0010
1000
,  // measure 33
0010
0000
0000
0100
0000
0000
0001
0000
0010
0000
0000
0000
1001
0000
0001
1000
,  // measure 34
0100
0000
1000
0000
0001
0000
0200
0000
0000
0000
0300
0000
0101
0000
0010
1000
,  // measure 35
0001
0000
0000
0100
0000
0000
0020
0000
0000
0000
0030
0000
1010
0000
1000
0001
,  // measure 36
0010
0001
1000
0200
0000
0300
1100
1000
,  // measure 37
0010
0000
0000
1000
0100
0000
2000
0000
0000
0000
3000
0000
1001
0000
0001
0010
,  // measure 38
0100
0000
0000
0010
0000
0000
0001
0000
0000
0200
0000
0000
0000
0000
0000
0300
0000
0000
0110
0000
0000
0010
1000
0010
,  // measure 39
0200
0000
0310
0020
0000
0030
1010
0000
,  // measure 40
0010
1000
0010
1000
0001
0010
0001
0010
0100
1000
0100
1000
0010
0000
0100
0001
,  // measure 41
1000
0100
1000
0001
0010
0100
1000
0010
0100
0010
1000
0100
0010
0001
0100
0000
,  // measure 42
0020
0000
0000
1030
0200
0001
0001
0000
,  // measure 43
0320
0000
0000
0031
2000
0010
0010
0000
,  // measure 44
3200
0000
0000
0310
0002
0100
0100
0000
,  // measure 45
0023
0000
0000
0001
0031
0100
0110
0000
,  // measure 46
2002
0000
0000
0000
,  // measure 47
3003
0000
0000
0000
;

//---------------dance-single - ----------------
#NOTES:
     dance-single:
     :
     Medium:
     4:
     0.230,0.239,0.121,0.242,0.000:
0000
0000
0000
0000
,
0000
0000
0000
0000
,
0000
0000
0000
0000
,
0000
0000
0000
0000
,
2000
0000
3010
1000
,
0002
0000
0103
0001
,
2000
0000
3001
1000
,
0020
0000
0130
0010
,
1001
0000
0010
0100
0000
0000
0001
0000
,
1100
0000
0010
0100
0000
0000
0001
0000
,
1000
0010
1000
0000
,
0010
0100
0001
0000
,
0101
0000
0010
0100
0000
0000
0010
0000
,
1001
0000
0100
0010
0000
0000
0001
0000
,
1000
0100
0010
0000
,
0001
0100
0010
0000
,
2002
0000
0000
3003
,
0202
0000
0000
0303
,
1000
0001
1000
0001
,
1000
0100
1000
0100
0000
0000
1000
0000
,
0202
0000
0000
0303
,
2002
0000
0000
3003
,
1000
0000
0010
0000
0100
0000
0001
1000
,
0001
1000
0100
0100
,
1000
0000
0001
0100
0000
0000
0001
0100
,
0000
0001
0010
0001
,
0100
0000
0010
0100
0000
0000
0010
0000
,
1000
0001
0010
1001
,
0001
0000
0010
0001
0000
0000
1000
0001
,
0000
0000
1000
0000
0100
1000
0100
1000
,
0000
0001
0000
0100
0001
0100
0001
1000
,
0000
0010
0000
1000
0000
0000
0100
0010
,
0200
0000
0000
0000
1300
0000
1000
0100
,
0020
0000
0001
0032
0000
0000
0003
1000
,
0200
0000
1300
0001
,
0200
0000
0000
0020
0000
0000
0000
0330
,
0110
0000
1001
0000
,
0001
1000
0100
0010
,
0011
0000
1001
0000
,
1000
0010
1000
0000
0001
0000
0010
0000
,
0001
1000
0001
0000
1000
0000
0100
1000
,
0002
0000
0000
0100
0203
0000
0000
0000
,
0320
0000
0000
1000
2030
0000
0000
0000
,
3002
0000
0000
1000
2003
0000
0000
0000
,
3020
0000
0000
0100
0230
0000
0010
0300
,
0220
0000
0000
0000
,
0330
0000
0000
0000
;

//---------------dance-single - ----------------
#NOTES:
     dance-single:
     :
     Beginner:
     1:
     0.101,0.159,0.026,0.017,0.000:
0000
0000
0000
0000
,
0000
0000
0000
0000
,
0000
0000
0000
0000
,
0000
0000
0000
0000
,
0010
0000
0000
0000
,
0100
0000
0000
0000
,
1000
0000
0000
0000
,
0100
0000
0000
0000
,
1000
0000
1000
0000
,
0010
0000
0010
0000
,
1000
0000
1000
0000
,
0001
0000
0001
0000
,
0010
0000
0010
0000
,
0001
0000
0001
0000
,
1000
0000
1000
0000
,
0010
0000
0010
0000
,
1001
0000
0000
0000
,
0010
0000
0000
0000
,
0001
0001
0001
0000
,
1000
1000
1000
0000
,
1001
0000
0000
0000
,
0100
0000
0000
0000
,
1000
0000
0001
0000
,
0100
0000
0000
0000
,
0010
0000
1000
0000
,
0010
0010
0010
0000
,
1000
0000
0100
0000
,
1000
1000
1000
0000
,
0001
0000
0010
0000
,
0001
0001
0001
0000
,
1000
0000
0010
0000
,
1000
0000
0100
0000
,
0100
0000
0010
0000
,
0010
0000
0010
0000
,
0010
0000
1000
0000
,
1000
0000
1000
0000
,
1000
0000
0001
0000
,
0010
0000
0001
0000
,
1000
0000
0100
0000
,
1000
1000
1000
0000
,
0010
0010
0010
0000
,
0100
0000
0000
0000
,
0010
0000
0000
0000
,
1000
0000
0000
0000
,
0001
0000
0000
0000
,
2002
0000
0000
0000
,
3003
0000
0000
0000
;

//---------------dance-single - ----------------
#NOTES:
     dance-single:
     :
     Easy:
     3:
     0.195,0.239,0.121,0.156,0.000:
0000
0000
0000
0000
,
0000
0000
0000
0000
,
0000
0000
0000
0000
,
0000
0000
0000
0000
,
2000
0000
3100
0000
,
2000
0000
3010
0000
,
2000
0000
3100
0000
,
2000
0000
3001
1000
,
1001
0000
0010
0000
,
1001
0000
0100
0000
,
1000
0100
1000
0000
,
0001
0100
0001
0000
,
0110
0000
0001
0000
,
0110
0000
1000
0000
,
0010
1000
0001
0000
,
0010
0001
1000
0000
,
1000
0100
1000
0010
,
0100
0001
0010
0001
,
1000
0000
0100
0000
,
0011
0000
1001
0000
,
0001
0100
0001
1000
,
0010
0100
0010
1000
,
0001
0000
0010
0001
,
0011
0011
1001
1001
,
1000
0000
0010
0000
,
1000
0001
0010
0001
,
0100
0000
0010
1000
,
0001
0000
1000
1001
,
0001
0010
0001
1000
,
0100
0000
1000
0010
,
0100
0010
1000
0001
,
0010
0001
1000
1000
,
2000
0000
3001
0100
,
0002
0000
0013
1001
,
0200
0000
0310
1000
,
0002
0000
0023
0000
,
0031
1000
0200
1000
,
1300
0001
0200
0010
,
0320
0000
1030
0001
,
0010
0001
1000
1001
,
0001
0100
0010
1000
,
0200
0000
1300
0001
,
0020
0000
0031
1000
,
0200
0000
1300
0010
,
0200
0000
0301
0010
,
2002
0000
0000
0000
,
3003
0000
0000
0000
;

//---------------dance-double - ----------------
#NOTES:
     dance-double:
     :
     Hard:
     8:
     0.420,0.457,0.337,0.208,0.121:
00000000
00000000
00000000
00000000
,
00000000
00000000
00000000
00000000
,
00000000
00000000
00000000
00000000
,
00000000
00000000
00000000
00000000
00000000
00000000
00011000
01001000
,
00020000
00000000
10030000
02000000
00100000
03000000
00110000
00000000
,
00020000
00000000
01030000
00002000
00010000
00003000
00010100
00000000
,
00002000
00000000
00003010
00000200
00000001
00000300
00001001
00000000
,
00000002
00000000
00001003
00000200
00000010
00000310
00000011
00000000
,
00001000
00000100
00000010
00001000
00000000
00010000
00100000
00000000
,
10000000
01000000
00100000
10000000
00000000
00010000
01000000
00000000
,
00100000
00001000
00010000
01000000
00100000
00001000
00010000
01000000
,
00000000
00000000
00100000
00000000
00001000
00000000
00000010
00000000
00000000
00000000
00000001
00001000
00000001
00000000
00000000
00000000
,
00000001
00000100
00000010
00000001
00000000
00001000
00000100
00000000
,
00000010
00001000
00000100
00000010
00000000
00001000
00010000
00000000
,
00010000
00001000
00000010
00000100
00010000
00001000
00000010
00000100
,
00000000
00000000
00000010
00000000
00001000
00000000
01000000
00000000
00000000
00000000
00100000
10000000
00100000
00000000
00000000
00000000
,
10000000
00010000
01010000
00100000
00000000
10000000
01100000
10000000
,
00100000
00010000
00011000
00000100
00000000
00000001
00000110
00001000
,
00000001
00000000
00000110
00000000
00001000
00010000
00011000
00000000
,
00010000
00000010
00000100
00010000
00000000
00000000
10100000
00000000
,
00010000
00100000
10010000
01000000
00000000
10000000
01010000
00100000
,
01000000
00001000
00011000
00010000
00000000
00000010
00010100
00001000
,
00000001
00000000
00001100
00000000
00000010
00000100
00010100
00010000
,
00002000
00000000
00003020
00000000
00000031
00000101
00000110
00000000
,
00000010
00001000
00000001
00000010
00000000
00000100
00001000
00000010
,
00010000
00000000
00000000
00001000
00000000
00000000
00100000
00000000
00000000
00000000
00010000
00000000
11000000
00000000
00000000
00000000
,
00100000
10000000
00010000
01000000
00100000
00010000
00001000
00000100
,
00000010
00000000
00000000
00001000
00000000
00000000
00000001
00000000
00000000
00000000
00000010
00000000
00001001
00000000
00000000
00000000
,
00000100
00000010
00000001
00001000
00000000
00000100
00000010
00000100
,
00010000
00000000
00011000
00000000
01002000
00100000
00010000
01000000
,
00003000
01001000
00000000
00011000
00020100
00000010
00000001
00000100
,
00030000
00000000
00010100
00000000
00010000
00000000
00011000
00000000
00000000
00000000
00000100
00000000
00010000
00001000
00100000
00010000
,
01000000
00000000
00000000
00100000
00000000
00000000
10010000
00000000
01000000
00000000
00000000
00000000
01100000
00000000
00100000
10000000
,
01000000
00000000
00010000
00000000
00002000
00000000
00000010
00000000
00010000
00000000
00003000
00000000
00011000
00000000
00001000
00000010
,
00000001
00000000
00000000
00000200
00000000
00000000
00001000
00000000
00000001
00000000
00000300
00000000
00000101
00000000
00000010
00010000
,
00001000
00010000
00200000
10000000
01000000
00300000
11000000
00010000
,
01000000
00000000
00000000
00100000
10000000
00000000
00020000
00000000
01000000
00000000
00030000
00000000
11000000
00000000
00100000
01000000
,
00001000
00000000
00000000
00010000
00000000
00000000
00000020
00000000
00000000
00000100
00000000
00000000
00001000
00000000
00000000
00000030
00000000
00000000
00001001
00000000
00000000
00000001
00000100
00000001
,
00000010
00000000
00000200
00001000
00001000
00000300
00001001
00000000
,
00000001
00000100
00000010
00000100
00000001
00001000
00000100
00000010
00000100
00001000
00000010
00010000
00000010
00000000
00010000
00001000
,
00100000
00001000
00010000
00100000
10000000
00100000
01000000
00010000
10000000
01000000
00100000
00010000
10000000
00000000
00100000
00000000
,
02000000
00000000
00000000
03010000
01000000
00001000
00000010
00000000
,
00000002
00000000
00000000
00001003
00000100
00010000
00100000
00000000
,
02000000
00000000
00000000
03100000
10000000
00010000
01000000
00000000
,
00002000
00000000
00000000
00013000
00000100
00000010
00000001
00000000
,
00002002
00000000
00000000
00000000
,
00003003
00000000
00000000
00000000
;

//---------------dance-double - ----------------
#NOTES:
     dance-double:
     :
     Medium:
     6:
     0.289,0.318,0.104,0.311,0.000:
00000000
00000000
00000000
00000000
,
00000000
00000000
00000000
00000000
,
00000000
00000000
00000000
00000000
,
00000000
00000000
00000000
00000000
00000000
00000000
10000000
10000000
,
00020000
00000000
01030000
00200000
00000000
00300000
10000000
00000000
,
00020000
00000000
01030000
00002000
00000000
00000000
00013000
00000000
,
00000200
00000000
00000310
00000002
00000000
00000000
00001003
00000000
,
00000020
00000000
00010030
00002000
00000000
00003000
00011000
00000000
,
00010000
00000000
00001000
01000000
00000000
00100000
10000000
00000000
,
00010000
00000000
00100000
01000000
00000000
00100000
00010000
00000000
,
10000000
00010000
10000000
00000000
00100000
01000000
00100000
00000000
,
10000000
00010000
01000000
00000000
00001000
00000000
00011000
00000000
,
00010000
00000000
00001000
00010000
00000000
00000010
00001000
00000000
,
00000001
00000000
00000010
00000001
00000000
00001000
00000100
00000000
,
00000010
00000001
00000010
00000000
00000100
00001000
00000100
00000000
,
00010000
00001000
00010000
00000000
00001000
00000000
00101000
00000000
,
00200000
00000000
00000000
00320000
00000000
00000000
01030000
00000000
,
00002000
00000000
00000000
00023000
00000000
00000000
00031000
00000000
,
01000000
00000000
00100000
00000000
10000000
01000000
00100000
00000000
,
01000000
10000000
00010000
01000000
00000000
00001000
00010000
00000000
,
00000200
00000000
00000000
00000320
00000000
00000000
00000031
00000000
,
00002000
00000000
00000000
00003200
00000000
00000000
00010300
00000000
,
00001000
00000000
00100000
00000000
00010000
01000000
00010000
10000000
,
02000000
00000000
23000000
00000000
30020000
01000000
02030000
00000000
,
03100000
00000000
01000000
00010000
00000000
00000000
00100000
00010000
,
00100000
00000000
00101000
00000000
00001000
00010000
00000100
00001000
,
00000010
00000000
00001000
00000100
00000000
00000010
00000000
00000100
,
00001000
00000010
00010000
00011000
,
00010000
00000000
00001000
01000000
00000000
00000000
00100000
10000000
,
00100000
00000000
10000000
00010000
01000000
00000000
00010000
00100000
,
00000000
00001000
00000000
00010000
00000100
00000000
00001000
00000010
,
00000000
00000100
00000001
00000100
00000010
00000000
00001000
00000000
,
00000200
00000000
00002300
00000010
,
00003200
00000000
00000000
00020000
00000300
00030000
00011000
00000000
,
00002000
00000000
00203000
00010000
,
02300000
00000000
00000000
20000000
00000000
00000000
33000000
00000000
,
20000000
00000000
00010000
00020000
30000000
00000000
01000000
00000000
,
00230000
00000000
00000000
00302000
00000000
00003000
00011000
00000000
,
00020000
00000000
00000000
00030020
00000000
00000000
00000130
00000000
,
00000010
00001000
00000001
00000010
00000001
00001000
00000100
00000000
,
00010000
00001000
00010000
00000000
00101000
00000000
00010000
01000000
,
00100000
00000000
00000000
10000000
01000000
00000000
10010000
00000000
,
00100000
00000000
00000000
01000000
00010000
00000000
00110000
00000000
,
00100000
00000000
00000000
00001000
00010000
00000000
00001100
00000000
,
00000100
00000000
00000000
00000010
00000001
00000000
00001000
00000000
,
00002002
00000000
00000000
00000000
,
00003003
00000000
00000000
00000000
;

//---------------dance-double - ----------------
#NOTES:
     dance-double:
     :
     Easy:
     4:
     0.214,0.239,0.190,0.190,0.000:
00000000
00000000
00000000
00000000
,
00000000
00000000
00000000
00000000
,
00000000
00000000
00000000
00000000
,
00000000
00000000
00000000
00000000
,
00010000
00000000
00000000
01000000
00000000
00000000
00010000
00000000
,
00100000
00000000
00000000
00001000
00000000
00000000
00010000
00000000
,
00001000
00000000
00000000
01000000
00000000
00000000
00100000
00000000
,
10000000
00000000
00000000
01000000
00000000
00000000
00000000
00000000
,
10000000
00010000
01000000
00100000
,
10000000
01000000
10000000
00000000
,
00100000
00010000
01000000
00000000
,
00001000
00010000
00000100
00000000
,
00000001
00001000
00000100
00001000
,
00000010
00000100
00000001
00000000
,
00000010
00000001
00001000
00000000
,
00000100
00010000
00001000
00000000
,
00220000
00000000
00330000
00100000
,
00022000
00000000
00033000
00001000
,
00020200
00000000
00030300
00000100
,
00000010
00000001
00000010
00000001
00000000
00000000
00000100
00000000
,
00002020
00000000
00003030
00000010
,
00020200
00000000
00030300
00010000
,
00202000
00000000
00303000
00001000
,
00100000
00001000
01000000
00100000
,
10000000
01000000
00100000
00010000
,
01000000
00001000
00010000
00011000
,
00001000
00010000
00000010
00000100
,
00000001
00001000
00000100
00000110
,
00000010
00000001
00001000
00000100
,
00010000
00000000
00001000
00000000
00200000
00000000
00000000
00320000
,
00000000
00000000
01030000
00000000
00200000
00000000
00000000
20300000
,
00000000
31000000
00100000
00010000
,
10010000
00000000
00000000
01000000
00000000
00000000
00010000
00000000
,
00100000
00000000
00000000
00011000
00000000
00000000
00010100
00000000
,
00010100
00000000
00000000
00001000
00000000
00000000
00000010
00000000
,
00000100
00000000
00000000
00001001
00000000
00000000
00000010
00000000
,
00001100
00000000
00000000
00001010
00000000
00000000
00001100
00000000
,
00001100
00000000
00000000
00010100
00000000
00000000
00000000
00000000
,
00011000
00000000
00000000
00101000
00000000
00000000
00110000
00000000
,
00010000
01000000
00100000
10000000
,
00010000
01000000
10000000
00010000
,
00200000
00000000
10300000
00010000
,
02000000
00000000
03001000
01000000
,
00020000
00000000
00130000
00001000
,
00020000
00000000
00030010
00001000
,
00020200
00000000
00000000
00000000
,
00030300
00000000
00000000
00000000
;
