#TITLE:Haven;
#SUBTITLE:;
#ARTIST:SGX;
#TITLETRANSLIT:;
#SUBTITLETRANSLIT:;
#ARTISTTRANSLIT:;
#GENRE:;
#CREDIT:;
#MENUCOLOR:;
#METERTYPE:DDR;
#BANNER:Haven-bn.png;
#BACKGROUND:Haven-bg.png;
#LYRICSPATH:;
#CDTITLE:ddrencorecdtitle.png;
#MUSIC:Haven.mp3;
#OFFSET:-0.030;
#SAMPLESTART:80.284;
#SAMPLELENGTH:13.521;
#SELECTABLE:YES;
#LISTSORT:;
#BPMS:0.000=142.000;
#STOPS:;
#BGCHANGES:;
#ATTACKS:;

//---------------dance-single - ----------------
#NOTES:
     dance-single:
     :
     Hard:
     8:
     0.488,0.507,0.153,0.261,0.041:
0000
0000
0000
0000
,
0000
0000
0000
0000
,
0000
0000
0000
0000
,
0000
0000
0000
0000
,
0000
0000
0000
0000
1000
0010
0100
0010
,
1000
0001
0100
0000
0001
0000
0101
0000
,
0100
0010
1000
0000
0001
0010
0001
1000
,
0100
0010
0001
0000
1000
0010
0001
0010
,
1000
0100
0001
0100
2000
0000
3010
0010
,
0010
0000
0000
0000
0000
0100
0002
0000
,
0000
0003
1001
0000
2100
0000
0000
0000
,
0000
0000
0001
0000
,
0000
0000
0000
3000
2000
0000
3010
0010
,
0010
0000
0000
0000
0000
1000
0200
0000
,
0000
0300
1100
0000
0012
0000
0000
0000
,
0000
0000
1000
0000
,
0000
0000
0000
0003
1001
0000
1000
0010
,
0001
0000
0010
0000
0110
0000
0100
0100
,
0001
0010
0100
0000
1000
0001
0100
0001
,
2000
0000
3020
0000
2030
0000
3100
0010
,
0001
0100
1000
0100
0010
0000
1000
0100
,
0001
0000
0100
0000
1100
0000
1000
1000
,
0001
0100
0010
0000
1000
0001
0010
0100
,
2000
0000
3002
0000
0203
0000
0310
1000
,
0001
0100
1000
0100
0010
1000
0100
0010
,
1000
0000
0010
0001
0100
0000
0010
0010
,
1000
0010
0100
0000
0001
1000
0100
1000
,
0000
1010
0000
0110
0000
0101
0001
1000
,
0001
0010
1000
0010
0001
1000
0010
0100
,
1000
0000
0100
0001
1000
0000
0100
0100
,
0010
0001
0010
0000
0100
1000
0001
0100
,
0000
0000
0110
0000
0000
0000
0101
0000
0001
1000
0001
0000
0001
0000
1000
0001
,
1000
1000
0001
0010
0200
0000
0000
0000
,
0000
1000
0001
0310
,
0110
0000
1001
0001
0100
0010
1000
0100
,
0020
0000
0130
1000
0001
0100
0010
1000
,
0020
0000
0130
0001
1000
0100
0010
0100
,
2000
0000
3001
0100
0010
1000
0010
0100
,
0002
0000
1003
0100
0010
0001
0100
0010
,
2000
0000
3010
0100
0001
0010
0100
1000
,
0002
0000
1003
0100
0010
0001
0100
0010
,
0200
0000
0301
1000
0100
1000
0010
0100
,
0002
0000
1003
0010
0100
1000
0100
0010
,
2000
0000
3001
0010
0100
0001
0100
0010
,
0002
0000
1003
0010
0001
0010
0100
0001
,
2000
0000
3001
0010
1000
0010
0001
0100
,
0020
0000
1030
0001
1000
0100
0001
0010
,
0001
0000
0100
0000
1000
0001
1000
0000
0001
0000
0000
0001
0100
0000
0010
0000
,
0001
0000
0010
0100
0001
1000
0100
1000
,
0001
0000
0100
0000
0010
0000
0000
0000
1000
0000
0000
1000
0010
0000
0100
0000
,
1000
0000
0100
0001
1000
0100
0010
0001
,
1000
0000
0001
0000
0100
0000
0000
0000
0010
0000
0000
0010
1000
0000
0010
0000
,
0001
0000
0010
0100
0001
1000
0100
1000
,
0001
0000
0010
0000
0100
0000
0000
0000
1000
0000
0000
0001
1000
0000
0100
0000
,
0001
0000
0100
0010
0001
1000
0010
0100
,
0010
1000
0010
0000
0100
0000
0001
1000
,
0100
0010
0001
0000
1000
0000
0001
0100
,
0010
0100
0001
0000
1000
0000
0100
0000
,
0001
0010
1000
0010
,
0001
0000
0000
0000
0100
0000
0000
0000
1000
0000
0001
1000
0001
0000
0000
0001
,
0200
0000
0020
0330
2002
0000
0000
0000
,
0000
0000
0000
0000
,
0000
3003
1001
0000
;

//---------------dance-single - ----------------
#NOTES:
     dance-single:
     :
     Medium:
     5:
     0.374,0.394,0.090,0.405,0.000:
0000
0000
0000
0000
,
0000
0000
0000
0000
,
0000
0000
0000
0000
,
0000
0000
0000
0000
,
0000
0000
0000
0000
0001
1000
0001
0000
,
0100
0110
0010
1000
,
0001
0000
0010
0000
0100
1000
0100
0000
,
2000
0000
3001
0000
0100
0010
0100
0000
,
0010
0100
0010
0000
0201
0000
0001
0000
,
0301
0000
0000
0000
0000
1000
0200
0000
,
0000
1000
0320
0000
,
0000
0000
0002
0000
,
0000
0033
0001
1000
,
0010
0000
0000
0000
0000
0100
0002
0000
,
0000
1000
0203
0000
,
0000
0000
0020
0000
,
0000
0000
0330
0000
0110
0000
0010
1000
,
0010
0000
0100
0000
0001
0000
1000
0001
,
0100
0001
1000
0100
,
0020
0032
0023
0230
,
2300
0000
3002
0000
0103
0000
0010
1000
,
0010
0000
0100
0000
0001
0000
1000
0001
,
0010
0100
1000
0010
,
0200
0302
2003
3020
,
0230
0000
0302
0000
1003
0000
0100
0010
,
0001
0000
1000
0000
0001
0000
1000
0010
,
0200
0301
1000
0100
,
0010
0001
1000
0010
,
0200
0000
0301
0000
1000
0000
0100
1000
,
0001
0000
0100
0000
0010
0000
0100
0001
,
1000
0100
0010
0001
,
1000
0000
0001
0000
0100
0010
0100
0000
,
0010
0100
0010
0000
0200
0000
0000
0000
,
0000
0001
1000
0301
,
1001
0000
1001
0000
0001
0000
1000
0100
,
2000
0000
3001
0000
0100
0000
0010
1000
,
0020
0000
0130
0000
0001
0000
0010
0001
,
0020
0000
0130
0000
1000
0000
0001
0100
,
0002
0000
0103
0000
0010
0000
1000
0001
,
2000
0000
3001
0000
0010
0000
0100
1000
,
0200
0000
1300
0000
0001
0000
0100
0010
,
0200
0000
0310
0000
1000
0000
0001
0010
,
0002
0000
1003
0000
0001
0000
0100
0010
,
0200
0000
0310
0000
1000
0000
0010
1000
,
0020
0000
0130
0000
0001
0000
1000
0100
,
2000
0000
3100
0000
0010
0000
0001
0010
,
0002
1003
2002
0000
,
0000
0000
3003
0000
1001
0000
0001
0100
,
0001
0100
0010
1000
,
0002
0000
1003
0000
0100
0000
0010
0001
,
0010
0100
1000
0001
,
0200
0000
0310
0000
1000
0000
0001
0010
,
0100
1000
0001
0100
,
0002
0000
1003
0000
0100
0000
0010
0001
,
0010
0100
1000
0001
,
2000
0000
3010
0000
0100
0000
0001
1000
,
0200
0310
0001
1000
,
0002
1003
0001
0010
,
1000
0010
0001
0100
,
1000
0000
0100
0000
0001
1000
0100
0000
,
0011
1001
2020
0000
,
0000
0000
0000
0000
,
0000
0000
3030
0000
;

//---------------dance-single - ----------------
#NOTES:
     dance-single:
     :
     Easy:
     3:
     0.193,0.218,0.126,0.000,0.000:
0000
0000
0000
0000
,
0000
0000
0000
0000
,
0000
0000
0000
0000
,
0000
0000
0000
0000
,
0000
0000
1001
0000
,
0001
0000
1000
0000
,
0100
0000
1000
0000
,
0001
0000
0100
0010
,
0100
0010
1000
0000
,
0001
0000
0000
1001
,
0000
0001
0100
0000
,
0000
0000
0010
0000
,
0000
0000
1000
0000
,
0100
0000
0000
0011
,
0000
0001
1000
0000
,
0000
0000
0010
0000
,
0000
0000
0100
0000
,
0001
0000
1000
0000
,
1001
0000
0001
0000
,
0010
0000
0100
0000
,
1000
0010
0100
0000
,
0001
0000
1000
0000
,
1001
0000
0001
0000
,
1000
0000
0100
0010
,
0100
1000
0001
0000
,
0100
0000
0010
0000
,
1010
0000
1000
0000
,
0001
0000
0010
0000
,
0100
1000
0010
0000
,
0100
0000
0001
0000
,
0101
0000
0001
0000
,
1000
0000
0100
0100
,
0100
1000
0001
0000
,
0000
1000
0001
1000
,
0010
0100
0001
1000
,
0100
0000
1000
0001
,
0100
0000
0010
1000
,
0010
0000
0100
0001
,
0100
0000
0001
0010
,
0001
0000
1000
0100
,
1000
0000
0001
0010
,
0100
0000
1000
0100
,
0010
0000
0001
0100
,
0010
0000
1000
0010
,
0100
0000
0001
1000
,
0001
0000
1000
0001
,
1000
0000
1001
0000
,
0000
0000
0001
0010
,
0100
0000
1000
0000
,
1001
0000
0001
0100
,
0010
0000
1000
0000
,
1001
0000
0001
0010
,
0100
0000
1000
0000
,
1010
0000
0010
0100
,
0001
0000
1000
0000
,
1001
0000
0001
0010
,
0100
0000
0010
0000
,
0110
0000
0100
0000
,
1000
0000
0010
0000
,
0100
0000
0001
1000
,
0001
0000
1001
0000
;

//---------------dance-single - ----------------
#NOTES:
     dance-single:
     :
     Beginner:
     1:
     0.130,0.136,0.117,0.000,0.000:
0000
0000
0000
0000
,
0000
0000
0000
0000
,
0000
0000
0000
0000
,
0000
0000
0000
0000
,
0000
0000
1001
0000
,
0000
0000
0001
0000
,
0000
0000
0100
0000
,
0000
0000
0010
0000
,
0010
0000
0110
0000
,
0100
0000
0000
0001
,
0000
0000
1000
0000
,
0000
0000
0100
0000
,
0000
0000
1000
0000
,
1000
0000
0000
0010
,
0000
0000
0100
0000
,
0000
0000
0001
0000
,
0000
0000
1000
0000
,
0001
0000
0000
0000
,
1001
0000
0000
0000
,
0001
0000
0100
0000
,
0010
0000
1000
0000
,
0001
0000
0000
0000
,
1001
0000
0000
0000
,
1000
0000
0100
0000
,
0010
0000
0001
0000
,
0100
0000
0000
0000
,
0110
0000
0000
0000
,
0010
0000
1000
0000
,
0010
0000
0100
0000
,
0001
0000
0000
0000
,
1001
0000
0000
0000
,
0001
0000
1000
0000
,
0100
0000
1000
0000
,
0000
0001
0001
0001
,
0000
0000
0100
0000
,
0010
0000
0100
0000
,
0010
0000
1000
0000
,
0001
0000
1000
0000
,
0001
0000
0010
0000
,
0100
0000
0010
0000
,
0100
0000
1000
0000
,
0010
0000
1000
0000
,
0010
0000
0100
0000
,
0001
0000
0100
0000
,
0001
0000
1000
0000
,
0100
0000
1000
0000
,
0100
0000
0110
0000
,
0000
0000
0010
0000
,
0001
0000
0000
0000
,
1001
0000
0001
0000
,
0100
0000
0000
0000
,
0110
0000
0010
0000
,
1000
0000
0000
0000
,
1001
0000
0001
0000
,
0010
0000
0000
0000
,
0110
0000
0100
0000
,
1000
0000
0000
0000
,
1001
0000
0001
0000
,
0000
0000
0100
0000
,
0000
0000
0010
0000
,
1000
0000
1001
0000
;

//---------------dance-double - ----------------
#NOTES:
     dance-double:
     :
     Medium:
     6:
     0.367,0.394,0.216,0.198,0.000:
00000000
00000000
00000000
00000000
,
00000000
00000000
00000000
00000000
,
00000000
00000000
00000000
00000000
,
00000000
00000000
00000000
00000000
,
00000000
00000000
00000000
00000000
10000000
00010000
10000000
00010000
,
01000000
00100000
01000000
00001000
,
00010000
00000100
00000010
00000001
,
00000100
00000000
00000010
00000000
00010000
00001000
00010000
00001000
,
00010000
00001000
00012000
01000000
,
01003000
00000000
00000000
00000000
00000000
00100000
10000000
00000000
,
00000000
10010000
00210000
00000000
,
00000000
00000000
00002000
00000000
,
00000000
00303000
00021000
00000100
,
00030100
00000000
00000000
00000000
00000000
00001000
00000001
00000000
,
00000000
00001001
00000201
00000000
,
00000000
00000000
00000020
00000000
,
00000000
00000000
00000330
00000000
00000110
00000000
00000100
00000001
,
00000010
00000100
00010000
00001000
,
00011000
00000000
00001000
00000000
01000000
00100000
01000000
00000000
,
00010000
00100000
01000000
10000000
,
00010000
00000000
01000000
00000000
00001000
00000000
00010000
00001000
,
00010000
00000100
00000010
00000001
,
00001001
00000000
00000001
00000000
00000100
00000010
00001000
00000000
,
00000100
00010000
00001000
01000000
,
00100000
00000000
10000000
00000000
00010000
00000000
10000000
01000000
,
00100000
00010000
01000000
00001000
,
00011000
00000000
00010000
00000000
00000100
00001000
00000100
00000000
,
00001000
00000001
00000100
00000010
,
00001000
00000100
00010000
00000000
00001000
00000000
01000000
00001000
,
01000000
00010000
10000000
01000000
,
01100000
00000000
00100000
00000000
00010000
10000000
00010000
00000000
,
01000000
00000000
00001000
00000000
00010000
00001000
00010000
00000000
,
00001000
01000000
00100000
00000000
,
00000000
10010000
01010000
01001000
,
00011000
00000000
00011000
00000000
00001000
00000000
00100000
00001000
,
00200000
00000000
00301000
00000000
00010000
00000000
00000100
00001000
,
00000200
00000000
00001300
00000000
00000001
00000000
00000100
00000010
,
00000200
00000000
00000310
00000000
00001000
00000000
00000100
00010000
,
00000200
00000000
00010300
00000000
00001000
00000000
01000000
00001000
,
02000000
00000000
03100000
00000000
10000000
00000000
00010000
00100000
,
00020000
00000000
00130000
00000000
01000000
00000000
10000000
00010000
,
20000000
00000000
30010000
00000000
01000000
00000000
00001000
00010000
,
00002000
00000000
00013000
00000000
00000100
00000000
00001000
00000100
,
00002000
00000000
00003001
00000000
00000100
00000000
00000010
00001000
,
00000020
00000000
00000130
00000000
00000001
00000000
00001000
00000001
,
00002000
00000000
00003001
00000000
00000010
00000000
00000100
00000010
,
00000200
00010300
00022000
00000000
,
00000000
00000000
00033000
00000000
00001000
00010000
00001000
00100000
,
00010000
10000000
00100000
01000000
,
01010000
00000000
00010000
00000000
00100000
00001000
00010000
00000100
,
00001000
00000001
00000100
00000010
,
00000110
00000000
00000100
00000000
00000001
00000010
00000100
00000010
,
00000001
00000100
00000010
00010000
,
00011000
00000000
00001000
00000000
00100000
00010000
00100000
01000000
,
00100000
00010000
10000000
00100000
,
01100000
00000000
01000000
00000000
00010000
00000000
10000000
01000000
,
00100000
00010000
00100000
00001000
,
00011000
00010000
00000010
00000100
,
00000001
00000010
00000100
00010000
,
00001000
00010000
00011000
00001000
,
01000000
00100000
02200000
00000000
,
00000000
00000000
00000000
00000000
,
00000000
00000000
03300000
00000000
;

//---------------dance-double - ----------------
#NOTES:
     dance-double:
     :
     Easy:
     3:
     0.210,0.225,0.126,0.171,0.000:
00000000
00000000
00000000
00000000
,
00000000
00000000
00000000
00000000
,
00000000
00000000
00000000
00000000
,
00000000
00000000
00000000
00000000
,
00000000
00000000
00001001
00000000
,
00000001
00000000
00000100
00000000
,
00000010
00000000
00001000
00000000
,
00000100
00000000
00010000
00001000
,
00010000
00000000
00011000
00000000
,
00000000
00000000
00000000
00001000
,
00000000
00100000
00020000
00000000
,
00000000
00000000
20030000
00000000
,
00000000
00000000
30100000
00000000
,
00000000
00000000
00000000
01000000
,
00000000
00010000
00200000
00000000
,
00000000
00000000
00302000
00000000
,
00000000
00000000
00013000
00010000
,
00000100
00000000
00001000
00000000
,
00002001
00000000
00003001
00000000
,
00000100
00000000
00000010
00000000
,
00001000
00000000
00000100
00000010
,
00000001
00000000
00001000
00000000
,
00002001
00000000
00003001
00000000
,
00000100
00000000
00000010
00000000
,
00001000
00000000
00000100
00010000
,
00001000
00000000
00010000
00000000
,
00021000
00000000
00031000
00000000
,
00100000
00000000
00010000
00000000
,
10000000
00000000
00100000
10000000
,
00100000
00000000
01000000
00000000
,
01200000
00000000
01300000
00000000
,
00010000
00000000
00100000
00100000
,
00001000
00000000
00022000
00000000
,
00033000
00010000
00001000
00010000
,
00000000
00000000
00001000
00010000
,
00001000
00000000
00010000
00000100
,
00010000
00000000
00000100
00000010
,
00000100
00000000
00000010
00000001
,
00000010
00000000
00000001
00001000
,
00000001
00000000
00001000
00000010
,
00001000
00000000
00000010
00010000
,
00000010
00000000
00010000
00001000
,
00010000
00000000
00001000
00100000
,
00001000
00000000
00100000
01000000
,
00100000
00000000
01000000
10000000
,
01000000
00000000
10000000
00010000
,
10000000
00000000
20020000
00000000
,
00000000
30030000
10000000
00100000
,
01000000
00000000
00010000
00000000
,
10020000
00000000
10030000
01000000
,
00100000
00000000
00001000
00000000
,
00012000
00000000
00013000
00000100
,
00001000
00000000
00000001
00000000
,
00002001
00000000
00003001
00000100
,
00000010
00000000
00001000
00000000
,
00001020
00000000
00001030
00000100
,
00010000
00000000
00001000
00000000
,
00021000
00000000
00031000
00000000
,
00100000
00000000
00010000
00000000
,
10000000
00000000
00100000
01000000
,
00010000
00000000
20020000
00000000
,
00000000
00000000
00000000
00000000
,
00000000
00000000
30030000
00000000
;

//---------------dance-double - ----------------
#NOTES:
     dance-double:
     :
     Hard:
     9:
     0.558,0.563,0.252,0.324,0.149: // measure 1
00000000
00000000
00000000
00000000
00001000
00100000
00010000
01000000
,  // measure 2
00100000
10000000
01000000
00000000
00110000
00000000
00001100
00000000
,  // measure 3
00001001
00000001
00000100
00000000
00000010
00001000
00000100
00010000
,  // measure 4
00000100
00001000
00000010
00000000
00000100
00000001
00000010
00000100
,  // measure 5
00010000
00001000
00010000
00000000
00011000
00000000
00000000
00000000
00001000
00000000
01000000
00000000
00100000
00000000
10000000
00000000
,  // measure 6
01000000
00100000
00010000
00000000
10000000
00100000
00010000
00000000
,  // measure 7
00100000
01000000
00010000
00000000
00100000
00001000
00010000
00000010
,  // measure 8
00000100
00000001
00000010
00000000
00001100
00000000
00001001
00000000
,  // measure 9
00001010
00000010
00010000
00000000
00021000
00000000
00001000
00001000
,  // measure 10
00031000
00000000
00000000
00000000
00100000
01000000
10000000
00000000
,  // measure 11
10000000
10100000
01002000
00000000
,  // measure 12
00000000
00000000
00020000
00000000
,  // measure 13
00000000
00000000
00033000
00000000
00020100
00000000
00000100
00000100
,  // measure 14
00030100
00000000
00000000
00000000
00001000
00000100
00000010
00000000
,  // measure 15
00000001
00001001
00001020
00000000
,  // measure 16
00000000
00000000
00000200
00000000
,  // measure 17
00000000
00000000
00000330
00000000
00000100
00000001
00000010
00001000
,  // measure 18
00000010
00000100
00001000
00000000
00000001
00000000
00001001
00001001
,  // measure 19
00000200
00000000
00000310
00000000
00001000
00000100
00001000
00000000
,  // measure 20
00000200
00000000
00020300
00000000
00032000
00000000
01003000
00010000
,  // measure 21
00100000
00010000
01000000
00000000
00100000
10000000
01000000
00010000
,  // measure 22
01000000
00000000
00100000
00000000
00010000
00000000
10010000
10010000
,  // measure 23
20000000
00000000
30100000
00000000
01000000
00010000
01000000
00000000
,  // measure 24
00020000
00000000
00230000
00000000
00302000
00000000
00013000
00000010
,  // measure 25
00000100
00000010
00001000
00000000
00001001
00000001
00000010
00001000
,  // measure 26
00000010
00000000
00000000
00000000
00000100
00000000
00001000
00000000
00000010
00000000
00000000
00000000
00000100
00000001
00000100
00000000
,  // measure 27
00000001
00000010
00001000
00000010
00000000
00000100
00001000
00000001
,  // measure 28
00000000
00000000
00000001
00000000
00000100
00000000
00000010
00000000
00010000
00001000
00010000
00000000
00001000
00000000
00100000
00000000
,  // measure 29
02000000
00000000
23000000
00000000
30010000
00010000
01000000
00100000
,  // measure 30
00000000
01010000
00000000
00010000
00100000
00000000
00011000
00011000
,  // measure 31
00001000
00010000
00000010
00000000
00000100
00000001
00000000
00001100
,  // measure 32
00000000
00000000
00000100
00000000
00000000
00000000
00010000
00000000
00001000
00010000
00001000
00000000
00010000
00000000
00001000
00010000
,  // measure 33
00001000
00010000
00001000
00010000
00012000
00000000
00000000
00000000
,  // measure 34
00000000
01000000
00100000
01000000
,  // measure 35
00010000
00000000
00000000
00000000
00013000
00000000
00000000
00000000
00001000
00010000
00000000
00010000
00001000
00000000
01000000
00000000
,  // measure 36
00200000
00000000
00000000
00000000
10300000
00000000
01000000
00000000
00100000
00010000
00000000
00010000
10000000
00000000
00010000
00000000
,  // measure 37
02000000
00000000
00000000
00000000
03100000
00000000
10000000
00000000
00010000
00100000
00000000
00100000
00001000
00000000
00010000
00000000
,  // measure 38
00002000
00000000
00000000
00000000
00013000
00000000
00000010
00000000
00000100
00000001
00000000
00000001
00000010
00000000
00000100
00000000
,  // measure 39
00002000
00000000
00000000
00000000
00003100
00000000
00000010
00000000
00000001
00000100
00000000
00000100
00000010
00000000
00010000
00000000
,  // measure 40
00002000
00000000
00000000
00000000
00013000
00000000
00001000
00000000
01000000
00100000
00000000
00100000
01000000
00000000
00010000
00000000
,  // measure 41
00200000
00000000
00000000
00000000
01300000
00000000
10000000
00000000
00010000
01000000
00000000
01000000
00010000
00000000
00100000
00000000
,  // measure 42
02000000
00000000
00000000
00000000
13000000
00000000
00010000
00000000
01000000
00001000
00000000
00001000
00010000
00000000
00000100
00000000
,  // measure 43
00002000
00000000
00000000
00000000
00003010
00000000
00000100
00000000
00000001
00000010
00000000
00000100
00001000
00000000
00000010
00000000
,  // measure 44
00000200
00000000
00000000
00000000
00000310
00000000
00001000
00000000
00000100
00000010
00000000
00000001
00000100
00000000
00000010
00000000
,  // measure 45
00002000
00000000
00000000
00000000
00003100
00000000
00010000
00000000
00001000
00100000
00000000
00010000
00100000
00000000
01000000
00000000
,  // measure 46
20000000
00000000
00000000
00000000
30100000
00000000
01000000
00000000
00010000
00100000
00000000
01000000
10000000
00000000
00100000
00000000
,  // measure 47
02000000
00000000
00000000
00000000
03010000
00000000
10000000
00000000
00100000
01000000
00100000
01000000
00100000
00000000
00000000
00000000
,  // measure 48
10010000
00010000
00101000
00000000
00011000
00010000
00001000
00100000
,  // measure 49
00010000
01000000
00100000
10000000
01000000
00000000
00100000
00001000
,  // measure 50
00020000
00001000
00031000
00000000
00010000
00000010
00000100
00000001
,  // measure 51
00000010
00000100
00001000
00000010
00000100
00000000
00000010
00001000
,  // measure 52
00000200
00000010
00000310
00000000
00000100
00001000
00000001
00000100
,  // measure 53
00000010
00000100
00000001
00000010
00000100
00000000
00001000
00000001
,  // measure 54
00002000
00000001
00003001
00000000
00000001
00000010
00000100
00010000
,  // measure 55
00001000
01000000
00100000
10000000
01000000
00000000
10000000
00010000
,  // measure 56
00200000
00010000
00310000
00000000
10000000
00010000
01000000
00100000
,  // measure 57
10000000
01000000
00100000
00010000
01000000
00000000
00010000
00100000
,  // measure 58
02000000
10000000
13000000
00000000
10000000
00000000
01000000
00000000
,  // measure 59
00100000
00010000
00001000
00000100
,  // measure 60
00000010
00000000
00000000
00000000
00000001
00000000
00000000
00000000
00001001
00000000
00000001
00000010
00000100
00000000
00000000
00000100
,  // measure 61
00010000
00001000
00022000
00000000
,  // measure 62
00000000
00000000
00000000
00000000
,  // measure 63
00000000
00000000
00033000
00000000
;
