#TITLE:Happy Man;
#SUBTITLE:;
#ARTIST:Mutsuhiko Izumi;
#TITLETRANSLIT:;
#SUBTITLETRANSLIT:;
#ARTISTTRANSLIT:;
#GENRE:;
#CREDIT:;
#MENUCOLOR:;
#METERTYPE:DDR;
#BANNER:Happy Man-bn.png;
#BACKGROUND:Happy Man-bg.png;
#LYRICSPATH:;
#CDTITLE:ddrencorecdtitle.png;
#MUSIC:Happy Man.mp3;
#OFFSET:-0.435;
#SAMPLESTART:15.140;
#SAMPLELENGTH:10.665;
#SELECTABLE:YES;
#LISTSORT:;
#BPMS:0.000=180.000;
#STOPS:;
#BGCHANGES:;
#ATTACKS:;

//---------------dance-single - ----------------
#NOTES:
     dance-single:
     :
     Beginner:
     1:
     0.153,0.211,0.054,0.000,0.000:
0000
0000
0000
0000
,
0000
0000
0000
0000
,
0000
0000
0000
0000
,
0000
0000
0000
0000
,
0000
0000
0000
0000
,
0010
0000
0000
0000
,
0100
0000
0010
0000
,
1000
0000
0000
0000
,
1000
0000
0000
0000
,
0001
0000
0000
0000
,
0100
0000
0000
0000
,
0100
0000
0000
0001
,
0001
0000
0100
0000
,
0001
0000
0000
1000
,
1000
0000
0010
0000
,
1000
0000
0000
0000
,
0001
0000
0000
0000
,
1001
0000
0000
0000
,
0010
0000
0100
0000
,
0001
0000
0000
1000
,
1000
0000
0010
0000
,
1000
0000
0000
0001
,
0001
0000
0010
0000
,
0001
0000
0000
0000
,
1000
0000
0000
0000
,
1001
0000
0000
0000
,
0010
0000
0100
0000
,
0001
0000
1000
0000
,
0001
0000
0010
0000
,
0001
0000
1000
0000
,
0010
0000
1001
0000
,
0010
0000
0100
0000
,
0001
0000
1000
0000
,
0001
0001
0001
0000
,
1000
1000
1000
0000
,
0010
0000
0000
0000
,
0010
0000
0000
0000
,
0100
0000
0000
0000
,
0100
0000
0001
0000
,
1000
0000
0000
0000
,
1000
0000
0000
0000
,
0001
0000
0000
0000
,
0001
0000
0000
0000
,
1000
0000
0000
0000
,
0010
0000
0000
0000
,
1000
0000
0000
0001
,
0001
0000
1000
0000
,
0001
0000
0000
1000
,
1000
0000
0001
0000
,
1000
0000
0000
0000
,
0001
0000
0000
0000
,
0001
0000
1000
0000
,
0010
0000
1001
0000
;

//---------------dance-single - ----------------
#NOTES:
     dance-single:
     :
     Easy:
     4:
     0.316,0.320,0.067,0.188,0.000:
0000
0000
0000
0000
,
0000
0000
0000
0000
,
0000
0000
0000
0000
,
0000
0000
0000
0000
,
0000
0000
0000
0000
,
1000
0000
0001
0000
,
1000
0000
0010
0100
,
0001
0000
1000
0000
,
0001
0000
1000
0100
,
1000
0010
0100
0001
,
1000
0001
0010
0100
,
2000
0000
0000
0001
0000
0000
3001
0000
,
0000
0100
0000
1000
,
0002
0000
0000
1000
0000
0000
1003
0000
,
0000
0010
0000
0001
,
1000
0010
0010
0100
,
0001
1000
1000
0010
,
0200
0000
0320
0000
,
1030
0001
1001
0000
,
0002
0000
0000
1000
0000
0000
1003
0000
,
0000
0010
0000
0001
,
2000
0000
0000
0001
0000
0000
3001
0000
,
0000
0100
0000
1000
,
0001
0100
0100
0010
,
1000
0001
0001
0010
,
0200
0000
0320
0000
,
0031
1000
1001
0000
,
1000
0000
0000
1000
0000
0000
1000
0000
,
0000
1000
0000
0000
1000
0000
0010
0000
,
0100
0000
0000
0100
0000
0000
0100
0000
,
0000
0100
0000
0000
1001
0000
0000
0000
,
0001
0000
0000
0001
0000
0000
0001
0000
,
0000
0001
0000
0000
0001
0000
0010
0000
,
0100
1000
0010
0001
,
0010
1000
1001
0000
,
0001
0010
0100
0010
,
0001
1000
0010
0010
,
1000
0001
0100
0001
,
0010
0100
1000
0000
,
1000
0010
0100
0010
,
1000
0001
0010
0010
,
0001
0100
0010
1000
,
0001
0100
0001
0000
,
1000
0000
0010
0000
,
1000
0000
0001
1000
,
0002
0000
0000
1000
0000
0000
1003
0000
,
0000
0010
0000
0001
,
2000
0000
0000
0001
0000
0000
3001
0000
,
0000
0100
0000
1000
,
0010
0100
0100
0001
,
1000
0010
0010
1000
,
0002
0000
2003
0000
,
3010
0100
2002
0000
,
3003
0000
0000
0000
;

//---------------dance-single - ----------------
#NOTES:
     dance-single:
     :
     Medium:
     6:
     0.424,0.462,0.174,0.349,0.000:
0000
0000
0000
0000
,
0000
0000
0000
0000
,
0000
0000
0000
0000
,
0000
0000
0000
0000
,
0000
0000
0000
0000
,
1000
0000
0001
0000
,
0010
0000
0000
0001
0000
1000
0000
0000
,
0010
0000
1000
0000
,
0001
0000
0000
1000
0000
0000
0001
0000
,
0100
0010
1000
0001
,
1000
0000
0010
0000
1000
0100
1000
0010
,
2000
0000
0000
3020
0000
0000
0230
0000
,
0000
0000
0301
0000
0100
0001
0100
0001
,
0200
0000
0000
0320
0000
0000
2030
0000
,
0000
0000
3001
0000
1000
0001
0100
0000
,
0001
0000
0001
1000
0000
1000
0001
0000
,
0100
0000
0100
0010
0000
0010
0100
0000
,
0002
0000
2003
0000
,
3010
1000
1001
0000
,
0002
0000
0000
0023
0000
0000
0230
0000
,
0000
0000
1300
0000
0100
1000
0100
1000
,
0200
0000
0000
0320
0000
0000
0032
0000
,
0000
0000
1003
0000
0001
1000
0010
0000
,
0100
0000
0100
0001
0000
0001
0100
0000
,
0010
0000
0010
1000
0000
1000
0010
0000
,
2000
0000
3002
0000
,
0103
0001
1001
0000
,
1000
0000
0000
1010
0000
0000
0011
0000
,
0000
1010
0000
0000
1000
0000
0001
0000
,
0100
0000
0000
0101
0000
0000
1100
0000
,
0000
0101
0000
0000
1001
0000
0000
0000
,
0001
0000
0000
0011
0000
0000
1010
0000
,
0000
0011
0000
0000
0001
0000
1000
0000
,
0100
1000
0100
1000
0001
0100
0001
0100
,
0010
1000
0001
0100
0001
0000
1000
0000
,
0001
0100
0010
0100
,
1000
0100
0010
0010
,
1000
0001
0100
0001
,
0010
0000
0001
1000
0000
0000
0000
0000
,
1000
0100
0010
0100
,
0001
0100
0010
0010
,
0001
1000
0010
1000
,
0100
0000
1000
0001
0000
0000
0100
0000
,
0010
1000
0001
0010
,
0100
0000
1000
0000
0001
0010
0001
0100
,
0002
0000
0000
0203
0000
0000
0320
0000
,
0000
0000
1030
0000
0010
0100
0010
0100
,
0020
0000
0000
2030
0000
0000
3002
0000
,
0000
0000
0013
0000
0001
1000
0100
0000
,
1000
0000
1000
0010
0000
0010
0100
0000
,
0001
0000
0001
0010
0000
0010
0100
0000
,
2000
0000
3002
0000
,
1003
0010
2002
0000
,
3003
0000
0000
0000
;

//---------------dance-single - ----------------
#NOTES:
     dance-single:
     :
     Hard:
     9:
     0.724,0.924,0.362,0.228,0.282: // measure 1
0000
0000
0000
0000
,  // measure 2
0000
0000
0000
0000
,  // measure 3
0000
0000
0000
0000
,  // measure 4
0000
0000
0000
0000
,  // measure 5
0000
0000
0000
0000
,  // measure 6
1000
0000
0001
0010
0100
0000
0001
0010
,  // measure 7
0100
0000
1000
0001
0000
0110
0000
1000
,  // measure 8
0001
0000
1000
0100
0010
0000
1000
0100
,  // measure 9
0010
0000
0001
1000
0000
0010
0100
0001
,  // measure 10
0100
1000
0100
0010
1000
0100
0001
0100
,  // measure 11
0010
0000
0100
0000
1000
0000
0001
0000
1000
0001
1000
0001
1000
0001
1000
0001
,  // measure 12
2000
0000
0010
0010
0000
0001
3001
0000
,  // measure 13
0100
0000
1001
0000
0010
0100
0001
1000
,  // measure 14
0002
0000
0010
0010
0000
1000
1003
0000
,  // measure 15
0100
0000
1001
0000
0010
0100
0001
0000
,  // measure 16
2000
0100
0100
0100
3000
0100
1000
0010
,  // measure 17
0200
0001
0001
0001
0300
0001
0100
0010
,  // measure 18
1000
0010
1000
0010
1000
0000
0001
0000
1000
0100
1000
0100
1000
0000
0010
0000
,  // measure 19
0200
0301
1001
0001
,  // measure 20
2000
0000
0010
0010
0000
0001
3001
0000
,  // measure 21
0100
0000
1001
0000
0010
0100
0001
1000
,  // measure 22
0002
0000
0010
0010
0000
1000
1003
0000
,  // measure 23
0100
0000
1001
0000
0100
0001
0010
0000
,  // measure 24
0200
0010
0010
0010
0300
0010
0001
1000
,  // measure 25
0020
1000
1000
1000
0030
1000
0010
0100
,  // measure 26
0001
0010
0001
0010
0001
0000
1000
0000
0001
0100
0001
0100
0001
0000
1000
0000
,  // measure 27
0020
0130
1001
0010
,  // measure 28
1000
0100
0100
1000
0010
0010
1000
0001
,  // measure 29
0001
1000
0010
0010
0100
0001
1000
0100
,  // measure 30
1000
0010
0010
1000
0001
0001
1000
0100
,  // measure 31
0100
1000
0010
0010
0100
0000
1001
0000
,  // measure 32
0001
0010
0010
0001
0100
0100
0001
1000
,  // measure 33
1000
0001
0010
0010
0100
1000
0010
0100
,  // measure 34
0101
0101
1001
1001
1100
1100
1001
1001
,  // measure 35
0101
1100
0101
0011
0110
0000
1001
0000
,  // measure 36
1000
0000
0000
1000
0100
0000
0000
0100
0001
0000
0000
0001
0100
0000
0000
0100
,  // measure 37
0010
0000
0000
0010
0001
0000
0000
0001
1000
0000
0000
0000
0001
0000
0000
0000
,  // measure 38
1000
0000
0000
1000
0001
0000
0000
0001
0010
0000
0000
0010
1000
0000
0000
1000
,  // measure 39
0010
0000
0100
0000
1000
0000
1001
0000
0000
0000
0000
0000
0001
1000
0001
1000
,  // measure 40
0001
0000
0000
0001
0010
0000
0000
0010
1000
0000
0000
1000
0010
0000
0000
0010
,  // measure 41
0100
0000
0000
0100
1000
0000
0000
1000
0001
0000
0000
0000
1000
0000
0000
0000
,  // measure 42
0001
0000
0000
0001
1000
0000
0000
1000
0100
0000
0000
0100
0001
0000
0000
0001
,  // measure 43
0100
0010
0001
0101
0000
0100
0010
1000
,  // measure 44
0010
0001
0010
0100
0001
0010
1000
0010
,  // measure 45
0100
0000
0010
0000
0001
0000
1000
0000
0001
1000
0001
1000
0001
1000
0001
1000
,  // measure 46
0002
0000
0010
0010
0000
1000
1003
0000
,  // measure 47
0010
0000
1001
0000
0100
0010
1000
0001
,  // measure 48
2000
0000
0100
0100
0000
0001
3001
0000
,  // measure 49
0100
0000
1001
0000
0010
1000
0001
0000
,  // measure 50
2000
0001
0001
0001
3000
0001
1000
0010
,  // measure 51
0200
0001
0001
0001
0300
0001
0100
0010
,  // measure 52
1000
0100
1000
0100
1000
0000
0010
0000
0100
0001
0100
0001
0100
0000
0010
0000
,  // measure 53
2000
3001
2002
0000
,  // measure 54
3003
0000
0000
0000
;

//---------------dance-double - ----------------
#NOTES:
     dance-double:
     :
     Easy:
     4:
     0.299,0.320,0.067,0.161,0.000:
00000000
00000000
00000000
00000000
,
00000000
00000000
00000000
00000000
,
00000000
00000000
00000000
00000000
,
00000000
00000000
00000000
00000000
,
00000000
00000000
00000000
00000000
,
00010000
00000000
01000000
00000000
,
00100000
00000000
10000000
00000000
,
00010000
00000000
00100000
00000000
,
00001000
00000000
00000000
00010000
00000000
00000000
00001000
00000000
,
00010000
00001000
00010000
00000100
,
00001000
00000100
00001000
00000010
,
00000200
00000000
00000000
00000001
00000000
00000000
00000301
00000000
,
00000000
00000100
00000000
00000010
,
00002000
00000000
00000000
00000100
00000000
00000000
00003100
00000000
,
00000000
00001000
00000000
00000100
,
00010000
00000000
00001000
00100000
,
00010000
00000000
01000000
00100000
,
20000000
00000000
30020000
00000000
,
01030000
00100000
10010000
00000000
,
02000000
00000000
00000000
00100000
00000000
00000000
03100000
00000000
,
00000000
10000000
00000000
00010000
,
00200000
00000000
00000000
00001000
00000000
00000000
00301000
00000000
,
00000000
00100000
00000000
00001000
,
00010000
00000000
00000100
00001000
,
00000010
00000000
00000100
00000001
,
00002000
00000000
00003002
00000000
,
00000103
00000010
00001001
00000000
,
00000010
00000000
00000000
00000010
00000000
00000000
00000010
00000000
,
00000000
00000010
00000000
00000000
00000010
00000000
00001000
00000000
,
00000100
00000000
00000000
00000100
00000000
00000000
00000100
00000000
,
00000000
00000100
00000000
00000000
00011000
00000000
00000000
00000000
,
00100000
00000000
00000000
00100000
00000000
00000000
00100000
00000000
,
00000000
00100000
00000000
00000000
00100000
00000000
00001000
00000000
,
01000000
01000000
00010000
00010000
,
10000000
00100000
10010000
00000000
,
10000000
01000000
00010000
01000000
,
10000000
00100000
01000000
01000000
,
00010000
00100000
00001000
00000100
,
00000010
00001000
00000001
00000000
,
00000001
00000100
00001000
00000100
,
00000001
00000010
00000100
00000100
,
00001000
00000010
00010000
00100000
,
01000000
00010000
10000000
00000000
,
01000000
00000000
10000000
00000000
,
00010000
00000000
01000000
00010000
,
02000000
00000000
00000000
00010000
00000000
00000000
03010000
00000000
,
00000000
10000000
00000000
00100000
,
20000000
00000000
00000000
00010000
00000000
00000000
30010000
00000000
,
00000000
01000000
00000000
00001000
,
00010000
00000000
00000100
00001000
,
00000010
00000000
00000100
00000010
,
00010000
00000000
00001000
00000000
,
00100000
00001000
00022000
00000000
,
00033000
00000000
00000000
00000000
;

//---------------dance-double - ----------------
#NOTES:
     dance-double:
     :
     Medium:
     6:
     0.402,0.533,0.134,0.349,0.000:
00000000
00000000
00000000
00000000
,
00000000
00000000
00000000
00000000
,
00000000
00000000
00000000
00000000
,
00000000
00000000
00000000
00000000
,
00000000
00000000
00000000
00000000
,
00001000
00000000
00000010
00000000
,
00000100
00000000
00000000
00000100
00000000
00000001
00000000
00000000
,
00001000
00000000
00000010
00000000
,
00010000
00000000
00000000
00001000
00000000
00000000
00010000
00000000
,
00001000
00100000
00010000
01000000
,
00100000
00000000
10000000
00000000
00010000
01000000
00010000
10000000
,
02000000
00000000
00000000
23000000
00000000
00000000
30020000
00000000
,
00000000
01030000
00000000
00001000
,
00020000
00000000
00000000
00032000
00000000
00000000
00203000
00000000
,
00000000
00310000
00000000
01000000
,
00100000
00000000
10000000
00000000
00010000
01000000
00001000
00000000
,
00010000
00000000
00001000
00000000
00010000
00000100
00001000
00000000
,
00000020
00000000
00000230
00000000
,
00000301
00001000
00001001
00000000
,
00000002
00000000
00000000
00000023
00000000
00000000
00000230
00000000
,
00000000
00001300
00000000
00000010
,
00000200
00000000
00000000
00000320
00000000
00000000
00002030
00000000
,
00000000
00003100
00000000
00010000
,
00001000
00000000
00100000
00000000
00010000
01000000
00100000
00000000
,
10000000
00000000
00010000
00000000
00100000
00001000
00010000
00000000
,
00002000
00000000
00023000
00000000
,
00030100
00001000
00010100
00000000
,
00001000
00000100
00000001
00000100
,
00000010
00000001
00001001
00001001
,
00000010
00010000
00001000
00100000
,
00010000
01000000
10010000
00000000
,
00100000
10000000
00010000
01000000
,
00001000
00100000
00011000
00011000
,
00010000
00000100
00010000
00000100
00001000
00000010
00001000
00000010
,
00000100
00000001
00001000
00000010
00010000
00000000
00001000
00000000
,
00010000
00010000
00001000
00001000
,
01000000
01000000
00100000
10010000
,
00100000
00100000
01000000
01000000
,
00001000
00000000
00001000
00010000
00000000
00000000
00000100
00000000
,
00001000
00001000
00000010
00000010
,
00010000
00010000
00001000
00000110
,
00000001
00000001
00001000
00001000
,
00000010
00000000
00000010
00010000
00000000
00000000
00001000
00000000
,
00010000
00001000
01000000
00100000
,
10000000
00000000
00010000
00000000
10000000
01000000
10000000
00010000
,
02000000
00000000
00000000
03002000
00000000
00000000
00023000
00000000
,
00000000
00030100
00000000
00001000
,
00200000
00000000
00000000
00320000
00000000
00000000
02030000
00000000
,
00000000
03100000
00000000
10000000
,
00010000
00000000
01000000
00001000
00000000
00001000
01000000
00000000
,
00010000
00000000
00100000
00001000
00000000
00001000
00100000
00000000
,
00002000
00000000
00023000
00000000
,
00030100
00000010
00002002
00000000
,
00003003
00000000
00000000
00000000
;

//---------------dance-double - ----------------
#NOTES:
     dance-double:
     :
     Hard:
     9:
     0.684,0.747,0.255,0.148,0.282:
00000000
00000000
00000000
00000000
,
00000000
00000000
00000000
00000000
,
00000000
00000000
00000000
00000000
,
00000000
00000000
00000000
00000000
,
00000000
00000000
00000000
00000000
,
00000010
00000000
00000000
00000010
00010000
00000000
00000000
00010000
,
00001000
00000000
00001000
01000000
00000000
10010000
00000000
00000000
,
01000000
00000000
00000000
01000000
00001000
00000000
00000000
00001000
,
00010000
00000000
00010000
00000100
00000000
00000010
00000001
00000100
,
00001000
00000100
00000010
00001000
00000100
00010000
00001000
01000000
,
00100000
00000000
00010000
00000000
00100000
00000000
10000000
00000000
00010000
10000000
00010000
10000000
00010000
10000000
00010000
10000000
,
00020000
00000000
01000000
01000000
00000000
00100000
00130000
00000000
,
00010000
00000000
01010000
00000000
01000000
00001000
00010000
00000100
,
00002000
00000000
00000010
00000010
00000000
00000001
00003001
00000000
,
00001000
00000000
00001010
00000000
00000010
00010000
00001000
00000000
,
00100000
00010000
01000000
00100000
00000000
10000000
01000000
00010000
,
00001000
00000010
00000100
00001000
00000000
00000010
00000100
00000001
,
00001000
00000010
00001000
00000010
00001000
00000000
00000001
00000000
00000100
00000001
00000100
00000001
00000100
00000000
00000010
00000000
,
00020000
00031000
00011000
00000000
,
00002000
00000000
00100000
00100000
00000000
00010000
00013000
00000000
,
00001000
00000000
00101000
00000000
00100000
00001000
00010000
00000100
,
00020000
00000000
00000010
00000010
00000000
00001000
00031000
00000000
,
00010000
00000000
00010100
00000000
00000100
00001000
00000010
00000000
,
00000100
00000001
00001000
00000010
00000000
00000100
00000001
00001000
,
00000010
00010000
01000000
00100000
00000000
00010000
10000000
00100000
,
01000000
00010000
01000000
00010000
01000000
00000000
00100000
00000000
10000000
01000000
10000000
01000000
10000000
00000000
00010000
00000000
,
02000000
03001000
00011000
00000000
,
00010000
00000100
00000100
00000010
00000001
00000001
00000100
00000010
,
00000010
00001000
00000100
00000100
00010000
00001000
01000000
00100000
,
10000000
00010000
00010000
00100000
01000000
01000000
10000000
00010000
,
00010000
00100000
00001000
00001000
00010000
00000000
00101000
00000000
,
00010000
00001000
00001000
01000000
00100000
00100000
10000000
00010000
,
00010000
00100000
00001000
00001000
00010000
00000100
00000010
00000001
,
00000100
00001000
00010000
00100000
10000000
01000000
00010000
01000000
,
11000000
01010000
11000000
10100000
10010000
00000000
01010000
00000000
,
01000000
00000000
00000000
01000000
00001000
00000000
00000000
00001000
00010000
00000000
00000000
00010000
00000100
00000000
00000000
00000100
,
00000010
00000000
00000000
00000010
00001000
00000000
00000000
00001000
00000001
00000000
00000000
00000000
00000100
00000000
00000000
00000000
,
00001000
00000000
00000000
00001000
00000010
00000000
00000000
00000010
00010000
00000000
00000000
00010000
00001000
00000000
00000000
00001000
,
01000000
00000000
00100000
00000000
10000000
00000000
01010000
00000000
00000000
00000000
00000000
00000000
00100000
10000000
00100000
10000000
,
00100000
00000000
00000000
00100000
01000000
00000000
00000000
01000000
00010000
00000000
00000000
00010000
00100000
00000000
00000000
00100000
,
10000000
00000000
00000000
10000000
00010000
00000000
00000000
00010000
01000000
00000000
00000000
00000000
10000000
00000000
00000000
00000000
,
00010000
00000000
00000000
00010000
01000000
00000000
00000000
01000000
00001000
00000000
00000000
00001000
00010000
00000000
00000000
00010000
,
00000100
00000010
00000001
00001001
00000000
00000010
00000001
00000100
,
00001000
00000100
00000010
00001000
00000100
00010000
00001000
01000000
,
00100000
00000000
00010000
00000000
00100000
00000000
10000000
00000000
00010000
10000000
00010000
10000000
00010000
10000000
00010000
10000000
,
00020000
00000000
01000000
01000000
00000000
00100000
00130000
00000000
,
00010000
00000000
11000000
00000000
00100000
00001000
00010000
00000100
,
00002000
00000000
00000100
00000100
00000000
00000001
00003001
00000000
,
00001000
00000000
00000101
00000000
00000010
00001000
00000100
00000000
,
00010000
00001000
01000000
00100000
00000000
10000000
01000000
00010000
,
00001000
00000010
00000100
00001000
00000000
00000001
00000100
00000010
,
00001000
00000001
00001000
00000001
00001000
00000000
00000010
00000000
00010000
00001000
00010000
00001000
00010000
00000000
00001000
00000000
,
00200000
01300000
20020000
00000000
,
30030000
00000000
00000000
00000000
;
