#TITLE:Gibold;
#SUBTITLE:(Scandalous Untld. Remix);
#ARTIST:Cardopusher;
#TITLETRANSLIT:;
#SUBTITLETRANSLIT:;
#ARTISTTRANSLIT:;
#GENRE:;
#CREDIT:;
#MENUCOLOR:;
#METERTYPE:DDR;
#BANNER:Gibold (Scandalous Untld. Remix)-bn.png;
#BACKGROUND:Gibold (Scandalous Untld. Remix)-bg.png;
#LYRICSPATH:;
#CDTITLE:ddrencorecdtitle.png;
#MUSIC:Gibold (Scandalous Untld. Remix).mp3;
#OFFSET:-0.026;
#SAMPLESTART:53.880;
#SAMPLELENGTH:13.860;
#SELECTABLE:YES;
#LISTSORT:;
#BPMS:0.000=142.000;
#STOPS:;
#BGCHANGES:;
#ATTACKS:;

//---------------dance-single - Spork!----------------
#NOTES:
     dance-single:
     Spork!:
     Hard:
     9:
     0.552,0.724,0.296,0.188,0.372: // measure 1
0000
0000
0000
0000
,  // measure 2
0000
0000
0000
0000
,  // measure 3
0000
0000
0000
0000
,  // measure 4
0000
0000
0000
0000
,  // measure 5
2001
0000
0000
0100
3001
0000
0000
0000
,  // measure 6
0021
0000
0000
0100
0031
0000
0000
0000
,  // measure 7
0102
0000
0000
1000
0103
0000
0000
0000
,  // measure 8
0120
0000
0000
0000
0230
0000
0000
0300
,  // measure 9
1002
0000
0000
0100
1003
0000
0000
0000
,  // measure 10
1020
0000
0000
0100
1030
0000
0000
0000
,  // measure 11
1100
1000
0010
0100
0001
0001
0010
0010
,  // measure 12
0011
0000
0000
0001
0000
0000
1000
0000
0020
0000
0000
0000
0000
0000
0030
0000
,  // measure 13
0102
1000
0013
0100
,  // measure 14
2100
0001
3010
0100
,  // measure 15
1001
0000
0000
0100
0000
0000
0000
0000
0000
0000
0000
0100
0000
0000
0000
0000
,  // measure 16
0120
0000
0000
1000
0130
0000
0000
0000
,  // measure 17
0101
0010
0100
0000
0100
1000
0010
0000
,  // measure 18
1010
0100
0010
0001
1000
0001
0100
0000
,  // measure 19
0101
0000
0000
1000
0000
0000
0000
0000
0000
0000
0000
1000
0000
0000
0000
0000
,  // measure 20
0210
0000
0000
0001
0310
0000
0000
0000
,  // measure 21
1000
0100
1000
0000
0010
1000
0010
0000
,  // measure 22
0100
0001
1000
0010
,  // measure 23
1000
0000
0000
1000
0000
0000
0000
0000
0001
0000
0000
0001
0000
0000
0000
0000
,  // measure 24
0200
0000
0000
0010
0300
0000
0000
0000
,  // measure 25
1000
0100
1000
0010
,  // measure 26
0001
0100
0001
0010
,  // measure 27
1000
0010
1000
0100
,  // measure 28
0001
0010
0001
0100
,  // measure 29
1000
1000
0001
0001
,  // measure 30
1000
0001
1000
0001
,  // measure 31
1000
0010
0100
0001
1000
0100
0010
0001
,  // measure 32
1000
0000
0001
0000
0100
0001
0100
0001
1000
0010
1000
0010
0200
0000
0000
0000
,  // measure 33
0301
0000
1000
0000
1010
0000
0000
0100
1000
0000
0001
0000
0011
0000
0000
0100
,  // measure 34
0010
0000
0010
0000
0010
0000
0010
0000
0010
0000
1000
0000
0110
0000
0000
0010
,  // measure 35
1000
0000
0001
0000
0101
0000
0000
0010
0001
0000
1000
0000
1100
0000
0000
0010
,  // measure 36
0100
0000
0000
0100
0000
0000
0100
0000
0001
0000
1000
0000
0010
0000
0000
0100
0000
0000
0002
0000
0000
0000
0000
0000
,  // measure 37
0103
0000
0001
0000
1100
0000
0000
0010
0100
0000
1000
0000
0101
0000
0000
0010
,  // measure 38
0001
0000
0001
0000
0001
0000
0001
0000
0001
0000
1000
0000
0110
0000
0000
0100
,  // measure 39
0010
0000
1000
0000
0011
0000
0000
0100
0010
0000
0001
0000
1010
0000
0000
0100
,  // measure 40
1000
0000
0010
0000
0100
0000
0001
0000
0000
0100
0000
0000
0010
0000
0000
0000
0000
0000
1001
0000
0000
0000
0000
0000
,  // measure 41
1000
0100
0100
0100
0010
0001
0001
0001
,  // measure 42
0100
0010
0010
0010
1000
0001
1010
0000
,  // measure 43
0001
0100
0100
0100
0010
1000
1000
1000
,  // measure 44
0100
0010
0010
0010
0001
1000
0011
0000
,  // measure 45
1000
0100
0100
0100
0001
1000
1000
1000
,  // measure 46
0010
0001
0001
0001
0100
0010
1000
1000
,  // measure 47
0001
0100
0100
0100
1000
0001
0001
0001
,  // measure 48
0010
1000
1000
1000
0100
0010
0002
0000
,  // measure 49
1003
0100
1000
0100
0010
0100
0010
0001
0010
0001
0100
0001
,  // measure 50
0100
0010
0100
0010
1000
0010
0100
0000
0001
0000
1000
0000
,  // measure 51
0001
0100
0001
0100
0010
0100
0010
1000
0010
1000
0100
1000
,  // measure 52
0001
0000
0100
0000
0010
0000
1000
0000
0000
0010
0000
0000
0110
0000
0000
0000
1000
0000
0000
0000
0000
0000
0000
0000
,  // measure 53
0001
0100
0010
0100
0010
1000
0010
0100
0001
0100
0001
0010
,  // measure 54
0100
1000
0100
1000
0010
1000
0010
0100
0010
0100
0001
0100
,  // measure 55
0001
0010
0100
0010
0100
1000
0100
0010
0001
0010
0001
0100
,  // measure 56
0001
0010
0001
0010
0100
0010
0100
1000
0100
2000
0000
0000
,  // measure 57
3001
0010
0001
0000
0100
0001
0100
0000
,  // measure 58
0010
1000
0010
1000
0001
0010
0100
0000
,  // measure 59
0010
0000
0000
0001
0000
0000
0100
0000
0010
0000
0000
1000
0000
0000
0001
0000
,  // measure 60
0020
0000
0000
0000
0230
0000
0000
0300
,  // measure 61
1000
0010
1000
0000
0100
1000
0100
0000
,  // measure 62
0010
0001
0010
0001
1000
0010
0100
0000
,  // measure 63
0011
0001
0100
0010
1000
1000
0010
0010
,  // measure 64
1010
0000
0000
0100
0000
0000
0010
0000
2002
0000
0000
0000
0000
0000
0000
0000
,  // measure 65
3000
0000
0000
0000
0000
0003
0000
0000
;

//---------------dance-double - ----------------
#NOTES:
     dance-double:
     :
     Hard:
     9:
     0.518,0.724,0.170,0.108,0.327:
00000000
00000000
00000000
00000000
,
00000000
00000000
00000000
00000000
,
00000000
00000000
00000000
00000000
,
00000000
00000000
00000000
00000000
,
00000101
00000000
00000010
00000000
,
00011000
00000000
00000000
00010000
00000100
00000000
00000000
00000000
,
01000000
00000000
00000000
00010000
00000000
00000000
00100000
00000000
00000010
00000000
00000000
00010000
00000000
00000000
00000000
00000000
,
00011000
00000000
00000000
00001000
02000000
00000000
00000000
03000000
,
10100000
00000000
01000000
00000000
,
00011000
00000000
00000000
00001000
00100000
00000000
00000000
00000000
,
00000010
00001000
00000100
00000000
01000000
00010000
00100000
00000000
,
00001000
00000000
00000000
00001000
00000000
00000000
00010000
00000000
00000200
00000000
00000000
00000000
00000000
00000000
00000300
00000000
,
00000011
00000010
00000100
00010000
,
00011000
00000000
00000000
00010000
00001000
00000000
01000000
00000000
,
00010000
00000000
00000000
00100000
00000000
00000000
00000000
00000000
00000000
00000000
00000000
00001000
00000000
00000000
00000000
00000000
,
00021000
00000000
00000000
00001000
00030000
00000000
00000000
00000000
,
11000000
10000000
00100000
00000000
00100000
00010000
00001000
00000000
,
00011000
00001000
00000100
00000001
00000100
00000010
00001000
00000000
,
00000001
00000000
00000000
00000010
00000000
00000000
00000000
00000000
00000100
00000000
00000000
00010000
00000000
00000000
00000000
00000000
,
00012000
00000000
00000000
00010000
00003000
00000000
00000000
00000000
,
00000100
00000001
00000010
00000000
00000010
00001000
00010000
00000000
,
00001000
00010000
01000000
10000000
01000000
00100000
00010000
00000000
,
01000000
00000000
00000000
00010000
00000000
00000000
00000000
00000000
00000000
00000000
00000000
00000000
00100000
00000000
00000000
00000000
,
00021000
00000000
00000000
00001000
00030000
00000000
01000000
00000000
,
00010000
00100000
10000000
00100000
,
00001000
00000100
00000001
00000100
,
00010000
01000000
10000000
01000000
,
00001000
00000010
00000001
00000010
,
00000100
00000100
01000000
01000000
,
00001000
00010000
00001000
00010000
,
01000000
10000000
00100000
01000000
00010000
00100000
00001000
00010000
,
00000100
00000000
00001000
00000000
00000010
00000100
00000010
00000100
00000001
00001000
00000001
00001000
00000200
00000000
00000000
00000000
,
00000310
00000000
00000001
00000000
00000001
00000000
00000010
00000100
00000010
00000000
00000001
00000000
00000001
00000000
00000100
00000000
,
00000010
00000010
00000010
00000010
00000010
00010000
00011000
00000000
,
00100000
00000000
10000000
00000000
10000000
00000000
01000000
00100000
01000000
00000000
10000000
00000000
10000000
00000000
00100000
00000000
,
01000000
00000000
00000000
01000000
00000000
00000000
01000000
00000000
00100000
00000000
01000000
00000000
00010000
00000000
00000000
00100000
00000000
00000000
00002000
00000000
00000000
00000000
00000000
00000000
,
01003000
00000000
00010000
00000000
00010000
00000000
00100000
01000000
00100000
00000000
00010000
00000000
00010000
00000000
01000000
00000000
,
00001000
00001000
00001000
00001000
00001000
01000000
00011000
00000000
,
00000100
00000000
00001000
00000000
00001000
00000000
00000010
00000100
00000010
00000000
00001000
00000000
00001000
00000000
00000100
00000000
,
00010000
00000000
00001000
00000000
00010000
00000000
00001000
00000000
00000000
01000000
00000000
00000000
00100000
00000000
00000000
00000000
00000000
00000000
10010000
00000000
00000000
00000000
00000000
00000000
,
01000000
00010000
00010000
00010000
00100000
00001000
00001000
00001000
,
00010000
01000000
01000000
01000000
00100000
00001000
00011000
00000000
,
00000100
00001000
00001000
00001000
00000010
00010000
00010000
00010000
,
00001000
00000010
00000010
00000010
00000100
00010000
00011000
00000000
,
00000010
00000100
00000100
00000100
00000001
00000010
00000010
00000010
,
00000100
00010000
00010000
00010000
00001000
00100000
00010000
00010000
,
01000000
00100000
00100000
00100000
10000000
01000000
01000000
01000000
,
00100000
00001000
00001000
00001000
00010000
00000100
00020000
00000000
,
00030010
00000100
00000010
00000100
00000000
00000100
00000001
00001000
00000001
00001000
00000000
00001000
,
00000010
00010000
00000010
00010000
00000000
00010000
00001000
00000000
00100000
00000000
00010000
00000000
,
01000000
00100000
01000000
00100000
00000000
00100000
10000000
00010000
10000000
00010000
00000000
00010000
,
10000000
00000000
00100000
00000000
01000000
00000000
00010000
00000000
00000000
00100000
00000000
00000000
01000000
00000000
00000000
00000000
00100000
00000000
00000000
00000000
00000000
00000000
00000000
00000000
,
00010000
01000000
00100000
01000000
00100000
10000000
00100000
10000000
01000000
10000000
01000000
00100000
,
01000000
00100000
00010000
00100000
00010000
01000000
00010000
01000000
00001000
01000000
00001000
00010000
,
00001000
00010000
00000100
00010000
00000100
00001000
00000100
00001000
00000010
00001000
00000010
00000100
,
00000010
00000100
00000001
00000100
00000001
00000010
00000001
00000010
00000100
00000020
00000000
00000000
,
00000031
00001000
00000010
00000000
00000010
00001000
00000100
00000000
,
00000100
00010000
00001000
00000100
00001000
00010000
00100000
00000000
,
10000000
00000000
00000000
01000000
00000000
00000000
10000000
00000000
00100000
00000000
00000000
01000000
00000000
00000000
00000000
00000000
,
02010000
00000000
00000000
00100000
03000000
00000000
00000000
00000000
,
10000000
00010000
01000000
00000000
01000000
00010000
00100000
00000000
,
00100000
00001000
00010000
00100000
00010000
00001000
00000100
00000000
,
00000001
00000010
00000001
00000001
00001000
00000010
00001000
00001000
,
00000100
00000000
00000000
00010000
00000000
00000000
00001000
00000000
00022000
00000000
00000000
00000000
00000000
00000000
00000000
00000000
,
00030000
00000000
00000000
00000000
00000000
00003000
00000000
00000000
;

//---------------dance-single - ----------------
#NOTES:
     dance-single:
     :
     Medium:
     5:
     0.328,0.401,0.090,0.197,0.013:
0000
0000
0000
0000
,
0000
0000
0000
0000
,
0000
0000
0000
0000
,
0000
0000
0000
0000
,
0001
0000
0101
0000
,
0010
1000
0100
0000
,
1000
0100
0000
0100
1000
0100
0000
0100
,
0010
0010
0200
0000
,
1300
0000
1010
0000
,
0100
0001
0010
0000
,
0001
0010
0001
0010
0100
1000
0100
1000
,
0010
0010
0200
0000
,
0301
0100
1001
0000
,
0010
0100
1010
0000
,
1000
0100
0000
0100
,
0010
0010
0200
0000
,
1300
0010
1001
0000
,
0100
0010
1100
0000
,
0001
0100
0000
0100
,
0010
0000
1000
0000
,
0001
0000
0010
0000
,
0001
1000
0010
0000
,
0200
0000
0000
0000
,
0000
0000
0000
0010
0300
0000
0000
0000
,
1000
0100
1000
0100
,
0010
0001
0010
0001
,
0100
0001
0100
0001
,
1000
0010
1000
0010
,
1000
1000
0001
0001
,
1000
0001
1000
0001
,
1000
0010
1000
0000
0010
0100
0010
0000
,
0100
0001
0100
0001
1000
0000
1001
0000
,
0001
0001
0001
0000
1000
1000
1000
0000
,
0010
0000
0100
0000
0010
0100
0010
0000
,
1000
1000
1000
0000
0001
0001
0001
0000
,
0010
0100
1000
2000
,
3010
0010
0010
0000
0100
0100
0100
0000
,
0001
0000
1000
0000
0001
1000
0001
0000
,
0100
0100
0100
0000
0010
0010
0010
0000
,
1000
0001
0010
1001
,
2000
0000
3020
0000
,
0230
0000
0000
0000
0301
0010
0100
0000
,
0020
0000
0032
0000
,
0203
0000
0000
0000
0310
1000
0100
0000
,
2000
0000
3020
0000
,
0032
0000
0203
0000
,
0302
0000
0023
0000
,
2030
0000
3001
0002
,
0103
0010
1000
0100
,
0010
0000
0000
0001
0000
0000
0100
0000
0001
0000
1000
0000
,
0010
1000
0100
0010
,
0001
0000
0100
0000
0010
0000
1000
0000
0100
0000
0000
0100
0000
0000
0000
0000
,
0010
0001
0100
0010
,
1000
0001
0100
0010
,
0010
1000
0100
0010
,
0100
1000
0010
0200
,
0301
0000
1100
0000
,
0010
0100
1000
0000
,
0001
0100
0000
0100
0001
0100
0000
0100
,
0010
0100
0020
0000
,
1030
0000
0101
0000
,
0010
1000
0100
0000
,
1000
0100
1000
0100
0010
0001
0010
0001
,
0100
0100
0020
0000
,
0030
0000
0000
0000
;

//---------------dance-single - ----------------
#NOTES:
     dance-single:
     :
     Beginner:
     1:
     0.129,0.171,0.054,0.072,0.000:
0000
0000
0000
0000
,
0000
0000
0000
0000
,
0000
0000
0000
0000
,
0000
0000
0000
0000
,
1000
0000
0000
0000
,
0001
0000
0000
0000
,
0100
0000
0000
0000
,
0010
0000
1001
0000
,
0001
0000
0000
0000
,
1000
0000
0000
0000
,
0100
0000
0000
0000
,
0010
0000
1001
0000
,
1000
0000
0000
0000
,
0010
0000
0000
0000
,
0100
0000
0000
0000
,
0001
0000
0000
0000
,
0001
0000
0000
0000
,
0010
0000
0000
0000
,
0100
0000
0000
0000
,
1000
0000
0000
0000
,
0020
0000
0000
0000
,
0000
0000
0030
0000
,
1000
0000
0000
0000
,
0001
0000
0000
0000
,
0200
0000
0000
0000
,
0000
0000
0300
0000
,
0001
0000
0000
0000
,
1000
0000
0000
0000
,
0001
0000
0000
0000
,
1000
0000
0000
0000
,
0001
0000
1000
0000
,
0001
0000
0000
0000
,
0010
0000
0010
0000
,
0100
0100
0100
0000
,
1000
0000
1000
0000
,
0010
0010
0010
0000
,
0100
0000
0100
0000
,
0001
0001
0001
0000
,
0010
0000
0010
0000
,
0001
0001
0001
0000
,
1000
0000
0100
0000
,
1000
0000
1001
0000
,
0001
0000
0010
0000
,
0001
0000
1001
0000
,
1000
0000
0010
0000
,
1000
0000
1000
0000
,
0001
0000
0100
0000
,
0001
0000
0001
0000
,
0200
0000
0000
0000
,
0300
0000
0001
0000
,
0020
0000
0000
0000
,
0130
0100
0100
0000
,
2000
0000
0000
0000
,
3020
0000
0000
0000
,
0230
0000
0000
0000
,
0302
0000
0000
0000
,
1003
0000
0000
0000
,
0001
0000
0000
0000
,
0010
0000
0010
0000
,
0100
0000
1001
0000
,
0001
0000
0000
0000
,
1000
0000
0000
0000
,
0010
0000
0010
0000
,
0100
0000
1001
0000
;

//---------------dance-double - ----------------
#NOTES:
     dance-double:
     :
     Easy:
     4:
     0.221,0.258,0.116,0.215,0.000:
00000000
00000000
00000000
00000000
,
00000000
00000000
00000000
00000000
,
00000000
00000000
00000000
00000000
,
00000000
00000000
00000000
00000000
,
00100000
00000000
10000000
00000000
,
00100000
00100000
10000000
00000000
,
01000000
00000000
00100000
00000000
,
00001000
00000000
00011000
00000000
,
00000010
00000000
00001000
00000000
,
00000010
00000010
00001000
00000000
,
00000001
00000001
00001000
00001000
,
00000100
00000000
00011000
00000000
,
01000000
00000000
00010000
00000000
,
01000000
01000000
00010000
00000000
,
00100000
00000000
00000000
00000000
,
00001000
00000000
00011000
00000000
,
00000100
00000000
00001000
00000000
,
00000100
00000100
00001000
00000000
,
00000010
00000000
00000000
00000000
,
00010000
00000000
00011000
00000000
,
00001000
00000000
01000000
00000000
,
00100000
00000000
10000000
00000000
,
00020000
00000000
00000000
00000000
,
00030000
00000000
00000000
00000000
,
01000000
00000000
00001000
00000000
,
00010000
00000000
00000010
00000000
,
00001000
00000000
00000100
00000000
,
00000010
00000000
00000001
00000000
,
00001000
00000000
00001000
00000000
,
00000001
00000000
00000001
00000000
,
00001000
00000010
00001000
00000010
,
00000100
00000001
00001000
00000000
,
00001100
00000000
00001100
00000000
,
00010000
00001000
00100000
00000000
,
01010000
00000000
01010000
00000000
,
00100000
10000000
00100000
00000000
,
01100000
00000000
01100000
00000000
,
01000000
00001000
00010000
00000000
,
00000110
00000000
00000110
00000000
,
00001000
00000001
00000100
00000000
,
00000002
00000000
00000203
00000000
,
00000320
00000000
00001030
00001000
,
00000020
00000000
00020030
00000000
,
00032000
00000000
01003000
01000000
,
00002000
00000000
00203000
00000000
,
00320000
00000000
02030000
00000000
,
03200000
00000000
20300000
00000000
,
30020000
00000000
00130000
00100000
,
00020000
00000000
00000000
00000000
,
00030000
00000000
10000000
00010000
,
20000000
00000000
00000000
00000000
,
30100000
10000000
00010000
00100000
,
00002000
00000000
00023000
00000000
,
00032000
00000000
00023000
00000000
,
00030200
00000000
00002300
00000000
,
00003020
00000000
00000130
00000001
,
00001000
00000000
00000100
00000000
,
00001000
00001000
00000100
00000000
,
00000010
00000000
00000001
00000000
,
00001000
00000000
00011000
00000000
,
00010000
00000000
01000000
00000000
,
00010000
00010000
01000000
00000000
,
00010000
00100000
01000000
10000000
,
00100000
00000000
02000000
00000000
,
03000000
00000000
00000000
00000000
;

//---------------dance-double - ----------------
#NOTES:
     dance-double:
     :
     Medium:
     6:
     0.334,0.430,0.224,0.224,0.022:
00000000
00000000
00000000
00000000
,
00000000
00000000
00000000
00000000
,
00000000
00000000
00000000
00000000
,
00000000
00000000
00000000
00000000
,
00110000
00000000
00001000
00000000
,
00100000
00010000
01000000
00000000
,
10200000
00000000
00000000
01000000
00300000
00000000
01000000
00000000
,
00001000
00000000
00000000
00000000
00021000
00000000
00000000
00030000
,
00001100
00000000
00010000
00000000
,
00000010
00001000
00000100
00000000
,
00000011
00000001
00001000
00000010
,
00001010
00000000
00000000
00000000
00012000
00000000
00000000
00003000
,
01010000
00100000
10000000
01000000
,
10010000
00010000
00100000
00001000
,
00210000
00000000
00000000
00001000
00300000
00000000
01000000
00000000
,
02010000
00000000
03001000
00000000
,
00011000
00000000
00010000
00000000
00000010
00001000
00000010
00000000
,
00000100
00000001
00000100
00000001
00000010
00000000
00000001
00000000
,
00000100
00000000
00000010
00001000
,
00000010
00000000
00000000
00010000
00001000
00000000
00000000
00000000
,
00010000
00000000
00000100
00000000
,
00001000
00000010
00000100
00000000
,
00000001
00000000
00000001
00000000
,
00002000
00000000
00000000
00000100
00003000
00000000
00000000
00000000
,
00001000
00000000
00000010
00000000
,
00000100
00000001
00000001
00000000
,
00001000
00000010
00010000
00000000
,
00001000
00100000
01000000
00000000
,
10000000
10000000
00010000
00010000
,
00100000
00001000
00100000
00001000
,
00010000
00001000
00010000
00001000
01000000
00010000
01000000
00010000
,
10000000
01000000
10000000
01000000
00200000
00000000
00000000
00000000
,
01300000
11000000
00100000
00110000
,
01000000
00000000
00001000
00000000
00010000
00000100
00001000
00000000
,
00000010
00001010
00000100
00000101
,
00000010
00000100
00000010
00000100
00000010
00000000
00002000
00000000
,
00003001
00000100
00000001
00000000
00000100
00000001
00000100
00000000
,
00000010
00010000
00001000
01010000
,
00010000
00100000
00010000
00000000
00100000
00010000
00100000
00000000
,
01000000
10000000
01000000
10000000
01000000
00000000
00100000
00000000
,
00020000
00000000
02030000
00000000
,
03200000
00000000
00000000
00000000
10300000
00010000
00100000
00000000
,
00020000
00000000
02030000
00000000
,
03002000
00000000
00000000
00000000
00013000
00000100
00001000
00000000
,
00000020
00000000
00000230
00000000
,
00002300
00000000
00023000
00000000
,
00230000
00000000
00320000
00000000
,
00230000
00000000
10300000
20000000
,
30010000
00100000
00001000
00100000
,
00010000
00000000
00000000
01000000
00000000
00000000
00001000
00000000
00010000
00000000
00000010
00000000
,
00001000
00000100
00010000
00000100
,
00001000
00000000
00000000
00000000
00000100
00000000
00000000
00000000
00000010
00000000
00000000
00000000
00000001
00000000
00000000
00000000
00000000
00000000
00000100
00000000
00000000
00000000
00000000
00000000
00000010
00000000
00000000
00000000
00000000
00000000
00000000
00000000
00000000
00000010
00000000
00000000
00000000
00000000
00000000
00000000
00000000
00000000
00000000
00000000
00000000
00000000
00000000
00000000
,
00001000
00000001
00000100
00000010
,
00010000
00001000
01000000
00100000
,
10000000
00010000
00100000
01000000
,
00100000
00001000
00010000
00000010
,
00001100
00000000
00010000
00000000
,
00000100
00001000
00000010
00000000
,
00000201
00000000
00000000
00000001
00000300
00000000
00000001
00000000
,
00001100
00000000
00000000
00000000
00012000
00000000
00000000
00003000
,
01010000
00000000
00001000
00000000
,
01000000
00010000
00100000
00000000
,
11000000
10000000
00010000
00100000
,
00110000
00000000
00021000
00000000
,
00030000
00000000
00000000
00000000
;

//---------------dance-single - ----------------
#NOTES:
     dance-single:
     :
     Easy:
     4:
     0.237,0.287,0.125,0.161,0.000:
0000
0000
0000
0000
,
0000
0000
0000
0000
,
0000
0000
0000
0000
,
0000
0000
0000
0000
,
1000
0000
0100
0000
,
1000
1000
0100
0000
,
1000
0000
0001
0000
,
0100
0000
2001
0000
,
3001
0000
0010
0000
,
0001
0001
0010
0000
,
0001
0100
0010
1000
,
0100
0000
1002
0000
,
1003
0000
0001
0000
,
1000
1000
0001
0000
,
0001
0100
0000
0100
,
0010
0000
0100
0000
,
0001
0000
1000
0000
,
0001
0001
1000
0000
,
1000
0010
0000
0010
,
0100
0000
0010
0000
,
1000
0000
0100
0000
,
1000
0001
0100
0000
,
0020
0000
0000
0000
,
0000
0000
0000
0100
0030
0000
0000
0000
,
1000
0000
0100
0000
,
1000
0000
0001
0000
,
0100
0000
0001
0000
,
1000
0010
1000
0000
,
0001
0010
0001
0000
,
1000
0001
1000
0000
,
0001
1000
0001
0100
,
0010
1000
0100
1001
,
1000
0000
1000
0000
,
0001
0100
0010
1000
,
0001
0000
0001
0000
,
1000
0100
1000
0101
,
0001
0000
0001
0000
,
0100
0001
0010
0100
,
1000
0000
1000
0000
,
0010
1000
0100
1001
,
0002
0000
0203
0000
,
0320
0000
1030
0001
,
2000
0000
3200
0000
,
0320
0000
0031
1000
,
0002
0000
0203
0000
,
0320
0000
2030
0000
,
3020
0000
0230
0000
,
0302
0000
1003
1100
,
0001
0000
0101
0000
,
0010
1000
0100
0100
,
1000
0000
1010
0000
,
0100
0010
1001
0000
,
0001
0000
0011
0000
,
1000
0000
1010
0000
,
0100
0000
1001
0000
,
0010
0010
0110
0000
,
0001
0000
0010
0000
,
0001
0001
0010
0000
,
0001
0000
1000
0000
,
0100
0000
1002
0000
,
1003
0000
0010
0000
,
1000
1000
0010
0000
,
1000
0100
0010
0001
,
0100
0000
0200
0000
,
0300
0000
0000
0000
;
