#TITLE:Gentle Stress;
#SUBTITLE:(Distention Mix);
#ARTIST:DJ Swan remixed by DJ WipE;
#TITLETRANSLIT:;
#SUBTITLETRANSLIT:;
#ARTISTTRANSLIT:;
#GENRE:;
#CREDIT:;
#MENUCOLOR:;
#METERTYPE:DDR;
#BANNER:Gentle Stress (Distention Mix)-bn.png;
#BACKGROUND:Gentle Stress (Distention Mix)-bg.png;
#LYRICSPATH:;
#CDTITLE:ddrencorecdtitle.png;
#MUSIC:Gentle Stress (Distention Mix).mp3;
#OFFSET:-0.015;
#SAMPLESTART:35.319;
#SAMPLELENGTH:11.880;
#SELECTABLE:YES;
#LISTSORT:;
#BPMS:0.000=170.000;
#STOPS:;
#BGCHANGES:0.000=Gentle Stress (Distension Mix).avi=1.000=1=0=0,
99999=-nosongbg-=1.000=0=0=0 // don't automatically add -songbackground-
;
#ATTACKS:;

//---------------dance-single - ----------------
#NOTES:
     dance-single:
     :
     Beginner:
     1:
     0.120,0.167,0.087,0.022,0.000:
0000
0000
0000
0000
,
0000
0000
0000
0000
,
0000
0000
0000
0000
,
0000
0000
0000
0000
,
0000
0000
0000
0000
,
0000
0000
0000
0000
,
0000
0000
0000
0000
,
1001
0000
0000
0000
,
1000
0000
0000
0000
,
0100
0000
0000
0000
,
1000
0000
0000
0000
,
0001
0000
0000
0000
,
0001
0000
0100
0000
,
0001
0000
1000
0000
,
0100
0000
0000
0000
,
1001
0000
0000
0000
,
0001
0000
0000
0000
,
0100
0000
0000
0000
,
0001
0000
1000
0000
,
0000
0000
0000
0000
,
1000
0000
0100
0000
,
1000
0000
0001
0000
,
0100
0000
0000
0000
,
1001
0000
0000
0000
,
0200
0000
0300
0000
,
0001
0000
0100
0000
,
0010
0000
0000
0000
,
0010
0000
1000
0000
,
0100
0000
0000
0000
,
1000
0000
0100
0000
,
0010
0000
0001
0000
,
1000
0000
0000
0000
,
1001
0000
0000
0000
,
1000
0000
0010
0000
,
0100
0000
0000
0000
,
0100
0000
0001
0000
,
0010
0000
0000
0000
,
0001
0000
0100
0000
,
0010
0000
1000
0000
,
0001
0000
0000
0000
,
1001
0000
0000
0000
,
0100
0000
0000
0000
,
0000
0000
0000
0000
,
0010
0000
0000
0000
,
0000
0000
0000
0000
,
0100
0000
0000
0000
,
0001
0000
0000
0000
,
1000
0000
0000
0000
,
0100
0000
0000
0000
,
1000
0000
0001
0000
,
0100
0000
0001
0000
,
1000
0000
0000
0000
,
1001
0000
0000
0000
,
0010
0000
0000
0000
,
1000
0000
0000
0000
,
0001
0000
0000
0000
,
0010
0000
0000
0000
,
0001
0000
0000
0000
,
1000
0000
0000
0000
,
1001
0000
0000
0000
,
0110
0000
0000
0000
,
0020
0000
0030
0000
;

//---------------dance-single - ----------------
#NOTES:
     dance-single:
     :
     Easy:
     4:
     0.252,0.370,0.250,0.152,0.000:
0000
0000
0000
0000
,
0000
0000
0000
0000
,
0000
0000
0000
0000
,
0000
0000
0000
0000
,
0000
0000
0000
0000
,
0000
0000
0000
0000
,
0000
0000
0000
0000
,
1001
0000
0000
1001
0000
0000
1001
0000
,
0100
0000
0010
0000
,
1000
0000
0100
1000
,
0010
0000
0100
0000
,
0001
0000
0010
0001
,
0100
0000
0000
0010
0000
0000
1000
0000
,
0000
0001
0000
0000
0010
0000
0000
0000
,
0200
0000
0300
0000
,
1001
0000
0000
1001
0000
0000
1001
0000
,
0010
0000
0001
0000
,
0100
0000
0010
1000
,
0200
0000
0000
0300
0020
0000
0000
0030
,
0100
0000
1000
0001
,
0100
0000
0000
0001
0000
0000
0010
0000
,
0000
0100
0000
0000
1000
0000
0000
0000
,
0002
0000
0000
0003
2000
0000
0000
3000
,
1001
0000
0000
1001
0000
0000
1001
0000
,
0200
0000
0300
0000
,
0001
0100
0001
0100
,
0010
1000
0100
0000
,
1000
0100
1000
0100
,
0010
0001
0100
0000
,
0001
0000
0000
0100
0000
0000
0001
0000
,
0000
1000
0000
0000
0010
0000
0000
0000
,
2000
0000
0000
3000
0002
0000
0000
0003
,
1001
0000
0000
0110
0000
0000
1001
0000
,
1000
0100
0010
0001
,
0100
0000
0100
0000
,
0001
0010
0100
1000
,
0010
0000
0010
0000
,
1000
0000
0000
0100
0000
0000
1000
0000
,
0000
0001
0000
0000
0010
0000
0000
0000
,
0002
0000
0000
0003
2000
0000
0000
3000
,
1001
0000
0000
0110
0000
0000
1001
0000
,
0100
0000
0000
0000
,
0010
0000
0000
0000
,
1001
0000
0000
0000
,
0010
0000
0000
0000
,
0001
0000
0100
0000
,
0010
0000
1000
0000
,
0100
0000
0000
0000
,
1000
0000
0000
0000
,
0001
0000
0000
0001
0000
0000
1000
0000
,
0000
1000
0000
0000
0010
0000
0000
0000
,
0200
0000
0300
0000
,
0110
0000
0000
0110
0000
0000
0110
0000
,
0001
0000
1000
0000
,
0100
0000
0010
0000
,
0100
0000
1000
0000
,
0001
0000
0100
0000
,
0020
0000
0030
0000
,
0100
0000
0001
0000
,
1100
0000
0000
1001
0000
0000
0101
0000
,
0010
0000
1000
0000
,
2002
0000
0000
3003
;

//---------------dance-single - ----------------
#NOTES:
     dance-single:
     :
     Medium:
     6:
     0.325,0.437,0.272,0.098,0.022:
0000
0000
0000
0000
,
0000
0000
0000
0000
,
0000
0000
0000
0000
,
0000
0000
0000
0000
,
0000
0000
0000
0000
,
0000
0000
0000
0000
,
0000
0000
0000
0000
,
1100
0000
0000
1001
0000
0000
0101
0000
,
0001
1000
0100
0010
,
0001
0100
0000
0100
,
0001
0010
0100
1000
,
0010
0100
0000
0100
,
0001
0000
0000
0010
0000
0000
1000
0000
,
0000
0010
0000
0000
0001
0000
0000
1000
,
0100
0000
0010
0000
,
0011
0000
0000
1001
0000
0000
1010
0000
,
1000
0000
0100
0000
1000
0100
1000
0000
,
0010
0100
0000
0100
,
0001
0010
0001
0000
0010
0100
0010
0000
,
0001
1000
0000
0001
,
1000
0000
0000
0100
0000
0000
0001
0000
,
0000
0100
0000
0000
1000
0000
0000
0001
,
0100
0010
0100
0010
,
0101
0000
0000
0110
0000
0000
1001
0000
,
0020
0000
0030
0000
,
0001
0100
0010
0000
0100
0010
1000
0000
,
0001
0000
1000
0001
0000
0000
0000
0000
,
1000
0100
0010
0000
0100
0010
0001
0000
,
1000
0000
0001
1000
0000
0000
0000
0000
,
0001
0000
0000
0100
0000
0000
1000
0000
,
0000
0100
0000
0000
0001
0000
0000
1000
,
0100
0010
0100
1000
,
1100
0000
0000
0110
0000
0000
1001
0000
,
0001
1000
0100
0000
1000
0100
0010
0000
,
0100
0000
0000
0010
0000
0000
0100
0000
0000
1000
0000
0000
0001
0000
0000
0000
,
1000
0001
0100
0000
0001
0100
0010
0000
,
0100
0010
1000
0000
0001
0000
0000
0000
,
1000
0000
0000
0010
0000
0000
0001
0000
,
0000
0010
0000
0000
1000
0000
0000
0001
,
0100
0010
0100
0001
,
0101
0000
0000
1100
0000
0000
1001
0000
,
0020
0000
1030
0000
,
0200
0000
0301
0000
,
1001
0000
0010
0000
,
1000
0001
0100
0001
,
1000
0000
0100
0000
,
0010
0000
0000
0000
0001
0000
0000
2000
,
0100
0000
0000
0000
3001
0000
0000
0001
,
0100
0000
0000
0001
0000
0000
0100
0000
0000
0000
0000
0000
0000
0000
0000
0000
,
0001
0000
0000
0010
0000
0000
0100
0000
,
0000
1000
0000
0000
0010
0000
0000
0000
,
0100
0000
0000
0000
,
0101
0000
0000
1001
0000
0000
1100
0000
,
0100
0000
0010
0000
,
0001
0000
0000
0000
1000
0000
0000
0002
,
0010
0000
0000
0000
1003
0000
0000
1000
,
0010
0000
0000
1000
0000
0000
0010
0000
0000
0000
0000
0000
0100
0000
0000
0000
,
2002
0000
3003
0000
,
0001
0000
0010
0000
,
1001
0000
0000
1100
0000
0000
0101
0000
,
0110
0000
0100
0000
,
2002
0000
0000
3003
;

//---------------dance-single - ----------------
#NOTES:
     dance-single:
     :
     Hard:
     8:
     0.507,0.605,0.359,0.283,0.093:
0000
0000
0000
0000
,
0000
0000
0000
0000
,
0000
0000
0000
0000
,
0000
0000
0000
0000
,
0001
0010
0100
1000
0001
0010
0100
1000
,
0000
0010
0000
0100
0000
0000
0010
0000
,
1000
1000
0001
0001
,
1100
0000
0000
0011
0000
0000
0101
0000
,
1001
0020
0000
0000
2030
0000
0000
3002
,
0000
0000
0203
0000
0000
0300
0010
0000
,
1000
0002
0000
0000
0203
0000
0000
0000
,
0000
0000
0020
0000
0000
0330
1001
0000
,
0001
0000
0000
0010
0000
0000
0001
0000
0000
0100
0000
0000
0010
0000
0000
1000
,
0000
0000
0100
0000
0000
1000
0000
0000
0001
0000
0000
0000
0100
0000
0001
0000
,
1000
0010
1000
0001
,
0101
0000
0000
1010
0000
0000
1100
0000
,
0110
0002
0000
0000
0203
0000
0000
0320
,
0000
0000
2030
0000
0000
3000
0001
0000
,
1000
0100
0010
0001
1000
0100
0010
0001
,
0000
0000
0220
0000
0000
0330
1001
0000
,
1000
0000
0000
0010
0000
0000
1000
0000
0000
0100
0000
0000
0010
0000
0000
0001
,
0000
0000
0100
0000
0000
0001
0000
0000
1000
0000
0000
0000
0010
0000
1000
0000
,
0001
0010
0100
1000
0001
0010
0100
1000
,
1100
0000
0000
1001
0000
0000
0101
0000
,
0020
0000
0030
0000
,
1000
0100
0001
0001
0100
1000
0100
0100
,
0001
0100
1000
0002
0000
0000
0013
0000
,
0001
0100
1000
1000
0100
0001
0100
0100
,
1000
0100
0001
2000
0000
0000
3010
0000
,
1000
0000
1000
0100
0000
0100
0010
0000
,
0010
1000
0000
1000
0010
0000
0001
0000
,
1000
0100
0010
0001
1000
0100
0010
0001
,
1100
0000
0000
0101
0000
0000
0011
0000
,
1000
0100
0010
0010
0100
0001
0100
0100
,
1000
0000
0000
0010
0000
0000
0100
0000
0000
0001
0000
0000
1000
0000
1000
0000
,
0001
0100
0010
0010
0100
1000
0100
0100
,
0001
0000
1100
0000
0000
1001
1001
0000
,
0001
0000
0000
0000
0001
0000
0100
0000
0000
0010
0000
0000
1000
0000
0000
1000
,
0001
0000
0000
1000
0100
0000
0000
1000
0010
0000
0100
0000
0001
0000
0001
0000
,
1000
0100
0010
0001
1000
0100
0010
0001
,
1100
0000
0000
0101
0000
0000
1001
0000
,
0200
0000
0000
0000
0010
0000
0010
0300
0000
0000
0000
0000
0001
0000
0000
0000
,
1000
0000
0001
1000
0000
0000
0010
0000
,
1001
0000
0010
0001
0001
0000
1000
0000
,
0100
0010
0100
1000
0100
0010
0001
0000
,
1000
0010
0100
0001
0010
0000
0010
0100
,
1000
0000
1000
0001
0100
0000
0010
0100
,
0000
0002
0000
0000
2003
0000
0000
3100
,
0010
0000
0000
0100
0000
0000
0010
0000
0000
0000
0000
0000
0001
0000
0000
0000
,
1000
0000
1000
0010
0000
0010
0100
0000
,
0100
0000
1000
0000
0000
0000
1000
0000
0100
0000
0000
0000
0000
0000
0001
1000
,
0002
0000
0000
0003
,
0011
0000
0000
1010
0000
0000
1001
0000
,
0001
0100
0010
1000
0100
0000
0100
0010
,
0001
0000
0001
1000
0010
0000
0100
0010
,
0000
2000
0000
0000
3002
0000
0000
0013
,
0100
0000
0000
0010
0000
0000
0100
0000
0000
0000
0000
0000
0000
0000
0000
0000
,
2002
0000
3003
0000
,
0100
0000
0010
0000
,
1010
0000
0000
0101
0000
0000
0011
0000
,
1100
0000
0010
0000
,
2002
0000
0000
3003
;

//---------------dance-double - ----------------
#NOTES:
     dance-double:
     :
     Easy:
     3:
     0.174,0.269,0.240,0.044,0.000:
00000000
00000000
00000000
00000000
,
00000000
00000000
00000000
00000000
,
00000000
00000000
00000000
00000000
,
00000000
00000000
00000000
00000000
,
00000000
00000000
00000000
00000000
,
00000000
00000000
00000000
00000000
,
00000000
00000000
00000000
00000000
,
00011000
00000000
00101000
00000000
,
00011000
00000000
00000000
00000000
,
00000100
00000000
00000010
00000000
,
00000001
00000000
00000000
00000000
,
00000100
00000000
00000010
00000000
,
00010000
00000000
00000000
00000000
,
00001000
00000000
00000000
00000000
,
01000000
00000000
00000000
00000000
,
10100000
00000000
10010000
00000000
,
01010000
00000000
00000000
00000000
,
00010000
00100000
01000000
00000000
,
10000000
00000000
00000000
00000000
,
00010000
01000000
00001000
00000000
,
00010000
00000000
00000000
00000000
,
00000100
00000000
00000000
00000000
,
00000010
00000000
00000000
00000000
,
00000011
00000000
00001001
00000000
,
00000202
00000000
00000303
00000000
,
00000001
00000000
00001000
00000000
,
00000100
00000000
00000000
00000000
,
00000100
00000000
00010000
00000000
,
00001000
00000000
00000000
00000000
,
01000000
00000000
01000000
00000000
,
00010000
00000000
00010000
00000000
,
10000000
00000000
00000000
00000000
,
11000000
00000000
01100000
00000000
,
00110000
00000000
00000000
00000000
,
00001000
00010000
00001000
00000000
,
00000010
00000000
00000010
00000000
,
00000001
00001000
00000001
00000000
,
00000100
00000000
00000100
00000000
,
00000010
00000000
00000000
00000000
,
00010000
00000000
00000000
00000000
,
00011000
00000000
00010100
00000000
,
00011000
00000000
00000000
00000000
,
00001000
00000000
00000000
00000000
,
01010000
00000000
00000000
00000000
,
00100000
00000000
00000000
00000000
,
10000000
00000000
01000000
00000000
,
00100000
00000000
00001000
00000000
,
00010000
00000000
00000000
00000000
,
00000100
00000000
00000000
00000000
,
00000010
00000000
00000010
00000000
,
00000001
00000000
00000001
00000000
,
00001000
00000000
00000000
00000000
,
00001010
00000000
00010010
00000000
,
00011000
00000000
00001000
00000000
,
01000000
00000000
00100000
00000000
,
10000000
00000000
00010000
00000000
,
01000000
00000000
00001000
00000000
,
00011000
00000000
00000000
00000000
,
00000100
00000000
00000010
00000000
,
00000001
00000000
00000000
00000000
,
00001001
00000000
00000000
00000000
,
00022000
00000000
00000000
00033000
;

//---------------dance-double - ----------------
#NOTES:
     dance-double:
     :
     Medium:
     5:
     0.274,0.370,0.250,0.054,0.011:
00000000
00000000
00000000
00000000
,
00000000
00000000
00000000
00000000
,
00000000
00000000
00000000
00000000
,
00000000
00000000
00000000
00000000
,
00000000
00000000
00000000
00000000
,
00000000
00000000
00000000
00000000
,
00000000
00000000
00000000
00000000
,
00011000
00000000
00000000
00010010
00000000
00000000
00011000
00000000
,
00001000
01000000
00000000
00010000
,
00000000
00100000
00000000
00001000
,
00010000
00000010
00000000
00001000
,
00000000
00000100
00000000
00000010
,
00000001
00000000
00000000
00000100
00000000
00000000
00001000
00000000
,
00000000
00010000
00000000
00000000
00100000
00000000
00000000
10000000
,
00010000
01000000
00000000
00100000
,
10010000
00000000
00000000
01010000
00000000
00000000
10010000
00000000
,
00100000
00001000
00000000
00010000
,
00000000
00000010
00000000
00001000
,
00000100
00010000
00000000
00001000
,
00000000
01000000
00000000
00010000
,
10000000
00000000
00000000
01000000
00000000
00000000
00010000
00000000
,
00000000
00001000
00000000
00000000
00000010
00000000
00000000
00000001
,
00001000
00000010
00000100
00000001
,
00001001
00000000
00000000
00001100
00000000
00000000
00001001
00000000
,
00000200
00000000
00000300
00000000
,
00001000
00000100
00000001
00000100
,
00001000
00000000
00000010
00010000
00000000
00000000
00000000
00000000
,
00001000
01000000
00010000
00100000
,
10000000
00000000
00100000
00010000
00000000
00000000
00000000
00000000
,
10000000
00000000
00000000
00100000
00000000
00000000
00010000
00000000
,
00000000
00001000
00000000
00000000
00000100
00000000
00000000
00000001
,
00001000
00000100
00000010
00000100
,
00010100
00000000
00000000
00011000
00000000
00000000
01001000
00000000
,
00010000
00100000
01000000
00100000
,
00001000
00000000
00000000
00001000
00000000
00000000
00010000
00000000
00000000
00010000
00000000
00000000
00000100
00000000
00000000
00000000
,
00001000
00000010
00000100
00000010
,
00010000
00001000
00010000
00001000
,
00100000
00000000
00000000
01000000
00000000
00000000
00100000
00000000
,
00000000
00001000
00000000
00000000
00010000
00000000
00000000
00000100
,
00000010
00000100
00001000
00000001
,
00001001
00000000
00000000
00011000
00000000
00000000
10010000
00000000
,
01000000
00000000
00000000
00000000
,
00001000
00000000
00000000
00000000
,
00011000
00000000
00000000
00000000
,
00010000
00000000
00000000
00000000
,
00000010
00000100
00000001
00000000
,
00001000
00000010
00000100
00000000
,
00000001
00000000
00000100
00000000
,
00001000
00000000
00010000
00000000
,
00100000
00000000
00000000
10000000
00000000
00000000
00010000
00000000
,
00000000
01000000
00000000
00000000
00001000
00000000
00000000
00000000
,
00020000
00000000
00030000
00000000
,
00001010
00000000
00000000
00011000
00000000
00000000
00110000
00000000
,
01000000
00000000
10000000
00000000
,
00010000
00000000
00100000
00000000
,
00001000
00000000
00010000
00000000
,
00000010
00000000
00000100
00000000
,
00000002
00000000
00000003
00000000
,
00001000
00000000
00000100
00000000
,
00001001
00000000
00000000
00000110
00000000
00000000
00000101
00000000
,
00000010
00010000
00001000
01000000
,
20020000
00000000
00000000
30030000
;

//---------------dance-double - ----------------
#NOTES:
     dance-double:
     :
     Hard:
     9:
     0.532,0.572,0.305,0.152,0.250: // measure 1
00000000
00000000
00000000
00000000
,  // measure 2
00000000
00000000
00000000
00000000
,  // measure 3
00000000
00000000
00000000
00000000
,  // measure 4
00000000
00000000
00000000
00000000
,  // measure 5
00100000
00100000
00001000
00010000
00000010
00000010
00010000
00001000
,  // measure 6
00000000
01000000
00000000
00100000
00000000
00000000
10000000
00000000
,  // measure 7
01000000
00100000
00001000
00000010
,  // measure 8
00000110
00000000
00000000
00011000
00000000
00000000
01100000
00000000
,  // measure 9
10000000
00000000
01000000
10000000
00000000
00010000
00100000
00001000
,  // measure 10
00010000
00000000
00010000
00000010
00000000
00000100
00000001
00000000
,  // measure 11
00000001
00000000
00000010
00000001
00000000
00001000
00000100
00010000
,  // measure 12
00001000
00000000
00001000
01000000
00000000
00100000
10000000
00000000
,  // measure 13
00010000
00000000
00000000
01000000
00000000
00000000
00001000
00000000
00000000
00010000
00000000
00000000
00100000
00000000
00000000
10000000
,  // measure 14
00000000
00000000
00010000
00000000
00000000
00100000
00000000
00000000
00001000
00000000
00000000
00000000
00000000
00000000
00001000
00000010
,  // measure 15
00000001
00000100
00000000
00000010
,  // measure 16
00000110
00000000
00000000
00011000
00000000
00000000
01100000
00000000
,  // measure 17
00010000
00000000
01000000
00000000
00000000
00000000
00001000
00010000
00001000
00000000
00000000
00000000
00010000
00000000
00000010
00000000
,  // measure 18
00000100
00000000
00000000
00000000
00000000
00000000
00000001
00001000
00000000
00000000
00000010
00000000
00001000
00000000
00000000
00000000
,  // measure 19
00000100
00000100
00010000
00001000
01000000
01000000
00001000
00010000
,  // measure 20
00000000
00000000
00000200
00000000
00000000
00000300
00000000
00000000
,  // measure 21
00001000
00000000
00000000
00000100
00000000
00000000
00010000
00000000
00000000
00001000
00000000
00000000
00000010
00000000
00000000
00000001
,  // measure 22
00000000
00000000
00001000
00000000
00000000
00000100
00000000
00000000
00010000
00000000
00000000
00000000
00000000
00000000
00010000
00100000
,  // measure 23
10000000
10000000
00010000
01000000
00001000
00001000
00010000
00000010
,  // measure 24
00001001
00000000
00000000
00011000
00000000
00000000
10010000
00000000
,  // measure 25
02000000
00000000
03000000
00000000
,  // measure 26
10000000
01000000
00100000
00010000
10000000
01000000
00100000
00010000
,  // measure 27
10000000
01000000
00100000
00002000
00000000
00000000
00013000
00000000
,  // measure 28
00000001
00000100
00000010
00001000
00000001
00000100
00000010
00001000
,  // measure 29
00000001
00000100
00000010
00020000
00000000
00000000
00031000
00000000
,  // measure 30
10000000
00000000
00000000
00010000
00000000
00000000
01000000
00000000
00000000
00001000
00000000
00000000
00010000
00000000
00000000
00100000
,  // measure 31
00000000
00000000
00010000
00000000
00000000
00001000
00000000
00000000
00000100
00000000
00000000
00000000
00000000
00000000
00000010
00001000
,  // measure 32
00000001
00000001
00001000
00000100
00010000
00010000
00001000
01000000
,  // measure 33
10010000
00000000
00000000
00011000
00000000
00000000
00001001
00000000
,  // measure 34
00000001
00000010
00000100
00001000
00000001
00000010
00000100
00001000
,  // measure 35
00000001
00000000
00000000
00000010
00000000
00000000
00000100
00000000
00000000
00010000
00000000
00000000
00010000
00000000
00001000
00000000
,  // measure 36
10000000
00100000
01000000
00010000
10000000
00100000
01000000
00010000
,  // measure 37
10000000
00100000
01000000
00001000
00010000
00000010
00001000
00000001
,  // measure 38
00000101
00000000
00000000
00001000
00000000
00000000
00000010
00000000
00000000
00010000
00000000
00000000
00001000
00000000
00000000
00000010
,  // measure 39
00001000
00000000
00000000
00010000
01000000
00000000
00000000
10000000
00100000
00000000
01000000
00000000
00010000
00000000
00010000
00000000
,  // measure 40
10000000
00000000
00000000
00000000
00100000
01000000
00000000
00000000
00010000
10000000
01000000
00000000
00000000
00100000
00000000
00000000
,  // measure 41
00011000
00000000
00000000
00001000
00000000
00000010
00000001
00000000
00000000
00000100
00000000
00001000
00010000
00000000
00100000
00000000
,  // measure 42
01100000
00000000
00010000
10000000
00000000
00000000
11000000
00010000
,  // measure 43
00100000
00000000
00001000
00000100
00000000
00000000
00001001
00000000
,  // measure 44
00000110
00000000
00001000
00000010
00010000
00000000
00001000
00000000
,  // measure 45
00022000
00000000
00000000
00033000
,  // measure 46
00001000
01000000
00010000
00010000
10000000
00000000
00010000
01000000
,  // measure 47
00001000
00000000
00010000
00000100
00001000
00000000
00000001
00001000
,  // measure 48
00000000
00000020
00000000
00000000
00000230
00000000
00000000
00000301
,  // measure 49
00000100
00000000
00000000
00000010
00000000
00000000
00010000
00000000
00000000
00000000
00000000
00000000
00001000
00000000
00000000
00000000
,  // measure 50
01010000
00000000
00000000
00001000
00000000
00000000
00010000
00000000
00000000
00100000
00000000
00000000
10000000
00000000
00000000
00010000
,  // measure 51
00000000
00000000
00001000
00000000
00000000
00000010
00000000
00000000
00000100
00000000
00000000
00000000
00000000
00000000
00000010
00000100
,  // measure 52
00000001
00001000
00000010
00010000
,  // measure 53
00011000
00000000
00000000
10100000
00000000
00000000
00011000
00000000
,  // measure 54
00010000
00000010
00001000
00001000
00000001
00000000
00001000
00000100
,  // measure 55
00010000
00000000
00001000
01000000
00010000
00000000
10000000
00010000
,  // measure 56
00000000
00200000
00000000
00000000
02300000
00000000
00000000
13000000
,  // measure 57
00100000
00000000
00000000
01000000
00000000
00000000
00001000
00000000
00000000
00000000
00000000
00000000
00100000
00000000
00000000
00000000
,  // measure 58
00022000
00000000
00000000
00033000
,  // measure 59
00000010
00000000
00001000
00000000
,  // measure 60
00011000
00000000
00000000
00000101
00000000
00000000
00011000
00000000
,  // measure 61
01000000
10000000
00100000
01000000
00010000
00100000
01000000
00100000
00001000
00010000
00000010
00001000
,  // measure 62
00002002
00000000
00000000
00003003
;
