#TITLE:Galop;
#SUBTITLE:;
#ARTIST:Shostakovich vs. MMM Classical;
#TITLETRANSLIT:;
#SUBTITLETRANSLIT:;
#ARTISTTRANSLIT:;
#GENRE:Classical Techno;
#CREDIT:;
#MENUCOLOR:;
#METERTYPE:DDR;
#BANNER:Galop-bn.png;
#BACKGROUND:Galop-bg.png;
#LYRICSPATH:;
#CDTITLE:;
#MUSIC:Galop.mp3;
#OFFSET:-0.015;
#SAMPLESTART:33.677;
#SAMPLELENGTH:10.740;
#SELECTABLE:YES;
#LISTSORT:;
#DISPLAYBPM:179.000;
#BPMS:0.000=178.675,224.000=117.415,228.000=178.675;
#STOPS:;
#BGCHANGES:;
#ATTACKS:;

//---------------dance-single - [Ness]----------------
#NOTES:
     dance-single:
     [Ness]:
     Challenge:
     10:
     0.898,0.907,0.539,0.211,0.338:
0000
0000
0000
0000
,
0000
0000
0000
0000
,
0000
0000
0000
0000
,
0000
0000
0000
0000
,
1000
0010
1001
0001
0010
0000
0001
0000
,
1000
0010
1001
0001
0010
0000
0001
0000
,
0010
0001
1001
1000
0010
1000
1001
0001
,
0100
0010
1000
0100
0010
0001
0100
0010
,
1000
0100
1000
0000
1000
0100
1000
0000
0010
0000
1000
0000
1001
0000
1001
0000
,
0001
0100
0001
0000
0001
0100
0001
0000
0010
0000
0001
0000
1001
0000
1001
0000
,
0001
0010
0001
0000
0010
0000
0100
0000
1000
0010
1000
0000
0010
0000
0100
0000
,
0001
0001
0010
0010
0100
0100
1000
1000
,
0001
1000
0001
0000
0001
1000
0001
0000
0010
0000
0001
0000
1001
0000
1001
0000
,
1000
0001
1000
0000
1000
0001
1000
0000
0010
0000
1000
0000
1001
0000
1001
0000
,
1000
0001
1000
0000
0100
0000
0010
0000
0001
1000
0001
0000
0100
0000
0010
0000
,
1000
1000
0010
0010
0100
0100
0001
0001
,
0010
0100
1001
1000
0010
0000
1000
0000
,
0010
0100
1001
0001
0010
0000
0001
0000
,
0010
0001
1001
1000
0100
1000
1001
0001
,
1000
0010
0100
0001
1000
0010
0100
0001
,
1000
1000
0110
0100
0001
0000
1000
0000
,
0001
0001
0110
0100
1000
0000
0001
0000
,
1000
1000
1001
1000
0001
0001
1001
0001
,
0010
0100
1000
0100
0010
0001
0100
0010
,
1000
0100
0010
0100
1000
0000
0001
0000
0100
0001
0100
0000
0001
0100
0001
0000
,
0010
0001
0010
0100
0010
0000
0100
0000
1000
0100
1000
0000
0100
1000
0100
0000
,
1000
0010
0100
0010
1000
0000
0001
0000
1000
0001
1000
0000
0001
1000
0001
0000
,
1000
0010
0100
0001
1000
0000
0001
0000
0100
0000
1001
0000
0101
0000
0000
0000
,
0001
0010
0100
0010
0001
0000
1000
0000
0100
1000
0100
0000
1000
0100
1000
0000
,
0010
1000
0010
0100
0010
0000
0100
0000
0001
0100
0001
0000
0100
0001
0100
0000
,
0001
0010
0100
0010
0001
0000
1000
0000
0001
1000
0001
0000
1000
0001
1000
0000
,
0001
0010
0100
1000
0001
0000
1000
0000
0100
0000
1001
0000
1100
0000
0000
0000
,
1000
0000
0000
1000
0010
0000
0000
0010
0100
0000
0001
0000
1000
0010
0100
0001
,
1000
0001
0101
0001
1000
0100
0010
0000
,
0001
1000
1100
1000
0001
0100
0010
0000
,
1000
0010
1010
0010
0100
0001
0101
0001
,
0010
0100
1000
0010
0100
0001
1000
0100
,
0010
0001
1010
0001
0010
0001
1000
0000
,
0010
1000
0011
1000
0010
1000
0001
0000
,
0010
0010
1001
0100
0010
0010
1001
0100
,
0010
1000
0100
0010
0001
0100
0010
1000
,
0100
0000
0000
0010
0002
0000
0000
0000
0103
0000
0010
0000
0100
0000
0010
0000
,
1000
0000
0000
0100
0020
0000
0000
0000
0031
0000
1000
0000
0001
0000
1000
0000
,
0200
0302
0203
2300
,
3001
0010
0100
1000
0001
0100
0010
1000
,
0001
0000
0000
0010
0200
0000
0000
0000
1300
0000
0001
0000
1000
0000
0001
0000
,
0100
0000
0000
0010
2000
0000
0000
0000
3001
0000
0010
0000
0001
0000
0010
0000
,
0200
2300
3002
0203
,
1300
0100
0010
1000
0001
0010
0100
1000
,
0001
0000
0000
1000
0010
0000
0000
0000
0000
0000
0100
0000
0001
0000
0010
0000
,
1200
2300
3002
0203
,
0310
0000
1000
0000
0100
0000
1000
0000
0010
0000
0000
1000
0100
0000
0010
0000
,
0001
0000
0000
0100
0001
0000
0010
0000
0100
0000
0000
1000
0010
0000
0100
0000
,
0001
0000
0000
0010
0100
0000
1000
0000
0010
0000
0000
1000
0001
0000
0100
0000
,
0010
0000
0000
1000
0100
0000
0010
0000
0001
0000
0000
0100
0010
0000
1000
0000
,
0100
0010
0100
0010
0001
1000
0001
1000
,
0200
0320
0032
2003
,
3010
1000
1001
1000
0100
0010
0001
0100
,
0010
1000
1001
1000
0100
0010
0001
0100
,
0010
1000
1001
0001
0010
0001
1001
0001
,
0100
0001
1000
0100
0010
0001
0100
0001
,
0010
0001
1001
0001
0100
0010
1000
0100
,
0010
0001
1001
0001
0100
0010
1000
0100
,
0010
0001
1001
1000
0010
1000
1001
1000
,
0100
1000
0001
0100
0010
1000
0100
1000
,
0010
1000
0010
0000
0010
0001
0010
0000
0100
0000
0010
0100
1001
0000
0000
0000
,
0100
0001
0100
0000
0100
1000
0100
0000
0010
0000
0100
0010
1001
0000
0000
0000
,
0010
1000
0100
0000
1001
0000
0000
0000
0010
0001
0100
0000
1001
0000
0000
0000
,
1010
1010
0101
0101
1001
0000
1001
0000
;

//---------------dance-single - [Ness]----------------
#NOTES:
     dance-single:
     [Ness]:
     Medium:
     7:
     0.520,0.472,0.317,0.011,0.000:
0000
0000
0000
0000
,
0000
0000
0000
0000
,
0000
0000
0000
0000
,
0000
0000
0000
0000
,
1000
0100
0000
0001
0100
0000
1001
0000
,
0001
0100
0000
1000
0100
0000
1001
0000
,
1000
1000
0000
0001
0010
0010
0000
0001
,
0100
0010
0100
1001
,
0001
0010
0001
0000
1000
0001
0000
0000
,
1000
0010
1000
0000
0001
1000
0000
0000
,
0010
0100
0010
0000
0100
0010
0100
0000
,
0001
0010
0100
1000
,
0001
1000
0001
0000
1000
0001
0000
0000
,
1000
0010
1000
0000
0010
1000
0000
0000
,
0010
0100
0010
0000
0100
0001
0100
0000
,
0001
0010
0100
1000
,
0001
0010
0000
1000
0010
0000
1001
0000
,
1000
0010
0000
0001
0010
0000
1001
0000
,
0001
0001
0000
1000
0010
0010
0000
1000
,
0100
0010
0100
1001
,
0001
0100
0000
1000
0100
0000
1001
0000
,
1000
0100
0000
0001
0100
0000
1001
0000
,
0001
0001
0000
1000
0010
0010
0000
1000
,
0100
0010
0100
1001
,
1000
0010
1000
0000
0100
0000
0100
0000
,
0001
0010
0001
0000
0100
0000
0100
0000
,
1000
0010
1000
0000
0100
0000
0100
0000
,
0001
0010
0001
0000
1000
0001
1000
0000
,
0001
0100
0001
0000
0010
0000
0010
0000
,
1000
0100
1000
0000
0010
0000
0010
0000
,
0001
0100
0001
0000
0010
0000
0010
0000
,
1000
0100
1000
0000
0001
1000
0001
0000
,
0100
1001
0100
1001
,
1000
0001
0000
0100
0010
0000
1001
0000
,
0001
1000
0000
0100
0010
0000
1001
0000
,
0001
1000
0000
0010
0100
0010
0000
1000
,
0001
1001
0100
1001
,
0001
1000
0000
0100
0010
0000
1001
0000
,
1000
0001
0000
0100
0010
0000
1001
0000
,
1000
0001
0000
0010
0100
0010
0000
0001
,
1000
1001
0100
1001
,
0001
1000
0000
0010
0000
0001
0000
0010
,
0000
1000
0000
0100
0000
0010
0000
0001
,
0000
0100
0000
0010
0000
1000
0000
0100
,
0000
0010
0001
0010
0001
0010
0000
0000
,
0000
0100
0000
1000
0000
0010
0000
0001
,
0000
0010
0000
0100
0000
1000
0000
0010
,
0000
0001
0000
0100
0000
0010
0000
1000
,
0000
0001
0010
0100
1000
0001
1000
0010
,
1000
0101
0000
0001
,
0010
0100
1000
0001
,
0010
0100
1100
0010
,
1000
0001
0101
1000
,
0001
0010
1100
0001
,
1000
0010
0101
0001
,
1000
0100
0010
0001
,
1002
0100
0010
1003
,
0001
0100
0000
0010
1000
0000
1001
0000
,
1000
0100
0000
0010
0001
0000
1001
0000
,
0001
1000
0000
0001
1000
0001
0000
1000
,
0001
0010
0100
1000
,
0001
0010
0000
0100
1000
0000
1001
0000
,
1000
0010
0000
0100
0001
0000
1001
0000
,
0001
1000
0000
0001
1000
0001
0000
1000
,
0001
0010
0100
1000
,
0001
0100
0001
0000
1000
0001
0000
0000
,
1000
0100
1000
0000
0001
1000
0000
0000
,
0010
1000
0010
0000
0001
0010
0001
0000
,
1000
0100
0010
1001
;

//---------------dance-single - [Ness]----------------
#NOTES:
     dance-single:
     [Ness]:
     Easy:
     5:
     0.415,0.399,0.253,0.000,0.000:
0000
0000
0000
0000
,
0000
0000
0000
0000
,
0000
0000
0000
0000
,
0000
0000
0000
0000
,
1000
0101
0001
0010
,
0001
1100
1000
0010
,
1000
0100
0010
0100
,
0010
0001
1000
0000
,
0001
0100
0001
0000
,
1000
0100
1000
0000
,
0001
0010
1000
0010
,
0001
1000
0001
1000
,
0001
0010
0001
0000
,
1000
0010
1000
0000
,
0001
0100
1000
0100
,
0001
1000
0001
1000
,
0001
1010
1000
0100
,
1000
0011
0001
0100
,
0001
0001
0010
0010
,
0100
1000
0001
0100
,
0010
1010
1000
0100
,
1000
1100
0001
1000
,
0001
0001
0010
0010
,
0100
1000
0001
0100
,
0010
0000
0010
0000
1000
0100
1000
0000
,
0010
0000
0010
0000
1000
0100
1000
0000
,
0010
0000
0010
0000
1000
0100
1000
0000
,
0001
0001
1000
0000
,
0001
0000
0001
0000
0010
0100
0010
0000
,
0001
0000
0001
0000
0010
0100
0010
0000
,
0001
0000
0001
0000
0010
0100
0010
0000
,
0001
0001
1000
0000
,
0010
0100
0010
0100
,
0001
1001
1000
0010
,
1000
1001
0001
0010
,
0001
1000
0001
1000
,
0010
0100
0001
1000
,
0001
1001
1000
0100
,
1000
1001
0001
0100
,
0001
1000
0001
1000
,
0010
0100
0001
1000
,
0001
0001
1000
1000
,
0001
0001
1000
1000
,
0001
1000
0001
1000
,
0010
0100
0010
0100
,
0001
0001
1000
1000
,
0001
0001
1000
1000
,
0001
1000
0001
1000
,
0010
0100
0010
0100
,
0001
0001
0000
0000
,
0010
0100
0010
0100
,
1000
1000
1001
0000
,
0001
0001
1001
0000
,
1000
1000
1001
0000
,
0001
0001
1001
0000
,
0010
0001
0100
0010
,
1001
0100
0100
0100
,
0001
1001
1000
0100
,
1000
1001
0001
0100
,
0001
0001
1000
1000
,
0010
0100
1001
0000
,
0001
1001
1000
0100
,
0001
1001
0001
0100
,
1000
0001
1000
0100
,
1000
0001
1001
0000
,
0010
0001
1000
1001
,
0010
1000
0001
1001
,
0100
0100
0001
0001
,
1000
0010
0100
1001
;

//---------------dance-single - [Ness]----------------
#NOTES:
     dance-single:
     [Ness]:
     Beginner:
     2:
     0.173,0.218,0.211,0.021,0.000:
0000
0000
0000
0000
,
0000
0000
0000
0000
,
0000
0000
0000
0000
,
0000
0000
0000
0000
,
0000
1001
0000
0000
,
0000
1001
0000
0000
,
0000
0001
0000
1000
,
0000
0001
0000
1000
,
0000
0000
0000
0010
,
0000
0000
0000
0010
,
0000
0100
0000
0100
,
0200
0000
0300
0000
,
0000
0000
0000
0001
,
0000
0000
0000
1000
,
0000
0010
0000
0010
,
0020
0000
0030
0000
,
0000
1001
0000
0000
,
0000
1001
0000
0000
,
0000
1000
0000
0001
,
0000
1000
0000
0001
,
0000
1001
0000
0000
,
0000
1001
0000
0000
,
0000
0001
0000
1000
,
0000
0001
0000
1000
,
0000
0000
0010
0010
,
0000
0000
0010
0010
,
0000
0000
0010
0010
,
0000
0000
1000
1000
,
0000
0000
0001
0001
,
0000
0000
0001
0001
,
0000
0000
0001
0001
,
0000
0000
0100
0100
,
0100
0000
0000
0000
,
0000
1001
0000
0000
,
0000
1001
0000
0000
,
0000
0100
0000
0010
,
0000
0100
0000
0010
,
0000
1001
0000
0000
,
0000
1001
0000
0000
,
0000
0100
0000
0010
,
0000
0100
0000
0010
,
0010
0000
0000
0000
,
0100
0000
0000
0000
,
0001
0000
0000
0000
,
1000
0000
0000
0000
,
0001
0000
0000
0000
,
0010
0000
0000
0000
,
0100
0000
0000
0000
,
1000
0000
0000
0000
,
0001
0001
0000
0000
,
0100
0000
0100
0000
,
0100
0000
0000
0000
,
1000
0000
0000
0000
,
0010
0000
0000
0000
,
0001
0000
0000
0000
,
1000
0000
0000
0000
,
1001
0000
0000
0000
,
0000
1001
0000
0000
,
0000
1001
0000
0000
,
0000
1000
0000
0100
,
0000
0001
0000
0100
,
0000
1001
0000
0000
,
0000
1001
0000
0000
,
0000
0001
0000
0010
,
0000
1000
0000
0010
,
0010
0000
0000
1001
,
0000
0000
0000
1001
,
0000
1001
0000
1001
,
0000
0000
0000
1001
;

//---------------dance-double - [Ness]----------------
#NOTES:
     dance-double:
     [Ness]:
     Easy:
     5:
     0.418,0.436,0.401,0.127,0.000:
00000000
00000000
00000000
00000000
,
00000000
00000000
00000000
00000000
,
00000000
00000000
00000000
00000000
,
00000000
00000000
00000000
00000000
,
00100000
10010000
00010000
00000000
,
01000000
00011000
00000100
00000000
,
00000020
00000030
00000200
00000300
,
00010000
00001000
00011000
00000000
,
00000100
00000100
00000100
00011000
,
01000000
01000000
01000000
00011000
,
00000100
00011000
01000000
00011000
,
00010000
00001000
00010000
00001000
,
01000000
01000000
01000000
00011000
,
00000100
00000100
00000100
00011000
,
01000000
00011000
00000100
00011000
,
00001000
00010000
00001000
00010000
,
00000100
00001001
00001000
00000000
,
00000010
00011000
00100000
00000000
,
02000000
03000000
20000000
30000000
,
00100000
10000000
00010000
01000000
,
00100000
10010000
00010000
00000000
,
01000000
00011000
00000100
00000000
,
00000020
00000030
00000002
00000003
,
00000100
00000010
00000100
00000010
,
00010000
00010000
00001000
01000000
,
00010000
00010000
10000000
01000000
,
00100000
00100000
00001000
00010000
,
00000010
00000010
00000100
00000110
,
00000100
00000100
00000001
00001000
,
00000100
00000100
00010000
00001000
,
00100000
00100000
00010000
10000000
,
01000000
01000000
00100000
01100000
,
01000000
10000000
00010000
00100000
,
00001000
00011000
00010000
00000000
,
00001000
00011000
00010000
00000000
,
00000100
00001000
00000100
00001000
,
00000010
00000100
00000001
00000010
,
00000100
00000110
00000010
00000000
,
00000100
00000110
00000010
00000000
,
00000100
00010000
00001000
01000000
,
00010000
00100000
01000000
10000000
,
00010000
00010000
10000000
10000000
,
00010000
00010000
10000000
10000000
,
00100000
00010000
00001000
00000010
,
00000002
00000000
00000000
00000003
,
00001000
00001000
00000001
00000001
,
00001000
00001000
00000001
00000001
,
00000100
00001000
00010000
01000000
,
20000000
00000000
00000000
00000000
,
30010000
10010000
00000000
10000000
,
00100000
01000000
00001000
00010000
,
00001000
00010000
00011000
00000000
,
00010000
00001000
00011000
00000000
,
00010000
00001000
00011000
00000000
,
00001000
00010000
00011000
00000000
,
00010000
00001000
01000000
00010000
,
20020000
00000000
00000000
30030000
,
00100000
10010000
10000000
00010000
,
01000000
00011000
00000100
00001000
,
00000200
00000300
00000020
00000030
,
00000001
00001000
00000001
00001000
,
00000010
00001001
00001000
00000100
,
00010000
00011000
00001000
01000000
,
00010000
10010000
10000000
10010000
,
00100000
10000000
00010000
00100000
,
00001000
00001000
00001000
00011000
,
00010000
00010000
00010000
00011000
,
00000100
00011000
01000000
00011000
,
00000100
00010000
00001000
00011000
;

//---------------dance-double - [Ness]----------------
#NOTES:
     dance-double:
     [Ness]:
     Medium:
     7:
     0.566,0.544,0.359,0.011,0.000:
00000000
00000000
00000000
00000000
,
00000000
00000000
00000000
00000000
,
00000000
00000000
00000000
00000000
,
00000000
00000000
00000000
00000000
,
00100000
01000000
00000000
10000000
00100000
00000000
10000000
00000000
,
00100000
01000000
00000000
00010000
00100000
00000000
00001000
00000000
,
00010000
00010000
00000000
00000100
00001000
00001000
00000000
00000001
,
00000100
00000010
00000100
00001001
,
00000001
00001000
00000001
00001000
00000010
00001000
00000000
00000000
,
00000001
00001000
00000001
00001000
00000010
00001000
00000000
00000000
,
00000100
00010000
00001000
00000000
01000000
00001000
00010000
00000000
,
00011000
00110000
01100000
11000000
,
10000000
00010000
10000000
00010000
00100000
00010000
00000000
00000000
,
10000000
00010000
10000000
00010000
00100000
00010000
00000000
00000000
,
01000000
00001000
00010000
00000000
00000100
00010000
00001000
00000000
,
00011000
00001010
00000110
00000101
,
00000001
00000010
00000000
00001000
00000010
00000000
00001001
00000000
,
00000001
00000010
00000000
00001000
00000010
00000000
00000110
00000000
,
00000010
00010000
00000000
00001000
00100000
00010000
00000000
10000000
,
00100000
01000000
00010000
10010000
,
10000000
00100000
00000000
00010000
00100000
00000000
10010000
00000000
,
10000000
00100000
00000000
00010000
00100000
00000000
01100000
00000000
,
00100000
00001000
00000000
00010000
00000010
00001000
00000000
00000001
,
00000010
00000100
00001000
00001001
,
00000001
00000010
00000001
00000010
00000100
00000000
00000100
00000000
,
00010000
00001000
00010000
00001000
01000000
00000000
01000000
00000000
,
00010000
10000000
00010000
10000000
00100000
00000000
00100000
00000000
,
10000000
00100000
10000000
00000000
00100000
01000000
01100000
00000000
,
00010000
00100000
00010000
00100000
01000000
00000000
01000000
00000000
,
10000000
00010000
10000000
00010000
00100000
00000000
00100000
00000000
,
00001000
00010000
00001000
00010000
00000100
00000000
00000100
00000000
,
00000010
00000001
00000010
00000000
00000100
00000010
00000110
00000000
,
00000010
00001001
00000100
00001001
,
00010001
00001000
00000000
00010000
00001000
00000000
00011000
00000000
,
00001000
00010000
00000000
10000000
00010000
00000000
10010000
00000000
,
00100000
10000000
00000000
00010000
00100000
10000000
00000000
00100000
,
00001000
00010000
00100000
01100000
,
10000000
00010000
00000000
00001000
00010000
00000000
00011000
00000000
,
00010000
00001000
00000000
00000001
00001000
00000000
00001001
00000000
,
00000010
00000001
00000000
00001000
00000010
00000001
00000000
00000010
,
00010000
00001000
00000010
00000100
,
00001000
00000010
00000000
00000001
00000000
00000010
00000000
00001000
,
00000000
00000100
00000000
00010000
00000000
00001000
00000000
00100000
,
00000000
00010000
00000000
10000000
00000000
00100000
00000000
00010000
,
00000000
00100000
10000000
00010000
01000000
10000000
00000000
00000000
,
00000000
00100000
00000000
10000000
00000000
01000000
00000000
00100000
,
00000000
00001000
00000000
00010000
00000000
00000100
00000000
00000001
,
00000000
00000100
00000000
00001000
00000000
00010000
00000000
00100000
,
00000000
01000000
10000000
00010000
00100000
00010000
01000000
00010000
,
00100000
00000000
00110000
00000000
00000000
00010000
00100000
00010000
,
01000000
00100000
10000000
01000000
,
10000000
00000000
00100000
00000000
01000000
00010000
01000000
00010000
,
00100000
00000000
00001000
00000000
00010000
00001000
00010000
00001000
,
00000100
00000000
00000010
00000000
00001000
00000010
00001000
00000010
,
00000100
00000000
00000001
00000000
00000010
00000001
00000010
00000001
,
00000100
00000010
00010000
00001000
,
00012000
00100000
00010000
00003100
,
00000010
00001000
00000000
00000001
00000010
00000000
00001001
00000000
,
00000010
00000001
00000000
00001000
00000010
00000000
00001001
00000000
,
00000001
00001000
00000000
00001000
00010000
00001000
00000000
00010000
,
00100000
00010000
10000000
10010000
,
00100000
10000000
00000000
00010000
00100000
00000000
10010000
00000000
,
00100000
10000000
00000000
00010000
00100000
00000000
10010000
00000000
,
10000000
00010000
00000000
00010000
00001000
00010000
00000000
00001000
,
00000010
00001000
00000001
00001001
,
00000001
00001000
00000001
00001000
00000010
00001000
00000010
00000000
,
00000001
00001000
00000001
00001000
00000010
00001000
00000010
00000000
,
00000001
00001000
00000010
00000000
00010000
00001000
00100000
00000000
,
00010000
00100000
01000000
10000000
00100000
00000000
10010000
00000000
;

//---------------dance-double - [Ness]----------------
#NOTES:
     dance-double:
     [Ness]:
     Challenge:
     10:
     0.902,0.907,0.496,0.148,0.348:
00000000
00000000
00000000
00000000
,
00000000
00000000
00000000
00000000
,
00000000
00000000
00000000
00000000
,
00000000
00000000
00000000
00000000
,
01000000
00001000
00011000
00010000
00000010
00000000
00001000
00000000
,
00000010
00010000
00011000
00001000
01000000
00000000
00010000
00000000
,
01000000
10000000
00000000
01000000
00010000
00001000
00000000
00000100
,
00000001
00000100
00001000
00000100
00000001
00000100
00001000
00000100
,
00000010
00000001
00000010
00000000
00000010
00000001
00000010
00000000
00001000
00000000
00000010
00000000
00000110
00000000
00000110
00000000
,
00000100
00010000
00000100
00000000
00000100
00010000
00000100
00000000
00001000
00000000
00000100
00000000
00011000
00000000
00011000
00000000
,
00001000
01000000
00001000
00000000
00100000
00000000
00101000
00000000
00001000
01000000
00001000
00000000
00100000
00000000
00101000
00000000
,
00100000
00100000
01000000
01000000
10000000
10000000
00100000
00100000
,
01000000
10000000
01000000
00000000
01000000
10000000
01000000
00000000
00010000
00000000
01000000
00000000
01010000
00000000
01010000
00000000
,
00010000
00100000
00010000
00000000
00010000
00100000
00010000
00000000
00001000
00000000
00010000
00000000
00110000
00000000
00110000
00000000
,
00010000
00100000
00010000
00000000
00001000
00000000
00011000
00000000
00010000
00100000
00010000
00000000
00001000
00000000
00011000
00000000
,
00001000
00001000
00000100
00000100
00000010
00000010
00000001
00000001
,
00001000
00001000
00001100
00010000
00100000
00010000
00100000
00000000
,
10000000
10000000
10100000
00010000
00100000
10000000
00100000
00000000
,
00001000
00001000
00011000
00010000
00000100
00000100
00001100
00000100
,
00000010
00000001
00000100
00000010
00001000
00000100
00000001
00000100
,
00001000
00001000
00001100
00000001
00001000
00000010
00000001
00000010
,
00001000
00001000
00001010
00010000
00100000
10000000
00100000
00010000
,
01000000
01000000
01100000
00010000
00100000
00100000
00110000
00100000
,
00001000
00010000
00001000
00010000
00000010
00001000
00000100
00000001
,
00000100
00000010
00000001
00001000
00000010
00000000
00010000
00000000
00001000
00100000
00001000
00000000
00100000
00010000
00100000
00000000
,
00010000
01000000
00100000
10000000
01000000
00000000
00100000
00000000
00001000
00010000
00001000
00000000
00010000
00000010
00010000
00000000
,
00000010
00001000
00000001
00000010
00000100
00000000
00010000
00000000
00001000
01000000
00001000
00000000
01000000
00100000
01000000
00000000
,
00100000
10000000
01000000
00100000
00001000
00000000
00010000
00000000
00000100
00000000
00011000
00000000
00010100
00000000
00000000
00000000
,
01000000
00100000
10000000
00010000
00100000
00000000
00001000
00000000
00010000
00000010
00010000
00000000
00000010
00001000
00000010
00000000
,
00001000
00000100
00000010
00000001
00000100
00000000
00000010
00000000
00010000
00001000
00010000
00000000
00001000
00100000
00001000
00000000
,
00100000
00010000
10000000
00100000
01000000
00000000
00001000
00000000
00010000
00000100
00010000
00000000
00000100
00000010
00000100
00000000
,
00000010
00000001
00000100
00000010
00010000
00000000
00001000
00000000
01000000
00000000
00011000
00000000
01001000
00000000
00000000
00000000
,
01000000
00000000
00000000
01000000
00100000
00000000
00000000
00100000
10000000
00000000
00010000
00000000
00100000
00001000
00010000
00001000
,
00010000
00000100
00011000
00000100
00010000
00001000
01000000
00001000
,
00010000
00000100
00011000
00000100
00010000
00001000
01000000
00010000
,
10000000
10000000
10010000
00010000
00100000
00100000
00110000
00100000
,
00001000
00010000
00000010
00001000
00000001
00000010
00000100
00010000
,
00001000
01000000
00011000
01000000
00001000
00010000
00000100
00010000
,
00001000
01000000
00011000
01000000
00001000
00010000
00000100
00001000
,
00000001
00000001
00001001
00001000
00000010
00000010
00001010
00000010
,
00010000
00001000
00100000
00010000
10000000
00100000
01000000
00001000
,
00100000
00000000
00000000
00001000
00020000
00000000
00000000
00000000
00031000
00000000
00000010
00000000
00001000
00000000
00000010
00000000
,
00000100
00000000
00000000
00001000
00000002
00000000
00000000
00000000
00000103
00000000
00001000
00000000
00000100
00000000
00001000
00000000
,
00020000
00230000
02300000
03020000
,
10030000
00100000
10000000
01000000
00010000
01000000
00100000
00001000
,
00000010
00000000
00000000
00001000
00020000
00000000
00000000
00000000
00130000
00000000
10000000
00000000
00100000
00000000
10000000
00000000
,
00100000
00000000
00000000
00010000
20000000
00000000
00000000
00000000
31000000
00000000
00010000
00000000
01000000
00000000
00010000
00000000
,
00002000
00003200
00000320
00002030
,
00003001
00000010
00000001
00000100
00001000
00000100
00000001
00001000
,
00000010
00000000
00000000
00010000
00002000
00000000
00000000
00000000
01003000
00000000
00010000
00000000
10000000
00000000
01000000
00000000
,
00100000
00010000
00000000
00000000
01000000
00010000
00000000
00000000
10000000
01000000
00000000
00000000
00100000
00001000
00000000
00000000
,
00011000
00000000
00010000
00000000
00000100
00000000
00001000
00000000
00000010
00000000
00000000
00000100
00000001
00000000
00000010
00000000
,
00000100
00000000
00000000
00010000
00001000
00000000
01000000
00000000
00010000
00000000
00000000
10000000
00100000
00000000
10000000
00000000
,
01000000
00000000
00000000
00100000
00001000
00000000
00010000
00000000
00000100
00000000
00000000
00001000
00000010
00000000
00000100
00000000
,
00000001
00000000
00000000
00000010
00000100
00000000
00010000
00000000
00001000
00000000
00000000
01000000
00100000
00000000
10000000
00000000
,
01000000
00100000
01000000
00100000
00001000
00010000
00001000
00010000
,
00021000
00000010
00001000
00130000
,
01000000
00010000
10010000
10000000
00100000
10000000
01000000
00010000
,
01000000
01000000
01100000
00100000
00001000
00010000
00000010
00000001
,
00000010
00000010
00000110
00000100
00000001
00000001
00001001
00001000
,
00000100
00010000
00001000
01000000
10000000
01000000
00100000
10000000
,
01000000
01000000
01100000
00100000
00001000
00010000
00000010
00000001
,
00000010
00000010
00000110
00000100
00000001
00000010
00001000
00000010
,
00000100
00000100
00001100
00000100
00010000
00010000
00011000
00001000
,
01000000
00100000
10000000
01000000
00010000
01000000
00100000
00001000
,
00010000
00001000
00010000
00000000
00010000
00001000
00010000
00000000
00100000
00000000
00010000
00000000
00011000
00000000
00000000
00000000
,
00001000
00010000
00001000
00000000
00001000
00010000
00001000
00000000
00000010
00000000
00001000
00000000
00011000
00000000
00000000
00000000
,
00001000
00010000
00001000
00000000
00000010
00000000
00001000
00000000
00000010
00000001
00000010
00000000
00000001
00000000
00001000
00000000
,
00000100
00010000
00001000
01000000
00100000
00000000
10010000
00000000
;

//---------------dance-single - Spork!----------------
#NOTES:
     dance-single:
     Spork!:
     Hard:
     9:
     0.680,0.762,0.412,0.169,0.116:
0000
0000
0000
0000
,
0000
0000
0000
0000
,
0000
0000
0000
0000
,
0000
0000
0000
0000
,
0001
0100
0000
1001
0100
0000
0010
0000
,
1000
0100
0000
1001
0100
0000
0010
0000
,
0001
0100
0000
1001
0100
1000
0000
1001
,
0100
0000
0001
0000
0010
0001
1000
0000
,
0001
0010
1000
0010
0001
0001
0000
0000
,
1000
0010
0001
0010
1000
1000
0000
0000
,
1000
0100
0001
0000
1000
0010
0001
0000
,
0100
0001
0010
0100
1000
0010
0100
0001
,
1000
0100
0001
0100
1000
1000
0000
0000
,
0001
0100
1000
0100
0001
0001
0000
0000
,
0001
0010
1000
0000
0001
0100
1000
0000
,
0010
0100
0001
1000
0100
0010
0001
0100
,
0010
1000
0000
0101
0010
0000
1000
0000
,
0001
0010
0000
1100
0010
0000
0001
0000
,
1000
0010
0000
0101
0010
0100
0000
1100
,
0010
0000
0001
0100
0010
1000
0001
0000
,
0001
0100
0000
1010
0100
0000
0001
0000
,
1000
0100
0000
0011
0100
0000
1000
0000
,
0001
0100
0000
1010
0100
0010
0000
0011
,
0100
0000
0001
0100
0010
1000
0001
0000
,
0010
0000
0001
0000
0100
0000
0000
0000
0010
1000
0010
0000
1000
0010
1000
0000
,
0100
0000
1000
0000
0001
0000
0000
0000
0010
0100
0010
0000
0100
0010
0100
0000
,
1000
0000
0001
0000
0100
0000
0000
0000
0010
1000
0010
0000
1000
0010
1000
0000
,
0100
0010
0001
1000
0010
0010
0010
0000
,
1000
0000
0100
0000
0010
0000
0100
0000
0010
0001
0010
0000
0001
0010
0001
0000
,
1000
0000
0010
0000
0100
0000
0010
0000
0100
0001
0100
0000
0001
0100
0001
0000
,
0010
0000
0001
0000
1000
0000
0100
0000
0010
0100
0010
0000
0100
0010
0100
0000
,
1000
0100
0010
0001
0100
0100
0100
0000
,
1100
0100
0010
0001
,
0101
0100
0010
1000
0100
0010
1000
0000
,
1001
0001
0100
0010
1000
0010
0001
0000
,
0001
0010
0000
1100
0010
0100
0000
0101
,
0010
0000
1000
0100
0010
0001
1000
0000
,
1010
0010
0100
0001
0010
0100
0001
0000
,
1001
1000
0010
0100
0001
0100
1000
0000
,
1000
0100
0000
0011
0100
0010
0000
1010
,
0100
0000
0001
0010
0100
0000
0000
0000
,
0000
0001
0000
0100
0000
0010
0000
1000
,
0000
1000
0000
1000
0000
1000
0000
0100
,
0000
0010
0000
0100
0000
1000
0000
0001
,
0000
1000
0010
0100
0001
1000
0000
0000
,
0000
1000
0000
0010
0000
0100
0000
0001
,
0000
0001
0000
0001
0000
0001
0000
0010
,
0000
0100
0000
0010
0000
0001
0000
1000
,
0000
0001
0100
0010
1000
0001
0100
0010
,
0100
0001
0010
0100
1000
0010
0100
0001
,
0000
1100
0000
1100
0000
0101
0000
0101
,
0000
0000
1000
0000
0100
0000
0010
0000
0001
0000
0000
0001
1000
0000
0000
0000
,
0000
0000
0001
0000
0100
0000
0010
0000
1000
0000
0000
1000
0001
0000
0000
0000
,
0000
0000
1000
0000
0100
0000
0001
0000
0100
0000
0000
0100
1000
0000
0000
0000
,
0000
0000
0001
0000
0100
0000
1000
0000
0100
0000
0000
0100
0001
0000
0000
0000
,
0000
0011
0000
0011
0000
1010
0000
1010
,
0002
0023
0230
2300
,
3001
0100
0000
2010
0001
0000
3010
0000
,
1000
0100
0000
0012
1000
0000
0013
0000
,
0001
0100
0000
2010
0100
0001
3000
0012
,
0010
0000
1003
0010
0100
0001
1000
0000
,
0001
0010
0000
2100
0001
0000
3100
0000
,
1000
0010
0000
0102
1000
0000
0103
0000
,
0001
0010
0000
2100
0010
0001
3000
0102
,
0100
0000
1003
0100
0010
0001
1000
0000
,
0010
1000
0010
0000
1000
0010
1000
0000
0001
0000
0020
0000
0000
0000
0030
0000
,
0010
0001
0010
0000
0001
0010
0001
0000
1000
0000
0020
0000
0000
0000
0030
0000
,
1000
0100
1000
0000
2000
0000
0000
0000
3001
0100
0001
0000
0002
0000
0000
0000
,
0103
0010
0100
0010
1001
0000
0110
0000
;

//---------------dance-double - Spork!----------------
#NOTES:
     dance-double:
     Spork!:
     Hard:
     9:
     0.647,0.762,0.422,0.084,0.121: // measure 1
00000000
00000000
00000000
00000000
,  // measure 2
00000000
00000000
00000000
00000000
,  // measure 3
00000000
00000000
00000000
00000000
,  // measure 4
00000000
00000000
00000000
00000000
,  // measure 5
00000100
00000010
00000000
00100000
00000000
00000000
11000000
00000000
,  // measure 6
00010000
01000000
00000000
00000100
00000000
00000000
00000011
00000000
,  // measure 7
00000100
00000010
00000000
00000010
00001000
00000100
00000000
00000100
,  // measure 8
00000010
00000000
00000010
00001000
00010000
00000000
00011000
00000000
,  // measure 9
00001000
00010000
00100000
00000000
00010000
00100000
10000000
00000000
00100000
00000000
00010000
00000000
00001000
00000000
00001000
00000000
,  // measure 10
00010000
00001000
00000010
00000000
00001000
00000010
00000001
00000000
00000010
00000000
00001000
00000000
00010000
00000000
00010000
00000000
,  // measure 11
00001000
00010000
00100000
00000000
00010000
00000000
00000000
00000000
00010000
00001000
00000010
00000000
00001000
00000000
00000000
00000000
,  // measure 12
10000000
01000000
00100000
00010000
00001000
00000100
00000010
00000001
,  // measure 13
00010000
00001000
00000100
00000000
00001000
00000100
00000001
00000000
00000100
00000000
00001000
00000000
00010000
00000000
00010000
00000000
,  // measure 14
00001000
00010000
01000000
00000000
00010000
01000000
10000000
00000000
01000000
00000000
00010000
00000000
00001000
00000000
00001000
00000000
,  // measure 15
00010000
00001000
00000100
00000000
00001000
00000000
00000000
00000000
00001000
00010000
01000000
00000000
00010000
00000000
00000000
00000000
,  // measure 16
00000001
00000010
00000100
00001000
00010000
00100000
01000000
10000000
,  // measure 17
00100000
01000000
00000000
00000100
00000000
00000000
00000011
00000000
,  // measure 18
00001000
00000010
00000000
00100000
00000000
00000000
11000000
00000000
,  // measure 19
00100000
01000000
00000000
01000000
00010000
00100000
00000000
00100000
,  // measure 20
01000000
00000000
01000000
00010000
00001000
00000000
00011000
00000000
,  // measure 21
00010000
00000100
00000000
01000000
00000000
00000000
10100000
00000000
,  // measure 22
00010000
00100000
00000000
00000010
00000000
00000000
00000101
00000000
,  // measure 23
00000010
00000100
00000000
00000100
00001000
00000010
00000000
00000010
,  // measure 24
00000100
00000000
00000100
00001000
00010000
00000000
00011000
00000000
,  // measure 25
00001000
00010000
00001000
00010000
01000000
00100000
00000010
00000100
,  // measure 26
00001000
00010000
00001000
00010000
00100000
01000000
00000100
00000010
,  // measure 27
00001000
00010000
00001000
00010000
01000000
00100000
00000010
00000100
,  // measure 28
00001000
00010000
00100000
00010000
00001000
00001000
00001000
00000000
,  // measure 29
00010000
00001000
00010000
00001000
00000010
00000100
01000000
00100000
,  // measure 30
00010000
00001000
00010000
00001000
00000100
00000010
00100000
01000000
,  // measure 31
00010000
00001000
00010000
00001000
00000010
00000100
01000000
00100000
,  // measure 32
00010000
00001000
00000010
00001000
00010000
00010000
00010000
00000000
,  // measure 33
00200000
20300000
30020000
00230000
,  // measure 34
01300000
00100000
00000000
00000010
00000000
00000000
00001001
00000000
,  // measure 35
00001000
00000100
00000000
01000000
00000000
00000000
10010000
00000000
,  // measure 36
10000000
00100000
00000000
00100000
00010000
00001000
00000000
00001000
,  // measure 37
00010000
00000000
01000000
00100000
00001000
00010000
00001000
00000000
,  // measure 38
00000010
00000100
00000000
01000000
00000000
00000000
10010000
00000000
,  // measure 39
00010000
00100000
00000000
00000010
00000000
00000000
00001001
00000000
,  // measure 40
00000001
00000100
00000000
00000100
00001000
00010000
00000000
00010000
,  // measure 41
00001000
00000000
00000010
00000100
00010000
00000000
00000000
00000000
,  // measure 42
00000000
00000101
00000000
00000101
00000000
00000100
00000000
00001000
,  // measure 43
00000000
00011000
00000000
00011000
00000000
00010000
00000000
01000000
,  // measure 44
00000000
11000000
00000000
11000000
00000000
00010000
00000000
10000000
,  // measure 45
00000000
00100000
00010000
00001000
00100000
00010000
00000000
00000000
,  // measure 46
00000000
10100000
00000000
10100000
00000000
00100000
00000000
00010000
,  // measure 47
00000000
00011000
00000000
00011000
00000000
00001000
00000000
00000010
,  // measure 48
00000000
00000011
00000000
00000011
00000000
00001000
00000000
00000001
,  // measure 49
00000000
00000100
00001000
00010000
00000100
00001000
00000001
00000100
,  // measure 50
00001000
00000000
00000000
00000000
00010000
00000000
00100000
00000000
10000000
00000000
00000000
01000000
00010000
00000000
00000000
00000000
,  // measure 51
00000000
00110000
00000000
00011000
00000000
00001010
00000000
00011000
,  // measure 52
00000000
00000000
00001000
00000000
00000100
00000000
00000001
00000000
00000010
00000000
00000000
00000010
00001000
00000000
00000000
00000000
,  // measure 53
00000000
00000000
00010000
00000000
01000000
00000000
10000000
00000000
00100000
00000000
00000000
00100000
00010000
00000000
00000000
00000000
,  // measure 54
00000000
00000000
00001000
00000000
00000010
00000000
00000001
00000000
00000100
00000000
00000000
00000100
00001000
00000000
00000000
00000000
,  // measure 55
00000000
00000000
00010000
00000000
00100000
00000000
10000000
00000000
01000000
00000000
00000000
01000000
00010000
00000000
00000000
00000000
,  // measure 56
00000000
00001100
00000000
00011000
00000000
01010000
00000000
00011000
,  // measure 57
00000200
00000302
00002003
00003200
,  // measure 58
00000310
00000100
00000000
01000000
00000000
00000000
10100000
00000000
,  // measure 59
00010000
00100000
00000000
00000010
00000000
00000000
00000101
00000000
,  // measure 60
00001000
00000100
00000000
00000100
00010000
00001000
00000000
00001000
,  // measure 61
00000010
00000000
00000001
00000100
00001000
00000000
00011000
00000000
,  // measure 62
00000100
00000010
00000000
00100000
00000000
00000000
11000000
00000000
,  // measure 63
00010000
01000000
00000000
00000100
00000000
00000000
00000011
00000000
,  // measure 64
00001000
00000010
00000000
00000010
00010000
00001000
00000000
00001000
,  // measure 65
00000010
00000000
00001000
00010000
00100000
00000000
10010000
00000000
,  // measure 66
01000000
00010000
01000000
00000000
00100000
10000000
00100000
00000000
10000000
00000000
00001000
00000000
00010000
00000000
00000000
00000000
,  // measure 67
00000010
00001000
00000010
00000000
00000100
00000001
00000100
00000000
00000001
00000000
00010000
00000000
00001000
00000000
00000000
00000000
,  // measure 68
00010000
00001000
00000100
00000000
00001000
00000000
00000000
00000000
00001000
00010000
01000000
00000000
00010000
00000000
00000000
00000000
,  // measure 69
00001000
00010000
00100000
10000000
00010000
00000000
00011000
00000000
;
