#TITLE:Forgive Me;
#SUBTITLE:;
#ARTIST:Infected Mushroom;
#TITLETRANSLIT:;
#SUBTITLETRANSLIT:;
#ARTISTTRANSLIT:;
#GENRE:;
#CREDIT:;
#MENUCOLOR:;
#METERTYPE:DDR;
#BANNER:Forgive Me-bn.png;
#BACKGROUND:Forgive Me-bg.png;
#LYRICSPATH:Forgive Me.lrc;
#CDTITLE:ddrencorecdtitle.png;
#MUSIC:Forgive Me.mp3;
#OFFSET:-0.048;
#SAMPLESTART:65.455;
#SAMPLELENGTH:12.000;
#SELECTABLE:YES;
#LISTSORT:;
#DISPLAYBPM:110.000;
#BPMS:0.000=110.000,15.000=220.000,16.000=110.000,46.000=220.000,48.000=110.000,80.000=55.000,86.000=220.000,88.000=110.000,116.000=73.333,118.000=220.000,120.000=110.000,184.000=55.000,186.000=27.500;
#STOPS:15.000=0.273
,46.000=0.545
,86.000=1.636
;
#BGCHANGES:;
#ATTACKS:;

//---------------dance-single - ----------------
#NOTES:
     dance-single:
     :
     Beginner:
     1:
     0.084,0.129,0.055,0.018,0.000:
0000
0000
0000
0000
,
0000
0000
0000
0000
,
0000
0000
0000
0000
,
0000
0000
0000
0000
,
1000
0000
0000
0000
,
0001
0000
0000
0000
,
1000
0000
0000
0000
,
0100
0000
0000
0000
,
1000
0000
0000
0000
,
0010
0000
0000
0000
,
1000
0000
0000
0000
,
0001
0000
1000
0000
,
0001
0000
0000
0000
,
0100
0000
0010
0000
,
1000
0000
0000
0000
,
0001
0000
0010
0000
,
0100
0000
0000
0000
,
0010
0000
0000
0000
,
0001
0000
1000
0000
,
0001
0000
0100
0000
,
0010
0000
0010
0000
,
0010
0000
1001
0000
,
1000
0000
0000
0000
,
1001
0000
0000
0000
,
0001
0000
0000
0000
,
1001
0000
0000
0000
,
0100
0000
0000
0000
,
0110
0000
0000
0000
,
0010
0000
0000
0000
,
0110
0000
0000
0000
,
1000
0000
0000
0000
,
0001
0000
0100
0000
,
0010
0000
0000
0000
,
0100
0000
0010
0000
,
1000
0000
0000
0000
,
0001
0000
0000
0000
,
1000
0000
0100
0000
,
1000
0000
0001
0000
,
0100
0000
0000
0000
,
0010
0000
0000
0000
,
0100
0000
0010
0000
,
0100
0000
0001
0000
,
1000
0000
0000
0000
,
0001
0000
0000
0000
,
0100
0000
0000
0000
,
0010
0000
0000
0000
,
2002
0000
0000
0000
0000
3003
0000
0000
;

//---------------dance-single - ----------------
#NOTES:
     dance-single:
     :
     Easy:
     3:
     0.156,0.214,0.055,0.110,0.000:
0000
0000
0000
0000
,
0000
0000
0000
0000
,
0000
0000
0000
0000
,
0000
0000
0000
0000
,
0001
0000
1000
1000
,
0002
0000
0000
0000
,
1003
0000
0001
0001
,
2000
0000
0000
0000
,
3010
0000
1000
1000
,
0200
0000
0000
0000
,
1300
0000
0100
0010
,
0001
0000
1001
0000
,
1000
0000
0001
0000
,
0100
0000
0010
0100
,
0001
0000
1000
0000
,
0001
0100
0001
0001
,
1000
0000
0100
0000
,
1000
0000
0001
0100
,
0020
0000
0000
0000
,
0230
0000
0000
0000
,
0310
0000
0100
0000
,
0010
0000
1001
0000
,
0001
0000
1000
0000
,
0001
0000
0010
0100
,
1000
0000
0001
0000
,
1000
0000
0010
0100
,
0001
0000
1000
0000
,
0001
0000
0100
0010
,
1000
0000
0001
0000
,
2002
0000
0000
3003
0100
0000
0000
0000
,
0100
0000
0010
0000
,
0100
0000
0010
1000
,
0001
0000
0010
0000
,
0001
0100
0010
0010
,
0100
0000
0001
0000
,
1000
0000
0100
1000
,
0002
0000
2003
0000
,
3010
1000
0001
0100
,
1001
0000
0010
0000
,
1001
0000
0100
0000
,
0010
0100
0001
0000
,
0100
0010
1000
0000
,
0001
0000
1000
0000
,
0100
0000
0010
0100
,
2000
0000
0001
0000
,
3010
0000
0010
0100
,
2002
0000
0000
0000
0000
3003
0000
0000
;

//---------------dance-single - ----------------
#NOTES:
     dance-single:
     :
     Medium:
     5:
     0.265,0.321,0.064,0.101,0.000:
0000
0000
0000
0000
,
0000
0000
0000
0000
,
0000
0000
0000
0000
,
0000
0000
0000
0000
,
0001
0000
1000
0000
0010
1000
0010
0100
,
0002
1000
0000
1003
,
0010
0000
1000
0000
0001
0010
0001
1000
,
0200
0010
0000
0310
,
0100
0000
1000
0000
0001
0100
0001
1000
,
0020
1000
0000
1030
,
0001
0000
0100
0000
0010
0100
0010
1000
,
0001
0010
1001
0000
,
1000
0010
1000
0001
,
0100
0001
1000
0000
0000
0000
0001
0000
,
1000
0100
1000
0001
,
0100
0001
0100
0010
1000
0000
1000
0001
,
0100
0010
1000
0001
,
1000
0000
0000
0000
0100
1000
0100
0010
,
0002
0000
1000
0000
,
0203
0000
0001
0010
,
0301
0000
1000
0000
,
0001
0000
1001
0000
,
1000
0100
0001
0100
,
1000
0010
0001
0010
,
0001
0100
1000
0100
,
0001
0010
1000
0010
,
0001
0100
1000
0001
,
0010
0100
0001
1000
,
0100
0001
1000
0010
,
2002
0000
0000
3003
1000
0000
0000
0000
,
0001
1000
0100
1000
,
0001
1000
0100
0000
1000
0000
0001
0000
,
0100
0001
0100
0001
1000
0000
0100
0000
,
0010
0000
0001
1000
0100
0000
0010
0000
,
0100
1000
0010
0100
,
0001
0000
1000
0000
0100
0000
1000
0010
,
0100
0001
0000
1000
0010
0000
0010
0100
,
0010
1000
0010
0100
0001
0000
0100
0000
,
1001
0000
0010
0000
1000
0001
0100
0000
,
1001
0000
0001
0000
0010
0001
1000
0000
,
0001
0100
0001
0100
0010
0000
1000
0010
,
1000
0010
0100
0001
0100
0000
0010
0000
,
1001
0000
0010
0000
0100
0001
1000
0000
,
0100
0000
0010
0000
0100
1000
0100
0010
,
0002
0000
0010
0000
,
2003
0000
3001
0100
,
2002
0000
0000
0000
0000
3003
0000
0000
;

//---------------dance-single - ----------------
#NOTES:
     dance-single:
     :
     Hard:
     9:
     0.437,0.579,0.165,0.184,0.437: // measure 1
0000
0000
0000
0000
,  // measure 2
0000
0000
0000
0000
,  // measure 3
0000
0000
0000
0000
,  // measure 4
0000
0000
0000
0000
0000
0000
0000
0000
0000
0000
0000
0000
0000
0000
0000
0000
0000
0000
0000
0000
0000
0000
0000
0000
0000
0000
0000
0000
0000
0000
0000
0000
0000
0000
0000
0000
0000
0000
0000
0000
0000
0000
0000
0000
0000
0000
0000
0000
2002
3003
0000
0000
0000
0000
0000
0000
0000
0000
0000
0000
0000
0000
0000
0000
,  // measure 5
1000
0000
0000
0000
0001
0000
1000
0010
0000
0100
0000
0000
0010
0000
1000
0000
,  // measure 6
0002
0000
0000
0000
0010
0000
0000
0100
0000
0100
0000
0000
0013
0000
0000
0000
,  // measure 7
0001
0000
0000
0000
1000
0000
0010
1000
0000
0001
0000
0000
0100
0000
0010
0000
,  // measure 8
2000
0000
0000
0000
0010
0000
0000
0001
0000
0001
0000
0000
3010
0000
1000
0000
,  // measure 9
0100
0000
0000
0000
1000
0000
0010
0100
0000
0010
0000
0000
1000
0000
0001
0000
,  // measure 10
0200
0000
0000
0000
0010
0000
0000
1000
0000
1000
0000
0000
0310
0000
0000
0000
,  // measure 11
0100
0000
0000
0000
0001
0000
1000
0100
0000
0010
0000
0000
0100
0000
1000
0000
,  // measure 12
0010
0000
0000
0000
0000
0000
0000
0000
0000
0000
0000
0000
0000
0000
0000
0000
0100
0000
0000
0000
0000
0000
0000
0000
0000
0000
0000
0000
0000
0000
0000
0000
1002
1003
0000
0000
0000
0000
0000
0000
0000
0000
0000
0000
0000
0000
0000
0000
0001
0000
0000
0000
0000
0000
0000
0000
0000
0000
0000
0000
0000
0000
0000
0000
,  // measure 13
0100
0000
0000
0000
0010
1000
0000
0001
0000
0100
0000
0000
0010
1000
0000
0001
,  // measure 14
0000
0010
0000
0000
0001
0000
0000
1000
0000
0100
0000
0000
1000
0000
0001
0000
,  // measure 15
0100
0000
0000
0000
0010
1000
0000
0001
0000
0100
0000
0000
0010
1000
0000
0000
,  // measure 16
0010
0100
0000
0001
0000
1000
0000
0101
0000
1100
0000
0000
1000
0000
0001
0000
,  // measure 17
0010
0000
0000
0000
1001
0000
0000
1100
0000
1000
0001
0000
0000
0000
0100
0000
,  // measure 18
0001
0000
0000
0000
1000
0000
0000
0010
0000
1000
0001
0000
0100
0000
0001
0000
,  // measure 19
1000
0000
0000
0000
0010
0000
0000
1000
0000
0001
0010
0000
0100
0000
0010
0000
,  // measure 20
0001
0000
0000
0000
1100
0000
0000
1000
0000
0010
1000
0000
0010
0000
0001
0000
,  // measure 21
0010
0000
0000
0100
0000
0000
0010
0000
0000
1000
0000
0000
0001
0000
0010
0000
0100
0000
0000
0001
0000
0000
0100
0000
0000
1000
0000
0000
0100
0000
0010
0000
,  // measure 22
0001
0000
0000
0000
0000
0000
0010
0000
0000
0000
0000
0000
1000
0000
0000
0000
0000
0000
0010
0000
0000
0000
0000
0000
0100
0000
0000
0000
1000
0000
0000
0000
2002
3003
0000
0000
0000
0000
0000
0000
0000
0000
0000
0000
0000
0000
0000
0000
1000
0000
0000
0000
0100
0000
0000
0000
0010
0000
0000
0000
0001
0000
0000
0000
,  // measure 23
2000
0000
0000
0010
0000
0000
0100
0000
0000
0010
0000
0000
3001
0000
1000
0000
,  // measure 24
0200
0000
0000
1000
0000
0000
0010
0000
0000
0001
0000
0000
0310
0000
0001
0000
,  // measure 25
2000
0000
0000
0010
0000
0000
0001
0000
0000
0100
0000
0000
3010
0000
1000
0000
,  // measure 26
0001
0000
0000
1000
0100
0000
0010
0000
0100
1000
0000
0001
0100
0000
0010
0000
,  // measure 27
2100
0000
0010
0000
3010
1000
0001
0010
,  // measure 28
1002
0000
0100
0000
0013
0001
0100
0010
,  // measure 29
0201
0000
0010
0000
0301
0100
1000
0100
,  // measure 30
0010
1000
0000
0000
0100
0000
0000
0000
1000
0000
0001
0000
0100
0000
0000
0000
0000
0000
0010
0000
0000
0000
0000
0000
,  // measure 31
1001
0000
0000
0000
1000
0010
0000
0100
0000
0001
0000
0000
1000
0000
0100
1000
,  // measure 32
0000
0010
0100
0000
0010
0000
0000
1000
0000
0001
0000
0000
0100
0000
0010
0000
,  // measure 33
1000
0000
0001
0000
0010
0100
0000
0010
0000
0000
0001
0000
1000
0000
0100
0000
,  // measure 34
1000
0000
0010
0000
0100
0001
0000
0100
0000
0000
0010
0000
1000
0000
0001
0000
,  // measure 35
0010
0000
0000
0000
1001
0000
0000
1100
0000
1000
0001
0000
0000
0000
0100
0000
,  // measure 36
0010
0000
0000
0000
1001
0000
0000
0010
0000
0100
0001
0000
1000
0000
0100
0000
,  // measure 37
0010
0002
0000
1000
1000
1000
0003
1000
,  // measure 38
0010
0100
0001
2000
0000
0000
0001
3010
,  // measure 39
1001
0000
1000
0000
0100
1000
0000
0100
0000
0010
0000
0000
0001
0000
0100
0000
,  // measure 40
0010
1000
0000
0001
0000
0010
0100
0000
0010
0000
0000
0000
0001
0000
1000
0000
,  // measure 41
0001
0000
0100
0000
1000
0000
0100
0010
0000
0000
1000
0000
0100
0000
0001
0000
,  // measure 42
0100
0000
0010
0000
0001
1000
0000
0010
0000
0000
1000
0000
0001
0000
0100
0000
,  // measure 43
0010
0000
0000
0000
1001
0000
0000
0011
0000
0001
1000
0000
0000
0000
0100
0000
,  // measure 44
0010
0000
0001
0000
0100
1000
0100
0010
,  // measure 45
2000
0000
0000
0000
0001
0000
0000
0010
0000
0001
0000
0000
3100
0000
1000
0000
,  // measure 46
0020
0000
0100
0000
0130
0001
1000
0100
,  // measure 47
0020
0000
0000
0000
0200
0330
0000
0000
;

//---------------dance-double - ----------------
#NOTES:
     dance-double:
     :
     Easy:
     3:
     0.164,0.193,0.046,0.202,0.000:
00000000
00000000
00000000
00000000
,
00000000
00000000
00000000
00000000
,
00000000
00000000
00000000
00000000
,
00000000
00000000
00000000
00000000
,
00010000
00000000
00001000
00000000
,
00200000
00000000
00300000
00000000
,
00010000
00000000
10000000
00000000
,
02000000
00000000
03000000
00000000
,
10000000
00000000
00010000
00000000
,
02000000
00000000
03000000
00000000
,
00001000
00000000
00010000
00000000
,
00000200
00000000
00001300
00000000
,
00000001
00000000
00000100
00000000
,
00001000
00000100
00000001
00000000
,
00001000
00000000
00000100
00000000
,
00010000
00001000
01000000
00100000
,
10000000
00000000
00010000
00000000
,
01000000
00000000
00001000
00010000
,
00002000
00000000
00000000
00000000
,
00023000
00000000
00000000
00000000
,
00031000
00000000
00110000
00000000
,
00010000
00000000
00001100
00000000
,
00020000
00000000
00030100
00001000
,
00000200
00000000
00000310
00000001
,
00000020
00000000
00000130
00001000
,
00000002
00000000
00000203
00000000
,
00000320
00000000
00010030
00001000
,
02000000
00000000
03100000
10000000
,
00020000
00000000
00130000
00001000
,
00022000
00000000
00033000
00000000
,
00001000
00000000
00010000
00000000
,
00000100
00001000
00000010
00000100
,
00000001
00000000
00001000
00000000
,
00000010
00010000
00001000
00010000
,
00000100
00000000
00001000
00000000
,
00000010
00000000
00010000
00001000
,
02000000
00000000
03020000
00000000
,
10030000
01000000
00100000
00000000
,
01000000
00000000
01000000
00000000
,
10000000
00010000
10000000
00000000
,
00010000
00000000
00010000
00000000
,
01000000
00001000
00010000
00000000
,
00011000
00000000
00000100
00000000
,
00001000
00000000
00000010
00000100
,
00000002
00000000
00000000
00000000
,
00002003
00000000
00000010
00003010
,
00002002
00000000
00000000
00000000
00000000
00003003
00000000
00000000
;

//---------------dance-double - ----------------
#NOTES:
     dance-double:
     :
     Medium:
     6:
     0.289,0.343,0.110,0.129,0.037:
00000000
00000000
00000000
00000000
,
00000000
00000000
00000000
00000000
,
00000000
00000000
00000000
00000000
,
00000000
00000000
00000000
00000000
,
00000001
00000100
00001000
00000100
,
00000020
00000000
00000000
00010030
,
00001000
01000000
00100000
00010000
,
00200000
00000000
01300000
00010000
,
11000000
01000000
00010000
01000000
,
00200000
00000000
00300000
00010000
,
01000000
00001000
00010000
00000100
,
00000020
00000130
00001001
00000000
,
00000001
00000100
00000010
00001000
,
00000100
00010000
00001000
00000000
00010000
00000000
00001000
00000000
,
01000000
00010000
00100000
00001000
,
00010000
00000100
00010000
00001000
01000000
00000000
00100000
10000000
,
00010000
00000000
00000000
00000000
00100000
00000000
00000000
00100000
00000000
00100000
00010000
00000000
00000000
00000000
01000000
00000000
,
00010000
00000000
10000000
00000000
00100000
10000000
00100000
01000000
,
00020000
00000000
01000000
00000000
,
20030000
00100000
00010000
31000000
,
10010000
00000000
00011000
00000000
,
00001001
00000000
00011000
00000000
,
00010000
00000000
00001000
00000000
01000000
00010000
00100000
01000000
,
10000000
00000000
01000000
00000000
00100000
00001000
00010000
00000100
,
00001000
00000000
00000010
00000000
00000100
00000001
00001000
00000010
,
00010000
00000010
00000100
00001001
,
00000101
00000000
00000010
00000000
00010000
00001000
00100000
00001000
,
00011000
00000000
01000000
00000000
00010000
00100000
01000000
00100000
,
10010000
00000000
00100000
00000000
00001000
00010000
00001000
01000000
,
00022000
00000000
00000000
00033000
00010000
00000000
00000000
00000000
,
00001000
00100000
00010000
01000000
,
00100000
10000000
00010000
00000000
01000000
00000000
00100000
10000000
,
00010000
01000000
00001000
00010000
,
00000100
00001000
00000100
00010000
00001000
00000000
00010000
00000100
,
00001000
00000000
00000000
00000000
00000010
00000000
00000000
00000010
00000000
00000010
00000100
00000000
00000000
00000000
00000001
00000000
,
00001000
00000000
00000010
00000000
00001000
00000100
00000010
00000001
,
00001000
00000020
00000000
00000130
00000001
00000000
00001000
00000000
,
00000010
00010000
00001000
00020000
00000000
00000000
00031000
00000000
,
00001000
00010000
00001000
00000000
01000000
00000000
00100000
00000000
,
10000000
00010000
10000000
00000000
01000000
00000000
00100000
00000000
,
01000000
00000000
10000000
00000000
01000000
00000000
01000000
10000000
00000000
00000000
00000000
00000000
00100000
00000000
01000000
00000000
,
00010000
00000000
00100000
00000000
00001000
00000000
00001000
00010000
00000000
00000000
00000000
00000000
00010000
00000000
00000100
00000000
,
00001000
00000000
00000000
00000000
00000010
00000000
00000000
00000010
00000000
00000010
00001000
00000000
00000000
00000000
00000010
00000000
,
00000100
00000000
00000010
00000000
00001000
00000001
00000100
00000010
,
00002000
00000000
00000000
00000000
,
00003002
00000000
00000103
00000010
,
00002002
00000000
00000000
00000000
00000000
00003003
00000000
00000000
;

//---------------dance-double - ----------------
#NOTES:
     dance-double:
     :
     Hard:
     9:
     0.433,0.579,0.184,0.211,0.446:
00000000
00000000
00000000
00000000
,
00000000
00000000
00000000
00000000
,
00000000
00000000
00000000
00000000
,
00000000
00000000
00000000
00000000
00000000
00000000
00000000
00000000
00000000
00000000
00000000
00000000
00000000
00000000
00000000
00000000
00000000
00000000
00000000
00000000
00000000
00000000
00000000
00000000
00000000
00000000
00000000
00000000
00000000
00000000
00000000
00000000
00000000
00000000
00000000
00000000
00000000
00000000
00000000
00000000
00000000
00000000
00000000
00000000
00000000
00000000
00000000
00000000
00022000
00033000
00000000
00000000
00000000
00000000
00000000
00000000
00000000
00000000
00000000
00000000
00000000
00000000
00000000
00000000
,
00000100
00000000
00000000
00000000
00001000
00000000
00000001
00000100
00000000
00000010
00000000
00000000
00000100
00000000
00000001
00000000
,
00002000
00000000
00000000
00000000
00000010
00000000
00000000
00000100
00000000
00000100
00000000
00000000
00003001
00000000
00000000
00000000
,
00000100
00000000
00000000
00000000
00000010
00000000
00010000
00001000
00000000
00010000
00000000
00000000
00000100
00000000
00010000
00000000
,
00002000
00000000
00000000
00000000
00100000
00000000
00000000
00010000
00000000
00010000
00000000
00000000
01003000
00000000
00001000
00000000
,
00010000
00000000
00000000
00000000
01000000
00000000
00100000
00010000
00000000
10000000
00000000
00000000
00100000
00000000
10000000
00000000
,
00020000
00000000
00000000
00000000
01000000
00000000
00000000
00100000
00000000
00100000
00000000
00000000
10030000
00000000
00000000
00000000
,
01000000
00000000
00000000
00000000
00100000
00000000
00001000
00010000
00000000
00001000
00000000
00000000
01000000
00000000
00001000
00000000
,
00010000
00000000
00000000
00000000
00000000
00000000
00000000
00000000
00000000
00000000
00000000
00000000
00000000
00000000
00000000
00000000
01000000
00000000
00000000
00000000
00000000
00000000
00000000
00000000
00000000
00000000
00000000
00000000
00000000
00000000
00000000
00000000
12000000
13000000
00000000
00000000
00000000
00000000
00000000
00000000
00000000
00000000
00000000
00000000
00000000
00000000
00000000
00000000
00010000
00000000
00000000
00000000
00000000
00000000
00000000
00000000
00000000
00000000
00000000
00000000
00000000
00000000
00000000
00000000
,
01000000
00000000
00000000
00000000
00001000
00010000
00000000
00000100
00000000
00001000
00000000
00000000
00000010
00001000
00000000
00000001
,
00000000
00000100
00000000
00000000
00000010
00000000
00000000
00001010
00000000
00001001
00000000
00000000
00001000
00000000
00000010
00000000
,
00010000
00000000
00000000
00000000
00010000
00000100
00000000
00001000
00000000
00000010
00000000
00000000
00000100
00000001
00000000
00000000
,
00000001
00000100
00000000
00000010
00000000
00010000
00000000
00011000
00000000
00010100
00000000
00000000
00000100
00000000
00001000
00000000
,
00000001
00000000
00000000
00000000
00000100
00000000
00000000
00001000
00000000
00010000
00001000
00000000
00000000
00000000
00000000
00000100
,
00000010
00000000
00001000
00000000
00000100
00010000
00001000
00010000
,
00000200
00000000
00000000
00000000
00010000
00000000
00000000
00001000
00000000
00001000
00000000
00000000
00010300
00000000
00000000
00000000
,
00002000
00000000
00000000
00000000
00100000
00000000
00000000
00010000
00000000
00010000
00000000
00000000
01003000
00000000
00001000
00000000
,
00010000
00000000
00000000
00000100
00000000
00000000
00000001
00000000
00000000
00000100
00000000
00000000
00000010
00000000
00000001
00000000
00001000
00000000
00000000
00000010
00000000
00000000
00010000
00000000
00000000
00001000
00000000
00000000
00100000
00000000
00001000
00000000
,
00010000
00000000
00000000
00000000
00000000
00000000
01000000
00000000
00000000
00000000
00000000
00000000
10000000
00000000
00000000
00000000
00000000
00000000
00100000
00000000
00000000
00000000
00000000
00000000
01000000
00000000
00000000
00000000
00010000
00000000
00000000
00000000
20020000
30030000
00000000
00000000
00000000
00000000
00000000
00000000
00000000
00000000
00000000
00000000
00000000
00000000
00000000
00000000
10000000
00000000
00000000
00000000
00100000
00000000
00000000
00000000
10000000
00000000
00000000
00000000
00100000
00000000
00000000
00000000
,
20000000
00000000
00000000
00100000
00000000
00000000
00010000
00000000
00000000
00100000
00000000
00000000
30010000
00000000
01000000
00000000
,
00002000
00000000
00000000
00010000
00000000
00000000
00100000
00000000
00000000
00010000
00000000
00000000
01003000
00000000
00001000
00000000
,
00020000
00000000
00000000
00000100
00000000
00000000
00001000
00000000
00000000
00000010
00000000
00000000
00030100
00000000
00001000
00000000
,
00000002
00000000
00001000
00000000
00000103
00000010
00001000
00000100
,
00021000
00000000
00000100
00000000
00000010
00001000
00030010
00010000
,
00012000
00000000
00100000
00000000
00010000
01000000
00013000
00001000
,
00201000
00000000
00010000
00000000
01000000
00010000
01300000
00100000
,
00010000
01000000
00000000
00000000
00100000
00000000
00000000
00000000
01000000
00000000
00001000
00000000
00100000
00000000
00000000
00000000
00000000
00000000
00010000
00000000
00000000
00000000
00000000
00000000
,
10010000
00000000
00000000
00000000
01000000
00100000
00000000
10000000
00000000
00010000
00000000
00000000
00100000
01000000
00000000
10000000
,
00000000
01000000
00100000
00000000
00000000
00000000
00000000
11000000
00000000
10010000
00000000
00000000
00010000
00000000
01000000
00000000
,
00100000
00000000
10000000
00000000
00010000
01000000
00000000
00001000
00000000
00000000
00010000
00000000
00001000
00000000
00001000
00000000
,
00100000
00000000
00010000
00000000
01000000
00001000
00000000
00011000
00000000
00010100
00000000
00000000
00000100
00000000
00001000
00000000
,
00000010
00000000
00000000
00000000
00001000
00000000
00000000
00000001
00000000
00000100
00001000
00000000
00000000
00000000
00000100
00000000
,
00000010
00000000
00000000
00000000
00010000
00000000
00000000
00011000
00000000
00001000
00100000
00000000
00001000
00000000
00010000
00000000
,
00000100
00000020
00000000
00000001
00000001
00000001
00000030
00000010
,
00000100
00001000
00000010
00020000
00000000
00000000
00031000
00010000
,
00011000
00000000
00001000
00000000
01000000
00010000
00000000
10000000
00000000
00100000
00000000
00000000
01000000
00000000
00010000
00000000
,
00100000
00000000
00001000
00010000
00000000
00000100
00001000
00000000
00000001
00000000
00000000
00000000
00000100
00000000
00000010
00000000
,
00010000
00000000
00001000
00000000
01000000
00000000
00100000
00010000
00000000
00000000
00100000
00000000
01000000
00000000
00001000
00000000
,
00010000
00000000
00000100
00000000
00000010
00000100
00000000
00001100
00000000
00001001
00000000
00000000
00000001
00000000
00000100
00000000
,
00000010
00000000
00000000
00000000
00000100
00000000
00000000
00001000
00000000
00000100
00000010
00000000
00000000
00000000
00010000
00000000
,
00001000
00000000
00000000
00000000
01000000
00000000
00000000
01010000
00000000
00010000
10000000
00000000
00100000
00000000
01000000
00000000
,
00020000
00000000
00000000
00000000
10000000
00000000
00000000
01000000
00000000
01000000
00000000
00000000
10030000
00000000
00010000
00000000
,
02000000
00000000
00000000
00000000
00001000
00000000
00000000
00010000
00000000
00010000
00000000
00000000
03001000
00000000
00000000
00000000
,
00020000
00000000
00000000
00000000
00002000
00033000
00000000
00000000
;
