#TITLE:Forever;
#SUBTITLE:;
#ARTIST:Kamelot;
#TITLETRANSLIT:;
#SUBTITLETRANSLIT:;
#ARTISTTRANSLIT:;
#GENRE:;
#CREDIT:;
#MENUCOLOR:;
#METERTYPE:DDR;
#BANNER:Forever-bn.png;
#BACKGROUND:Forever-bg.png;
#LYRICSPATH:Lyrics.lrc;
#CDTITLE:ddrencorecdtitle.png;
#MUSIC:Forever.mp3;
#OFFSET:0.017;
#SAMPLESTART:64.200;
#SAMPLELENGTH:12.000;
#SELECTABLE:YES;
#LISTSORT:;
#BPMS:0.000=170.000;
#STOPS:;
#BGCHANGES:;
#ATTACKS:;

//---------------dance-single - ----------------
#NOTES:
     dance-single:
     :
     Beginner:
     2:
     0.158,0.241,0.123,0.000,0.000:
0000
0000
0000
0000
,
0000
0000
0000
0000
,
0000
0000
0000
0000
,
0000
0000
0000
0000
,
0000
0000
0000
0000
,
0000
0000
0000
0000
,
0000
0000
0000
0000
,
1000
0000
0000
0000
,
0001
0000
0000
0000
,
0010
0000
0010
0000
,
0001
0000
0000
0000
,
1000
0000
0000
0000
,
0001
0001
0000
1000
,
1000
0000
0010
0000
,
0100
0000
0000
0000
,
1001
0000
0000
0000
,
0001
0000
1000
0000
,
0100
0000
0000
0000
,
0010
0000
0001
0000
,
1000
0000
0000
0000
,
1001
0000
0000
0000
,
1000
0000
0000
0000
,
0010
0000
0000
0000
,
0100
0000
0000
0000
,
0001
0000
0000
0000
,
0010
0010
0000
0000
,
0100
0000
0000
0000
,
0100
0100
0000
0000
,
0010
0000
0000
0000
,
0001
0000
0100
0000
,
0001
0000
0000
0000
,
1000
0000
0010
0000
,
1000
0000
0000
0000
,
0001
0000
0010
0000
,
0100
0000
0000
0000
,
1000
0000
0010
0000
,
0100
0000
0000
0000
,
1001
0000
0000
0000
,
1001
0000
0000
0000
,
0110
0000
0000
0000
,
0110
0000
0000
0000
,
1001
0000
0000
0000
,
0110
0000
0000
0000
,
0110
0000
0000
0000
,
1001
0000
0000
0000
,
0001
0000
0010
0000
,
0100
0000
1000
0000
,
0001
0000
0000
0000
,
0001
0000
0000
0000
,
1000
0000
0010
0000
,
0100
0000
0001
0000
,
1000
0000
0000
0000
,
1000
0000
0000
0000
,
0100
0000
0100
0000
,
0110
0000
0010
0000
,
0001
0001
0001
0000
,
1000
0000
0010
0000
,
0100
0000
0001
0000
,
1000
0000
1000
0000
,
0001
0000
0001
0000
,
0010
0000
0010
0000
,
0110
0000
0100
0000
,
1000
1000
1000
0000
,
0001
0000
0100
0000
,
0010
0000
1000
0000
,
0001
0000
0010
0000
,
1001
0000
0100
0000
,
0010
0010
0010
0000
,
0100
0000
0001
0000
,
1000
0000
0000
0000
,
0010
0010
0000
0000
,
0100
0000
0000
0000
,
0100
0100
0000
0000
,
0010
0000
0000
0000
;

//---------------dance-single - ----------------
#NOTES:
     dance-single:
     :
     Easy:
     4:
     0.248,0.313,0.019,0.076,0.000:
0000
0000
0000
0000
,
0000
0000
0000
0000
,
0000
0000
0000
0000
,
0000
0000
0000
0000
,
0000
0000
0000
0000
,
0000
0000
0000
0000
,
0000
0000
0000
0000
,
0010
0000
0001
0100
,
0001
0000
1000
0100
,
0010
0100
0010
0001
,
0100
0000
0010
1000
,
0100
0010
0100
1000
,
0001
0000
0000
1000
,
0010
0000
0100
0000
,
0001
0000
1000
0000
,
0001
0100
0000
0000
,
0010
0000
1000
0100
,
1000
0000
0001
0010
,
0100
0010
0100
1000
,
0010
0000
0100
0001
,
1001
0000
0000
0000
,
0001
0000
0001
0000
,
1000
0000
1000
0000
,
0001
0000
0100
0000
,
0010
0000
1000
0000
,
0000
0000
0001
0000
0000
0100
0000
0000
,
0001
0000
0000
0100
0000
0000
0010
0000
,
0000
0000
1000
0000
0000
0100
0000
0000
,
1000
0000
0000
0100
0000
0000
0010
0000
,
0001
0000
1000
0000
,
0020
0000
0030
0000
,
1000
0000
0001
0000
,
0200
0000
0300
0000
,
0001
0000
1000
0000
,
0002
0000
0003
0000
,
1000
0000
0001
0000
,
2000
0000
3000
0000
,
1000
0100
0010
0000
,
0001
0000
0100
0000
,
0001
0010
0100
0000
,
1000
0000
0010
0000
,
1000
0001
0100
0000
,
0010
0000
1000
0000
,
0001
1000
0100
0000
,
0010
0000
0001
0000
,
1000
0000
0001
0010
,
0100
1000
0010
1000
,
0001
0000
0010
0000
,
0001
0000
0100
0010
,
1000
0000
1000
0010
,
0100
0001
0010
0001
,
1000
0000
0010
0000
,
1001
0000
0000
0000
,
0001
0000
0001
1000
,
0100
0000
1000
0010
,
0100
0001
1000
0100
,
0010
0000
0100
1000
,
0010
0100
0001
0001
,
0200
0000
0302
0000
,
2003
0000
3020
0000
,
1030
0000
1000
0001
,
0010
0000
0001
0100
,
0010
1000
0001
0010
,
0100
0000
0010
0001
,
0100
0010
1000
1000
,
0001
0000
0001
0010
,
0100
0000
0010
0100
,
1000
0010
0100
0001
,
1000
0000
0010
1000
,
0001
0000
1000
0000
,
0000
0000
0001
0000
0000
0010
0000
0000
,
0001
0000
0000
0010
0000
0000
0100
0000
,
0000
0000
1000
0000
0000
0010
0000
0000
,
1000
0000
0000
0010
0000
0000
0100
0000
;

//---------------dance-single - ----------------
#NOTES:
     dance-single:
     :
     Medium:
     6:
     0.392,0.488,0.274,0.057,0.000:
0000
0000
0000
0000
,
0000
0000
0000
0000
,
0000
0000
0000
0000
,
0000
0000
0000
0000
,
0000
0000
0000
0000
,
0000
0000
0000
0000
,
0000
0000
0000
0000
,
0101
0000
0010
1000
,
1100
0000
0010
0100
,
1000
0001
0100
0010
,
1001
0000
0010
0001
,
0100
0010
1000
0001
,
0010
0100
0010
0000
0000
0001
0010
0001
,
1000
0000
0010
0000
1000
0100
1000
0000
,
0010
0000
0100
0000
0001
1000
0001
0000
,
0100
0010
1000
0000
,
1100
1000
0001
0010
,
0011
0001
0100
0010
,
1010
1000
0001
0010
,
0110
0000
0001
1000
,
0010
0100
0010
0100
,
0001
0101
0000
1100
,
0000
0110
0000
0011
,
0000
1001
0000
1010
,
0000
0101
0000
1001
,
0000
0000
0001
0000
0000
0010
0000
0000
,
0100
0000
0000
1000
0000
0000
0010
0100
,
0001
0000
1000
0000
0000
0100
0000
0000
,
0010
0000
0000
0001
0000
0000
0100
0010
,
1000
0000
0001
0000
0100
0000
0010
1000
,
0100
0000
0010
0001
0100
0000
0010
0000
,
1000
0000
0001
0000
0010
0000
0100
1000
,
0010
0000
0100
0001
0010
0000
0001
0000
,
0100
0000
0010
0000
1000
0000
0100
1000
,
0001
0000
0100
0001
1000
0000
0100
0000
,
0010
0000
0001
0000
1000
0000
0010
1000
,
0001
0000
0010
0001
1000
0000
0010
0000
,
0200
0000
0010
0000
0010
0310
0000
0000
,
2000
0000
0001
0000
0001
3001
0000
0000
,
0002
0000
1000
0000
1000
1000
0003
0000
,
0020
0000
0100
0000
0100
0100
0030
0000
,
0010
0000
1000
0100
0010
0010
0000
0000
,
0100
0000
1000
0001
0100
0100
0000
0000
,
0100
0000
0001
0010
0100
0100
0000
0000
,
0010
0000
0001
0100
0010
0000
1000
0000
,
0001
0000
0010
0001
,
0100
0010
1000
0100
,
0010
0000
0001
0100
0010
0000
1000
0000
,
0001
0000
0000
0000
0100
0001
0100
0010
,
1000
0100
0000
0010
,
0001
0000
0100
0010
0000
0010
0100
0000
,
0002
0000
0000
0000
,
2003
0000
0000
0000
,
3100
0000
1000
0010
,
0100
0000
0001
0010
,
0110
1001
0100
0010
,
1001
0000
0100
0001
,
0010
0100
0010
0001
,
1000
0000
0010
1000
0100
0000
0010
0001
,
0100
0000
0010
1000
0001
0000
0100
0000
,
0010
0000
0100
0001
,
1000
0000
0001
0010
,
0011
0100
1000
0010
,
1001
0000
0100
0001
,
0010
0100
1000
0010
,
1001
0000
0010
1000
,
1100
0000
0010
0100
,
0101
0011
1100
1010
,
1001
0000
0010
0100
,
0001
1000
0000
0000
1010
0000
0101
0000
,
1000
0000
0001
0000
0000
0010
0000
0000
,
0100
0000
0000
1000
0000
0000
0010
1000
,
0001
0000
1000
0000
0000
0010
0000
0000
,
0100
0000
0000
0001
0000
0000
0010
0100
;

//---------------dance-single - ----------------
#NOTES:
     dance-single:
     :
     Hard:
     9:
     0.564,0.628,0.538,0.009,0.123: // measure 1
0000
0000
0000
0000
,  // measure 2
0000
0000
0000
0000
,  // measure 3
0000
0000
0000
0000
,  // measure 4
0000
0000
0000
0000
,  // measure 5
0000
0000
0000
0000
,  // measure 6
0000
0000
0000
0000
,  // measure 7
0000
0000
0000
0000
,  // measure 8
1100
0000
0010
0001
,  // measure 9
0101
0000
0100
0010
,  // measure 10
1001
0010
1000
0001
,  // measure 11
1100
0000
0010
0001
,  // measure 12
0110
0001
1000
0010
,  // measure 13
1000
0100
1000
0000
0000
0010
0100
0001
,  // measure 14
1000
0000
1000
0000
0001
0100
0010
1000
,  // measure 15
0001
0000
0100
0000
0001
0000
0100
0000
0000
0001
0000
0000
1000
0000
0000
0100
0000
0000
0000
0000
0000
0000
0000
0000
,  // measure 16
0010
0000
0000
0000
0100
0000
0000
0000
0010
0000
0000
0000
0100
0000
0000
1000
0000
0000
0001
0000
0000
0000
0000
0000
0000
0000
0000
0000
0000
0000
0000
0000
0000
0000
0000
0000
0100
0000
0000
0000
0000
0000
0000
0000
0000
0000
0000
0000
,  // measure 17
0110
0000
1000
0001
,  // measure 18
0101
0000
0010
0001
,  // measure 19
1100
0010
0100
0001
,  // measure 20
1001
0000
0010
0100
,  // measure 21
1000
1000
0001
0001
,  // measure 22
0100
0000
0100
0010
0000
0000
1000
0000
1000
0100
0000
0000
,  // measure 23
0010
0000
0010
0100
0000
0000
1000
0000
1000
0001
0000
0001
,  // measure 24
0100
0000
0100
0010
0000
0000
0100
0000
0100
0001
0000
0000
,  // measure 25
1000
0000
1000
0001
0000
0000
0010
0000
0000
1001
0000
0000
,  // measure 26
0100
0000
1100
0000
0000
0110
0000
0000
,  // measure 27
1100
0000
0000
0011
0000
0000
0001
1000
,  // measure 28
0010
0000
0101
0000
0000
0110
0000
0000
,  // measure 29
0101
0000
0000
1010
0000
0000
1000
0001
,  // measure 30
0010
0000
0001
0100
0010
0000
0100
0010
,  // measure 31
1000
0000
0100
0010
0100
1000
0010
0100
,  // measure 32
0001
0000
0100
0010
1000
0000
0010
1000
,  // measure 33
0100
0000
0010
0100
0010
0001
0100
0010
,  // measure 34
1000
0000
0001
1000
0100
0000
1000
0100
,  // measure 35
0010
0000
0100
1000
0100
0010
0001
0100
,  // measure 36
0010
0000
1000
0001
0100
0000
0001
0100
,  // measure 37
0010
0000
0100
0001
1000
0000
1001
0000
,  // measure 38
0001
0100
0001
0000
0010
0000
0100
0000
1000
0000
0010
0000
0000
0000
0010
0000
,  // measure 39
1000
0010
1000
0000
0100
0000
0010
0000
0001
0000
1000
0000
0000
0000
1000
0000
,  // measure 40
0010
1000
0010
0000
0100
0000
0001
0000
0010
0000
0100
0000
0000
0000
0100
0000
,  // measure 41
1000
0100
1000
0000
0010
0000
0100
0000
0001
0000
1000
0000
0000
0000
0000
0000
,  // measure 42
0100
0010
0100
0010
0100
0000
1000
0000
0001
0000
0100
0000
0000
0000
0000
0000
,  // measure 43
0010
0100
0010
0100
0010
0000
1000
0000
0001
0000
0100
0000
0000
0000
0000
0000
,  // measure 44
0001
1000
0001
1000
0001
0000
0100
0000
0001
0000
1000
0000
0000
0000
0000
0000
,  // measure 45
1000
0001
1000
0001
1000
0000
0010
0000
0100
0000
0000
0000
0010
0000
0000
0000
,  // measure 46
1000
0110
0001
1100
,  // measure 47
0010
1001
0010
0011
,  // measure 48
0100
0000
1100
1000
0010
0000
0101
0000
,  // measure 49
0010
0000
0000
0000
1001
0000
0100
0000
0010
0000
0100
0001
0100
0000
0010
0000
,  // measure 50
1000
0101
0010
1100
,  // measure 51
0011
0000
0001
0100
0000
0100
0010
0000
,  // measure 52
2000
0001
0000
3100
,  // measure 53
0010
0001
0000
0001
1000
0000
1001
0000
,  // measure 54
0001
0010
0100
1000
0010
0000
0100
0000
,  // measure 55
0010
1000
0100
0010
0001
0000
1000
0000
,  // measure 56
0001
0100
1000
0100
0010
0100
1000
0100
,  // measure 57
0001
0010
0101
0110
,  // measure 58
1010
1100
0011
1001
,  // measure 59
0010
1000
0100
0010
0100
1000
0010
0100
,  // measure 60
0001
0010
0100
0010
0001
0000
0100
0000
,  // measure 61
0001
0100
0010
1000
0100
0000
0010
0000
,  // measure 62
0100
1000
0010
0100
0001
0000
0001
0000
,  // measure 63
1000
0100
0001
0100
0010
0100
0001
0100
,  // measure 64
1000
0010
0101
0011
,  // measure 65
1100
1010
0110
1001
,  // measure 66
0001
0010
0100
0010
0001
0100
0010
1000
,  // measure 67
0100
0010
0100
1000
0001
0010
0100
1000
,  // measure 68
0101
0101
1100
1001
,  // measure 69
0011
0000
0001
1000
,  // measure 70
0010
0100
0000
0000
0101
0000
1010
0000
,  // measure 71
1000
0000
0101
0000
0000
0011
0000
0000
,  // measure 72
0101
0000
0000
0110
0000
0000
1000
0001
,  // measure 73
0010
0000
1100
0000
0000
1010
0000
0000
,  // measure 74
1100
0000
0000
0110
0000
0000
0001
1000
;

//---------------dance-double - ----------------
#NOTES:
     dance-double:
     :
     Easy:
     4:
     0.255,0.313,0.066,0.076,0.000:
00000000
00000000
00000000
00000000
,
00000000
00000000
00000000
00000000
,
00000000
00000000
00000000
00000000
,
00000000
00000000
00000000
00000000
,
00000000
00000000
00000000
00000000
,
00000000
00000000
00000000
00000000
,
00000000
00000000
00000000
00000000
,
00000010
00000000
00001000
00000001
,
00000100
00000000
00000010
00001000
,
00000010
00010000
00001000
01000000
,
00010000
00000000
00100000
00010000
,
01000000
00100000
10000000
01000000
,
00200000
00000000
00000000
00300000
,
00002000
00000000
00000000
00003000
,
00020000
00000000
00000000
00030000
,
00000020
00000000
00000000
00000030
,
00000100
00000000
00000001
00001000
,
00000010
00000000
00001000
00000100
,
00010000
00001000
00100000
00010000
,
01000000
00000000
00001000
00010000
,
00011000
00000000
00000000
00000000
,
00000000
00000010
00000000
00000010
,
00000000
00010000
00000000
00010000
,
00000000
00001000
00000000
00001000
,
00000000
01000000
00000000
01000000
,
00000000
00000000
00010000
00000000
00000000
00100000
00000000
00000000
,
01000000
00000000
00000000
10000000
00000000
00000000
11000000
00000000
,
00000000
00000000
00100000
00000000
00000000
00001000
00000000
00000000
,
00010000
00000000
00000000
00000010
00000000
00000000
00001001
00000000
,
00000001
00000000
00000001
00000000
,
00001000
00000000
00000010
00000000
,
00010000
00000000
00000100
00000000
,
00010000
00000000
00001000
00000000
,
01000000
00000000
00010000
00000000
,
00100000
00000000
01000000
00000000
,
10000000
00000000
00010000
00000000
,
00100000
00000000
00001000
00000000
,
00010000
00001000
00010000
00000000
,
00000010
00000000
00000100
00000000
,
00000001
00001000
00000001
00000000
,
00000010
00000000
00000100
00000000
,
00010000
00001000
00010000
00000000
,
00001000
00000000
01000000
00000000
,
00010000
10000000
00010000
00000000
,
00100000
00000000
01000000
10000000
,
00010000
00000000
10000000
00100000
,
01000000
00010000
00100000
01000000
,
10000000
00000000
00010000
00000000
,
00100000
00000000
00001000
00010000
,
00001000
00000000
00010000
00000010
,
00000100
00000001
00001000
00000100
,
00000010
00000000
00000001
00000000
,
00001001
00000000
00000000
00000000
,
00000010
00000000
00000010
00001000
,
00000100
00000000
00000100
00010000
,
00001000
00010000
00001000
01000000
,
00010000
00000000
00010000
00100000
,
01000000
10000000
01000000
00100000
,
00020000
00000000
02030000
00000000
,
03002000
00000000
00023000
00000000
,
00030100
00000000
00000100
00001000
,
00000010
00000000
00000010
00000100
,
00000001
00001000
00000001
00001000
,
00000010
00000000
00000010
00010000
,
00001000
01000000
00010000
00100000
,
01000000
00000000
01000000
00100000
,
00010000
00000000
00010000
10000000
,
00100000
01000000
00010000
00100000
,
00001000
00000000
00001000
00010000
,
00011000
00000000
00000000
00000000
,
00000000
00000000
00001000
00000000
00000000
00000100
00000000
00000000
,
00000010
00000000
00000000
00000001
00000000
00000000
00000101
00000000
,
00000000
00000000
00000010
00000000
00000000
00010000
00000000
00000000
,
00001000
00000000
00000000
01000000
00000000
00000000
10010000
00000000
;

//---------------dance-double - ----------------
#NOTES:
     dance-double:
     :
     Medium:
     7:
     0.433,0.593,0.217,0.019,0.038:
00000000
00000000
00000000
00000000
,
00000000
00000000
00000000
00000000
,
00000000
00000000
00000000
00000000
,
00000000
00000000
00000000
00000000
,
00000000
00000000
00000000
00000000
,
00000000
00000000
00000000
00000000
,
00000000
00000000
00000000
00000000
,
01010000
00000000
10000000
01000000
,
11000000
00000000
00100000
00010000
,
01000000
00001000
00010000
00000010
,
00001001
00000000
00000100
00000001
,
00000010
00000100
00001000
00000010
,
00000100
00000001
00000100
00000000
00000010
00000000
00001000
00000001
,
00000100
00000001
00001000
00000000
00000100
00010000
00001000
00000000
,
00001000
01000000
00010000
10000000
,
00010000
00100000
01000000
10000000
00010000
00000000
01000000
00000000
,
10010000
01000000
00100000
10000000
,
01010000
01000000
00001000
00010000
,
00011000
00000100
00001000
00000010
,
00001001
00000000
00000010
00000100
,
00000001
00000010
00000100
00001000
,
00000010
00000000
00000010
00000100
00000000
00000000
00000100
00000000
00000100
00000001
00000000
00000000
,
00000001
00000000
00000001
00001000
00000000
00000000
00001000
00000000
00001000
00000010
00000000
00000010
,
00010000
00000000
00010000
00001000
00000000
00000000
00001000
00000000
00001000
01000000
00000000
00000000
,
01000000
00000000
01000000
00010000
00000000
00000000
10000000
00000000
00000000
10010000
00000000
00000000
,
00000000
00000000
00010000
00000000
00000000
00100000
00000000
00000000
,
01100000
00000000
00000000
00100000
00000000
00000000
00001000
00010000
,
00000010
00000000
00001000
00000000
00000000
00000100
00000000
00000000
,
00000110
00000000
00000000
00000100
00000000
00000000
00010000
00001000
,
01000000
00010000
00100000
01000000
,
10000000
00000000
01000000
10000000
00100000
01000000
00010000
10000000
,
01000000
00100000
00001000
00010000
,
00000010
00000000
00000100
00000001
00000010
00000100
00001000
00000010
,
00000100
00000001
00001000
00000010
,
00010000
00000000
00001000
01000000
00010000
00100000
01000000
10000000
,
00100000
01000000
00010000
00100000
,
00001000
00000000
00010000
00000010
00001000
00000000
00000001
00000000
,
00001000
00000001
00001000
00000001
00000100
00000100
00000000
00000000
,
00000001
00001000
00000001
00001000
00000100
00000100
00000000
00000000
,
00010000
00001000
00010000
00001000
01000000
01000000
00000000
00000000
,
00001000
00010000
00001000
00010000
00000100
00000100
00000000
00000000
,
00010000
00001000
01000000
00010000
00100000
00100000
00000000
00000000
,
01000000
10000000
00010000
01000000
00001000
00001000
00000000
00000000
,
00010000
00000010
00001000
00000100
00000010
00000010
00000000
00000000
,
00000001
00000100
00000010
00001000
00000100
00000000
00010000
00000000
,
00011000
00000000
00001000
00100000
,
00010000
01000000
00100000
10000000
,
01000000
00000000
00100000
01000000
10000000
00000000
00100000
00000000
,
01000000
00000000
00010000
00100000
01000000
00100000
00010000
01000000
,
00001000
00000000
00010000
00000000
00000010
00000000
00001000
00000001
,
00000100
00000000
00000100
00000010
00000000
00000010
00001000
00000000
,
00000002
00000000
00000000
00000000
,
00002003
00000000
00000000
00000000
,
00003010
00000000
00001000
00000001
,
00000101
00000000
00000010
00001000
,
00000100
00010000
00000010
00010000
,
00011000
00000000
00001000
01000000
,
00010000
00100000
01000000
10000000
,
00010000
00100000
01000000
10000000
01000000
00100000
00010000
01000000
,
00100000
10000000
01000000
00100000
00001000
00010000
00000010
00001000
,
00000001
00000000
00001000
00000010
,
00001001
00000000
00000100
00000001
,
00000010
00000100
00001000
00000010
,
00011000
00000000
00010000
00000010
,
00000100
00000001
00001000
00000100
,
00000110
00000000
00000100
00010000
,
00011000
00000000
00001000
01000000
,
01010000
10000000
00100000
01000000
,
10010000
00000000
00100000
00010000
,
10000000
00010000
00000000
00000000
01001000
00000000
00011000
00000000
,
00000000
00000000
00001000
00000000
00000000
00100000
00000000
00000000
,
10010000
00000000
00000000
00100000
00000000
00000000
00001000
00010000
,
00000010
00000000
00000100
00000000
00000000
00000010
00000000
00000000
,
00001001
00000000
00000000
00000100
00000000
00000000
00010000
00001000
;

//---------------dance-double - ----------------
#NOTES:
     dance-double:
     :
     Hard:
     9:
     0.556,0.628,0.453,0.000,0.175:
00000000
00000000
00000000
00000000
,
00000000
00000000
00000000
00000000
,
00000000
00000000
00000000
00000000
,
00000000
00000000
00000000
00000000
,
00000000
00000000
00000000
00000000
,
00000000
00000000
00000000
00000000
,
00000000
00000000
00000000
00000000
,
00010100
00000000
00000010
00000001
,
00001001
00000000
00000010
00000100
,
00000101
00000010
00010000
00001000
,
01010000
00000000
00010000
00100000
,
01100000
10000000
00010000
00100000
,
00100000
00001000
00010000
00000000
00000010
00001000
00000100
00000010
,
00000001
00000000
00000000
00000001
00001000
00000000
00000000
00000000
00000010
00000000
00010000
00000000
00001000
00000000
00100000
00000000
,
01000000
00000000
00100000
00000000
00010000
00000000
10000000
00000000
00000000
00100000
00000000
00000000
01000000
00000000
00000000
00001000
00000000
00000000
00000000
00000000
00000000
00000000
00000000
00000000
,
00001000
00000000
00000000
00000000
00010000
00000000
00000000
00000000
00001000
00000000
00000000
00000000
00010000
00000000
00000000
00001000
00000000
00000000
00010000
00000000
00000000
00000000
00000000
00000000
00000000
00000000
00000000
00000000
00000000
00000000
00000000
00000000
00000000
00000000
00000000
00000000
00000010
00000000
00000000
00000000
00000000
00000000
00000000
00000000
00000000
00000000
00000000
00000000
,
00001001
00000010
00000100
00000001
,
00001100
00000010
00010000
00001000
,
00110000
01000000
00100000
00010000
,
11000000
00000000
00100000
01000000
,
00001000
00010000
00001000
00010000
,
00000010
00000000
00000010
00000100
00000000
00000100
00000001
00000000
00000001
00001000
00000000
00001000
,
00000010
00000000
00000010
00010000
00000000
00010000
00001000
00000000
00001000
00100000
00010000
00100000
,
01000000
00000000
01000000
10000000
00000000
10000000
00010000
00000000
00010000
00100000
00000000
00100000
,
00001000
00000000
00001000
01000000
00000000
01000000
00100000
00000000
00000000
10010000
00000000
00000000
,
01000000
00000000
10100000
00000000
00000000
01001000
00000000
00000000
,
00011000
00000000
00000000
00001010
00000000
00000000
00000001
00001000
,
00000100
00000000
00000011
00000000
00000000
00010100
00000000
00000000
,
00011000
00000000
00000000
01010000
00000000
00000000
10000000
00010000
,
00100000
00000000
01000000
10000000
00100000
00000000
00100000
01000000
,
00010000
00100000
00001000
00010000
,
00000010
00000000
00000100
00000001
00000010
00000000
00000100
00001000
,
00000010
00000100
00000001
00001000
,
00000010
00000000
00010000
00001000
01000000
00000000
00010000
00100000
,
01000000
10000000
00010000
00100000
,
00001000
00000000
00010000
00000010
00000100
00000000
00000010
00001000
,
00000001
00000010
00000100
00000000
,
00000010
00000001
00000010
00000001
00000010
00000000
00000100
00000000
00001000
00000000
00000010
00000000
00000000
00000000
00000000
00000000
,
00010000
00001000
00010000
00001000
00010000
00000000
00001000
00000000
01000000
00000000
00010000
00000000
00000000
00000000
00000000
00000000
,
10000000
00100000
10000000
00100000
10000000
00000000
01000000
00000000
00100000
00000000
01000000
00000000
00000000
00000000
00000000
00000000
,
00100000
00010000
00100000
00010000
00100000
00000000
00001000
00000000
00010000
00000000
00000010
00000000
00000000
00000000
00000000
00000000
,
00000100
00000001
00000100
00000001
00001000
00000000
00000010
00000000
00010000
00000000
00001000
00000000
00000000
00000000
00000000
00000000
,
00100000
00010000
00100000
00010000
01000000
00000000
00100000
00000000
10000000
00000000
00010000
00000000
00000000
00000000
00000000
00000000
,
00100000
01000000
00100000
01000000
10000000
00000000
00010000
00000000
00100000
00000000
00001000
00000000
00000000
00000000
00000000
00000000
,
00001000
00010000
00001000
00010000
00000010
00000000
00000100
00000000
00000001
00000000
00000000
00000000
00001000
00000000
00000000
00000000
,
00000010
00001001
00000100
00000011
,
00001000
00010010
00010000
00101000
,
01000000
00000000
10010000
00100000
01000000
00000000
10100000
00000000
,
01000000
00000000
00011000
00010000
00000010
00001000
00000001
00000010
,
00000100
00000011
00001000
00001010
,
00000101
00000000
00000010
00001000
00000000
00001000
00000100
00000000
,
00010000
00001000
01000000
00100000
,
10000000
00010000
00000000
00010000
00100000
00000000
01100000
00000000
,
00010000
00100000
01000000
10000000
00100000
01000000
00100000
10000000
,
00010000
00100000
00001000
00010000
00000010
00000100
00000001
00001000
,
00000100
00000010
00000100
00001000
00000010
00000100
00000001
00001000
,
00000010
00010000
00011000
01001000
,
00010000
01000000
10000000
00100000
,
10000000
01000000
00100000
00000000
01000000
00100000
00001000
00000000
,
00100000
00001000
00010000
00000010
00000100
00000000
00000001
00000000
,
00001000
00000100
00000010
00000001
00000100
00000010
00000100
00000001
,
00001000
00000100
00010000
00001000
01000000
00100000
10000000
00010000
,
00100000
01000000
00100000
00010000
01000000
00100000
10000000
00010000
,
01000000
00001000
00011000
00010010
,
00001000
00000010
00000001
00001000
,
00000001
00000100
00001000
00010000
00100000
00000000
10000000
00000000
,
10000000
01000000
00010000
00001000
00000010
00000000
00000001
00000000
,
00001100
00011000
00101000
00010100
,
00011000
00000010
00000100
00000001
,
00001000
00000100
00000000
00000000
00000110
00000000
00001001
00000000
,
00000010
00000000
00000101
00000000
00000000
00010010
00000000
00000000
,
00011000
00000000
00000000
01010000
00000000
00000000
10000000
00010000
,
00100000
00000000
11000000
00000000
00000000
00101000
00000000
00000000
,
00011000
00000000
00000000
00001010
00000000
00000000
00000001
00001000
;
