#TITLE:Flow;
#SUBTITLE:(Unique's Direction Mix);
#ARTIST:Scotty D revisits U1;
#TITLETRANSLIT:;
#SUBTITLETRANSLIT:;
#ARTISTTRANSLIT:;
#GENRE:;
#CREDIT:;
#MENUCOLOR:;
#METERTYPE:DDR;
#BANNER:Flow (Unique's Direction Mix)-bn.png;
#BACKGROUND:Flow (Unique's Direction Mix)-bg.png;
#LYRICSPATH:;
#CDTITLE:ddrencorecdtitle.png;
#MUSIC:Flow (Unique's Direction Mix).mp3;
#OFFSET:-0.013;
#SAMPLESTART:89.140;
#SAMPLELENGTH:14.240;
#SELECTABLE:YES;
#LISTSORT:;
#BPMS:0.000=140.000,112.000=70.000,128.000=140.000,224.000=70.000,240.000=140.000;
#STOPS:;
#BGCHANGES:0.000=Flow (Unique's Direction Mix).avi=1.000=1=0=0,
272.000=Flow (Unique's Direction Mix)-bg.png=1.000=1=0=0,
99999=-nosongbg-=1.000=0=0=0 // don't automatically add -songbackground-
;
#ATTACKS:;

//---------------dance-single - ----------------
#NOTES:
     dance-single:
     :
     Hard:
     8:
     0.525,0.517,0.180,0.292,0.311:
0000
0000
0000
0000
,
0000
0000
0000
0000
,
0000
0000
0000
0000
,
0000
0000
0000
0000
,
1000
0100
1000
0202
0000
0000
0303
0000
,
0001
0100
0001
2200
0000
0000
3300
0000
,
1000
0010
1000
0202
0000
0000
0303
0000
,
0001
0010
0001
2200
0000
3300
1000
0010
,
1000
0001
0010
0220
0000
0000
0330
0000
,
0001
1000
0100
0220
0000
0000
0330
0000
,
1000
0001
1000
0220
0000
0000
0330
0000
,
0001
1000
0001
0220
0000
0000
0330
0000
,
1100
0000
0000
0000
0000
0000
1000
0010
1000
0000
0010
0000
0100
0000
0001
1000
,
0000
0100
0000
1000
0001
0000
0100
0010
0100
0000
0001
0000
1000
0000
0001
0000
,
0100
0000
0000
0000
0010
0000
1000
0100
1000
0000
0010
0000
0100
0000
0001
0000
,
1000
0100
0010
0001
0010
0100
1000
0000
,
1001
0000
0000
0000
0000
0000
0001
0000
1000
0000
0001
0100
0001
0000
1000
0000
,
0010
0000
1000
0100
1000
0000
0010
0000
0100
0000
0001
0000
1000
0000
0000
0000
,
0110
0000
0000
0000
0000
0000
0100
0000
0001
0000
0100
0010
0000
0000
1000
0000
,
0100
1000
0001
0010
0001
1000
0100
0000
,
0010
0000
1001
0000
0000
0000
0100
0000
0010
0000
0100
0000
0001
0000
1000
0001
,
0000
0010
0000
0100
1000
0000
0001
0000
0100
0000
0010
0000
0100
0000
0001
0100
,
0000
0000
0000
0000
0101
0000
0000
0000
0000
0100
0010
0000
1000
0000
0100
0000
,
1000
0000
0001
0000
0010
0000
1000
0000
0010
0000
0001
0100
0000
0000
0010
0000
,
1001
0000
0000
0000
0000
0000
1000
0000
0100
1000
0100
0000
0010
0000
0001
0000
,
0000
0100
0000
0001
0100
0000
0010
0000
1000
0000
0001
0000
1000
0000
0100
0000
,
2000
3002
0203
0320
,
0032
0023
2030
3200
,
0320
0000
0000
0000
,
0000
0000
0000
0000
,
0031
0001
0100
0100
0010
0010
1000
1000
,
0100
0010
0100
0010
2001
0100
0010
3100
,
1001
0000
0100
0001
0000
0000
1000
0000
0000
0000
0001
0010
0000
0000
0100
0000
,
0000
0000
1000
0010
0000
0000
0100
0000
0000
0000
0001
1000
0000
0100
0010
0100
,
0000
0000
1000
0001
0000
0000
0010
0000
0000
0000
0001
0100
0000
0000
0010
0000
,
0000
0000
1000
0100
0000
0000
0010
0000
0001
0000
1000
0000
0100
0000
0010
0000
,
0001
0000
0100
0010
0000
0000
1000
0000
0000
0000
0100
0001
0000
0000
0100
0000
,
0000
0000
1000
0001
0000
0000
0010
0000
0000
0000
1000
0010
0000
0100
1000
0100
,
0000
0000
1000
0001
0000
0000
0100
0000
0000
0000
1000
0100
0000
0000
0001
0000
,
0000
0000
1000
0010
0000
0000
0100
0000
0001
0000
1000
0000
0100
0000
0010
0000
,
1001
0000
0000
0000
0000
0000
0010
0100
0010
0000
1000
0000
0001
0000
1000
0100
,
0000
0010
0000
0100
1000
0000
0001
0100
0001
0000
1000
0000
0100
0000
0010
0001
,
0000
0000
0000
0000
1000
0000
0100
1000
0100
0000
0010
0000
0001
0000
0100
0000
,
0010
0010
1000
0001
1000
0100
0010
0001
,
1001
0000
0000
0000
0000
0000
1000
0000
0010
0000
0100
0001
0100
0000
0010
0000
,
1000
0000
0100
1000
0100
0000
1000
0000
0001
0000
1000
0000
0001
0000
0000
0000
,
1001
0000
0000
0000
0000
0000
1000
0000
0010
0000
0100
0001
0000
0000
0100
0000
,
0010
0100
0001
1000
0001
0010
0100
0000
,
1000
0000
1100
0000
0000
0000
0100
0000
0010
0000
0001
0000
0100
0000
0001
0100
,
0000
0010
0000
0100
0001
0000
1000
0000
0100
0000
1000
0000
0001
0000
1000
0100
,
0000
0000
0000
0000
0011
0000
0000
0000
0000
0100
1000
0000
0010
0000
0100
0000
,
0001
0000
1000
0000
0100
0000
0010
0000
0001
0000
1000
0001
0000
0000
0100
0000
,
1001
0000
0000
0000
0000
0000
0100
0000
0010
0100
0010
0000
1000
0000
0100
0000
,
0000
1000
0000
0100
0010
0000
0001
0000
1000
0000
0001
0000
0100
0000
0100
0000
,
0020
2030
3200
0320
,
2030
3200
0302
0023
,
0230
0000
0000
0000
,
1300
0100
1000
0100
0010
0001
0010
0001
0100
0010
0100
0010
0000
0100
0010
0000
,
2000
0000
3002
0000
,
0103
0000
0010
0100
0010
0000
1000
0001
1000
0001
0010
0100
0000
1000
0001
0000
,
1001
0000
0100
0010
0000
0000
0001
0000
0100
0000
0001
0010
0000
0000
0100
0000
,
1000
0000
0001
0100
0000
0000
0010
0000
1000
0000
0100
0010
0000
0000
0001
0000
,
0100
0000
0001
1000
0000
0000
0100
0000
1000
0000
0001
1000
0000
0000
0010
0000
,
1000
0000
0100
0010
0000
0000
0001
0000
1000
0000
0001
0010
0000
0000
0100
0000
,
1000
0000
0010
0100
0000
0000
0001
0000
1000
0000
0001
0010
0000
0000
0100
0000
,
1000
0000
0001
1000
0000
0000
0100
0000
0010
0000
0001
0100
0000
0000
0010
0000
,
0100
0000
0001
0100
0000
0000
0001
0000
1000
0000
0100
1000
0000
0000
0001
0000
,
1000
0000
0010
0100
0000
0000
0001
0000
1000
0000
0100
0010
0000
0000
0001
0000
,
2002
0000
0000
0000
,
3003
0000
0000
0000
;

//---------------dance-single - ----------------
#NOTES:
     dance-single:
     :
     Medium:
     6:
     0.333,0.361,0.135,0.075,0.000:
0000
0000
0000
0000
,
0000
0000
0000
0000
,
0000
0000
0000
0000
,
0000
0000
0000
0000
,
1000
0100
0010
0002
0000
0000
0000
0000
,
1003
0100
0010
0002
0000
0000
0000
0000
,
1003
0100
0010
0002
0000
0000
0000
0000
,
1003
0100
0010
0001
0000
0000
1001
0000
,
0001
0100
0010
2000
0000
0000
0000
0000
,
3001
0100
0010
2000
0000
0000
0000
0000
,
3001
0100
0010
2000
0000
0000
0000
0000
,
3001
1000
0001
1000
,
1001
0000
0001
0000
0010
0100
0010
0000
,
0001
0000
0100
0000
0001
1000
0001
0000
,
0100
0010
1000
0100
,
0010
0001
0010
0001
,
1001
0000
0000
1000
0001
0000
1000
0000
,
0010
1000
0100
0100
,
0010
0000
0000
0001
0100
0000
0001
0000
,
0010
0010
0100
1000
,
0001
1000
0000
0000
0001
0000
1000
0000
,
0010
1000
0001
0000
0010
0001
1000
0000
,
0000
0000
1100
0000
0000
0000
0100
0010
,
0001
0010
0100
1000
,
1001
0000
0000
0000
1000
0001
1000
0000
,
0000
0010
1000
0100
,
1001
0010
0100
0010
,
1001
0100
0010
0100
,
2002
0000
0000
3003
,
0000
0000
0000
0000
,
1000
0100
0010
0001
,
1000
0010
0100
0001
0010
0100
1000
0001
,
1001
0010
1000
0000
,
0001
0000
0010
0000
0100
0000
1000
0001
,
0100
0010
1000
0000
,
0001
0000
0010
0000
0001
0000
1000
0100
,
0010
0001
1000
0001
,
0100
0000
0010
0000
1000
0100
1000
0010
,
1000
0100
0010
0001
,
0100
0000
0010
0000
0100
0001
0100
0001
,
1000
0000
0100
0000
0010
0001
0100
0000
,
0010
1000
0001
0000
0010
0000
0100
0000
,
1000
0000
0001
1000
0001
0000
1001
0000
,
1000
0001
0010
0000
0001
1000
0100
0000
,
1100
0000
0000
0000
0100
0010
0001
0000
,
0100
0001
0100
0000
0010
0000
1001
0000
,
1000
0000
0000
0000
0001
1000
0001
0000
,
0010
0001
1000
0000
0100
0010
0001
0000
,
1000
1000
0000
1000
0010
0000
1001
0000
,
1000
0001
1000
0000
0001
1000
0001
0000
,
0000
1001
0000
0010
,
0001
0100
0010
0000
1000
0100
0010
0000
,
1001
0000
0000
0000
0001
1000
0001
0000
,
1000
0000
0010
0000
1000
0001
1000
0000
,
0010
0100
0001
0010
,
0100
1000
0001
0010
,
1001
0000
0000
0000
,
1000
1000
0100
0010
0001
0100
0010
1000
,
0001
0000
0000
0000
,
0010
0010
0100
1000
0001
0010
0100
1000
,
0001
0000
0010
0000
0100
1000
0100
0000
,
1000
0001
1000
0000
0010
1000
0010
0000
,
1000
0000
0001
0000
0100
0001
0100
0000
,
0001
1000
0001
0000
0010
0001
0010
0000
,
0100
0000
0010
0000
0100
1000
0010
0000
,
1000
0000
0010
0000
0100
0001
0010
0000
,
0100
1000
0001
0100
,
1001
0010
0100
0001
,
2002
0000
0000
3003
;

//---------------dance-single - ----------------
#NOTES:
     dance-single:
     :
     Easy:
     4:
     0.229,0.382,0.105,0.015,0.000:
0000
0000
0000
0000
,
0000
0000
0000
0000
,
0000
0000
0000
0000
,
0000
0000
0000
0000
,
1000
0000
0010
1000
,
0001
0000
0010
0001
,
1000
0000
0100
0010
,
0001
0000
0100
0010
,
0100
0001
1000
0000
,
0100
0010
0001
1000
,
0100
0010
0100
0010
,
0001
1000
0001
1000
,
0010
0000
1000
1000
,
0100
0010
0100
0010
,
0001
0000
0100
0100
,
0010
0100
0010
0100
,
0001
0000
1000
1000
,
0010
1000
0010
1000
,
0001
0000
0010
0010
,
0001
1000
0001
1000
,
0100
0000
0010
0100
,
0010
0001
0010
0001
,
1000
0100
1000
0100
,
0010
0100
0010
0100
,
0010
0000
0001
0100
,
0010
1000
0010
1000
,
0001
0000
1100
0000
,
1000
0000
0101
0000
,
1001
0000
0000
0000
,
0010
0000
0000
0000
,
1000
0000
0100
0010
0100
0010
0001
1000
,
0001
0001
0010
0010
0100
0000
1001
0000
,
0010
0000
1000
0100
,
0010
0000
0001
0100
,
0010
0000
1000
0001
,
0010
0010
0100
0100
,
1000
1000
0010
0100
,
0001
0010
0100
0010
,
0001
1000
0100
0010
,
0100
1000
0001
0100
,
0010
0000
1000
0100
,
0000
0010
0000
0001
,
0000
1000
0001
0100
,
0010
0010
1000
1000
,
1001
0000
1000
1000
,
0010
1000
0010
1000
,
1100
0000
1000
0010
,
0100
0001
0010
0100
,
1100
0000
1000
0001
,
0100
0010
0100
0001
,
0000
0101
0000
0001
,
0010
0100
1000
0001
,
0011
0000
0010
0100
,
0000
1000
0001
0100
,
1001
0000
1010
0000
,
1001
0000
0011
0000
,
0010
0000
0000
0000
,
0200
0000
0000
0000
,
1300
0000
0000
0000
,
0002
0000
0000
0000
,
0103
0000
0010
0000
,
1000
0000
0100
0010
,
0001
0000
1000
0000
,
0001
0000
0010
0100
,
1000
0000
0010
0000
,
0100
0000
0001
1000
,
0100
0000
0010
0000
,
0001
0000
1000
0000
,
1001
0000
0000
0000
;

//---------------dance-single - ----------------
#NOTES:
     dance-single:
     :
     Beginner:
     1:
     0.135,0.255,0.060,0.000,0.000:
0000
0000
0000
0000
,
0000
0000
0000
0000
,
0000
0000
0000
0000
,
0000
0000
0000
0000
,
0010
0000
0000
0000
,
0100
0000
0000
0000
,
0001
0000
0000
0000
,
1000
0000
0000
0100
,
0100
0000
0000
0000
,
0010
0000
0000
0000
,
0001
0000
0000
0000
,
1000
0000
0000
0000
,
1001
0000
0100
0000
,
0100
0000
0010
0000
,
1000
0000
0100
0000
,
0010
0000
0001
0000
,
1001
0000
0010
0000
,
0010
0000
1000
0000
,
0001
0000
0100
0000
,
0010
0000
1000
0000
,
1001
0000
0100
0000
,
0100
0000
1000
0000
,
0010
0000
1000
0000
,
0001
0000
0100
0000
,
1001
0000
0010
0000
,
0010
0000
0001
0000
,
1000
0000
0100
0000
,
0010
0000
0001
0000
,
1000
0000
0000
0000
,
0010
0000
0000
0000
,
0100
0100
0001
0001
,
1000
0010
0100
0001
,
1001
0000
1000
0000
,
0001
0000
1000
0000
,
0010
0000
0100
0000
,
0010
0000
0100
0000
,
0001
0000
0010
0000
,
0010
0000
0100
0000
,
1000
0000
0001
0000
,
1000
0000
0001
0000
,
0100
0000
0010
0000
,
0100
0000
0010
0000
,
1000
0000
0100
0000
,
0010
0000
0001
0000
,
1000
0000
1000
0000
,
0010
0000
0010
0000
,
0100
0000
0001
0000
,
1000
0000
0010
0000
,
0100
0000
0100
0000
,
0010
0000
0010
0000
,
1000
0000
0100
0000
,
0010
0000
0001
0000
,
1000
0000
0010
0000
,
0100
0000
0001
0000
,
0010
0010
0010
0000
,
0100
0100
0100
0000
,
1001
0000
0000
0000
,
0100
0000
0000
0000
,
1000
0000
0000
0000
,
0010
0000
0000
0000
,
1001
0000
0000
0000
,
0100
0000
0010
0000
,
0100
0000
0100
0000
,
0001
0000
1000
0000
,
0001
0000
0000
0000
,
0010
0000
0000
0000
,
0100
0000
0000
0000
,
1000
0000
0001
0000
,
1001
0000
0000
0000
;

//---------------dance-double - ----------------
#NOTES:
     dance-double:
     :
     Hard:
     9:
     0.534,0.509,0.262,0.127,0.375: // measure 1
00000000
00000000
00000000
00000000
,  // measure 2
00000000
00000000
00000000
00000000
,  // measure 3
00000000
00000000
00000000
00000000
,  // measure 4
00000000
00000000
00000000
00000000
,  // measure 5
10010000
01000000
10000000
00020000
00000000
00000000
00000000
00000000
,  // measure 6
00130000
00000010
00010000
00002000
00000000
00000000
00000000
00000000
,  // measure 7
01003000
00000100
00001000
00000002
00000000
00000000
00000000
00000000
,  // measure 8
00000013
00000100
00010000
00002000
00000000
00000000
01003000
00010000
,  // measure 9
10000000
01000000
00010000
02000000
00000000
00000000
00000000
00000000
,  // measure 10
03010000
00000100
00000001
00000200
00000000
00000000
00000000
00000000
,  // measure 11
00000310
00000001
00000100
00000010
00001000
00000001
00000100
00000010
,  // measure 12
00010000
00001000
01000000
00010000
10000000
01000000
00100000
00010000
,  // measure 13
10010000
00000000
00000000
00000000
00000000
00000000
10000000
01000000
10000000
00000000
00100000
00000000
01000000
00000000
00010000
00100000
,  // measure 14
00000000
00001000
00000000
00010000
00001000
00000000
00010000
00000100
00010000
00000000
00000100
00000010
00000100
00000000
00000010
00000000
,  // measure 15
00000001
00000000
00000000
00000000
00000100
00000000
00000001
00000100
00000001
00000000
00000010
00000000
00000100
00000000
00010000
00000000
,  // measure 16
00001000
00100000
00001000
00010000
01000000
10000000
00010000
01000000
,  // measure 17
00100000
00000000
00000000
00000000
00000000
00000000
10000000
00000000
01000000
00000000
00100000
01000000
10000000
00000000
01000000
00000000
,  // measure 18
00100000
00000000
00010000
00100000
01000000
00000000
00100000
00000000
00001000
00000000
00010000
00000000
00011000
00000000
00000000
00000000
,  // measure 19
00001100
00000000
00000000
00000000
00000000
00000000
00000010
00000000
00000100
00000000
00000001
00000100
00000000
00000000
00000001
00000000
,  // measure 20
00000010
00000000
00000100
00001000
00000100
00001000
00000010
00000000
00000100
00000001
00000100
00000000
00000001
00000000
00000000
00000000
,  // measure 21
00000110
00000000
00001001
00000000
00000000
00000000
00000001
00000000
00001000
00000000
00000100
00000000
00010000
00000000
00001000
00010000
,  // measure 22
00000000
00000100
00000000
00000100
00000010
00000000
00000001
00000000
00000100
00000000
00000010
00000000
00010000
00000000
00001000
00010000
,  // measure 23
00000000
00000000
00000000
00000000
01100000
00000000
00000000
00000000
00000000
01000000
00010000
00000000
10000000
00000000
01000000
00000000
,  // measure 24
00100000
00010000
01000000
00100000
00010000
00100000
01000000
00001000
,  // measure 25
00010000
00000000
00000000
00000000
00000000
00000000
00000100
00000000
00001000
00000100
00000010
00000000
00000100
00000000
00001000
00000000
,  // measure 26
00000000
00000000
00000001
00000010
00000100
00000000
00010000
00000000
00000010
00000000
00000100
00000000
00000001
00000000
00001000
00000000
,  // measure 27
00001100
00011000
01010000
01100000
,  // measure 28
10010000
00110000
11000000
10100000
,  // measure 29
02020000
00000000
00000000
00000000
,  // measure 30
03030000
00000000
00000000
00000000
,  // measure 31
00000002
00002003
00023000
10030000
,  // measure 32
20000000
30020000
00032000
00003001
,  // measure 33
00000110
00000000
00000100
00000001
00000000
00000000
00000100
00000010
00000000
00000000
00000100
00001000
00000000
00000000
00000100
00000010
,  // measure 34
00000000
00000000
00001000
00000010
00000000
00000000
00001000
00000100
00000000
00000000
00010000
00001000
00000000
00000000
01000000
00010000
,  // measure 35
00000000
00000000
10000000
01000000
00000000
00000000
00100000
01000000
00000000
00000000
00010000
01000000
00000000
00000000
00100000
01000000
,  // measure 36
00000000
00000000
00100000
00010000
00000000
00000000
00100000
00001000
00000000
00000000
00010000
00000010
00001000
00000000
00000001
00000000
,  // measure 37
00000100
00000000
00000010
00000100
00000000
00000000
00000001
00001000
00000000
00000000
00000100
00000010
00000000
00000000
00000001
00000010
,  // measure 38
00000000
00000000
00000100
00010000
00000000
00000000
00001000
01000000
00000000
00000000
00010000
10000000
00000000
00000000
00010000
00100000
,  // measure 39
00000000
00000000
01000000
10000000
00000000
00000000
00010000
01000000
00000000
00000000
00100000
00010000
00000000
00000000
00100000
01000000
,  // measure 40
00000000
00000000
00001000
00010000
00000000
00000000
00000100
00001000
00000000
00000000
00000010
00000100
00000001
00000000
00001000
00000000
,  // measure 41
00001001
00000000
00000000
00000000
00000000
00000000
00000001
00001000
00000001
00000000
00000010
00000000
00000100
00000000
00010000
00001000
,  // measure 42
00000000
01000000
00000000
01000000
00100000
00000000
10000000
01000000
10000000
00000000
00010000
01000000
00010000
00000000
00100000
00000000
,  // measure 43
01000000
00000000
00000000
00000000
10000000
00000000
01000000
00100000
01000000
00000000
00100000
00000000
00001000
00000000
00010000
00000000
,  // measure 44
00000100
00001000
00000010
00000100
00000001
00000010
00000100
00010000
,  // measure 45
00011000
00000000
00000000
00000000
00000000
00000000
01000000
00000000
00100000
00000000
10000000
01000000
10000000
00000000
00100000
00000000
,  // measure 46
01000000
00000000
00010000
01000000
00010000
01000000
00010000
00000000
00100000
00000000
01000000
00000000
10000000
00000000
00000000
00000000
,  // measure 47
10010000
00000000
00000000
00000000
00000000
00000000
00010000
00000000
00100000
00000000
00001000
00010000
00000000
00000000
00000100
00000000
,  // measure 48
00001000
00000000
00000010
00000000
00000100
00000001
00000100
00000000
00000010
00000100
00000010
00000000
00001000
00000000
00000000
00000000
,  // measure 49
00001100
00000000
00001001
00000000
00000000
00000000
00001000
00000000
00000100
00000000
00010000
00000000
00001000
00000000
01000000
00010000
,  // measure 50
00000000
10000000
00000000
01000000
10000000
00000000
00010000
00000000
01000000
00000000
00100000
00000000
10000000
00000000
00010000
10000000
,  // measure 51
00000000
00000000
00000000
00000000
10010000
00000000
00000000
00000000
00000000
10000000
01000000
00000000
00100000
00000000
00001000
00000000
,  // measure 52
00010000
00000000
00000100
00000000
00001000
00000000
00000010
00000000
00000001
00000000
00000010
00001000
00000000
00000000
00000100
00000000
,  // measure 53
00001100
00000000
00000000
00000000
00000000
00000000
00000100
00000000
00010000
00001000
00010000
00000000
00001000
00000000
01010000
00000000
,  // measure 54
00000000
01000000
00000000
01000000
00100000
00000000
10000000
00000000
01000000
00000000
00100000
00000000
00001000
00000000
00010000
00000000
,  // measure 55
00011000
00110000
01100000
01010000
,  // measure 56
01100000
11000000
10010000
01010000
,  // measure 57
00011000
00000000
00000000
00000000
,  // measure 58
00000100
00001000
00000100
00000100
00010000
00000100
00010000
00010000
00001000
00010000
00001000
00001000
00000000
00010000
00001000
00000000
,  // measure 59
02000000
00000000
03200000
00000000
,  // measure 60
10300000
00000000
00100000
00100000
10000000
00000000
01000000
00100000
00010000
00010000
00100000
00002000
00000000
00010000
00013000
00000000
,  // measure 61
00011000
00000000
00000000
00010000
00000010
00000000
00000100
00000000
00000001
00000000
00000000
00000010
00000100
00000000
00010000
00000000
,  // measure 62
00001000
00000000
00000000
01000000
00010000
00000000
10000000
00000000
01000000
00000000
00000000
00100000
00001000
00000000
00010000
00000000
,  // measure 63
00000010
00000000
00000000
00001000
00000100
00000000
00010000
00000000
00001000
00000000
00000000
01000000
00010000
00000000
10000000
00000000
,  // measure 64
01000000
00000000
00000000
00010000
01000000
00000000
10000000
00000000
00010000
00000000
00000000
00100000
00001000
00000000
00010000
00000000
,  // measure 65
00000010
00000000
00000000
00000001
00000010
00000000
00001000
00000000
00000100
00000000
00000000
00000010
00000100
00000000
00010000
00000000
,  // measure 66
00001000
00000000
00000000
01000000
00100000
00000000
10000000
00000000
01000000
00000000
00000000
00100000
00001000
00000000
00010000
00000000
,  // measure 67
00000100
00000000
00000000
00000010
00000100
00000000
00000010
00000000
00000001
00000000
00000000
00000100
00000001
00000000
00001000
00000000
,  // measure 68
00000100
00000000
00000000
00010000
00001000
00000000
01000000
00000000
00010000
00000000
00000000
10000000
01000000
00000000
00100000
00000000
,  // measure 69
01000000
00000000
00000000
00000000
;

//---------------dance-double - ----------------
#NOTES:
     dance-double:
     :
     Easy:
     4:
     0.260,0.255,0.142,0.112,0.000:
00000000
00000000
00000000
00000000
,
00000000
00000000
00000000
00000000
,
00000000
00000000
00000000
00000000
,
00000000
00000000
00000000
00000000
,
00022000
00000000
00000000
00033000
,
00220000
00000000
00000000
00330000
,
00022000
00000000
00000000
00033000
,
00002010
00000000
00000000
00003100
,
00002200
00000000
00000000
00003300
,
00000220
00000000
00000000
00000330
,
00000010
00000001
00000100
00000010
,
00001000
00000100
00010000
00001000
,
00011000
00000000
01000000
01000000
,
00100000
10000000
01000000
00100000
,
00001000
00010000
00001000
00010000
,
00000100
00001000
00000100
00001000
,
00001100
00000000
00000100
00000010
,
00000001
00000100
00000001
00001000
,
00000100
00000000
00010000
00001000
,
01000000
00010000
10000000
00100000
,
01100000
00000000
10000000
01000000
,
00100000
00001000
00010000
00000100
,
00000000
00001000
00000000
00000010
,
00000100
00000001
00000010
00000100
,
00001001
00000000
00000001
00001000
,
00000000
00000100
00010000
00001000
,
01000000
01000000
00100000
10000000
,
01000000
00100000
00001000
00010000
,
00022000
00000000
00000000
00033000
,
00000000
00000000
00000000
00000000
,
01000000
01000000
00100000
10000000
,
01000000
00100000
00001000
00010000
,
00011000
00010000
00000100
00000100
,
00000010
00000010
00000001
00000100
,
00000001
00000001
00000010
00000010
,
00000100
00000100
00010000
00001000
,
01000000
01000000
00100000
00100000
,
10000000
10000000
01000000
01000000
,
00100000
00100000
00001000
00001000
,
00010000
00010000
00000100
00001000
,
00001100
00000000
00000100
00000010
,
00000001
00000100
00000001
00000010
,
00000100
00010000
00001000
01000000
,
00010000
00010000
10000000
10000000
,
10010000
00000000
10000000
00010000
,
00100000
01000000
10000000
00100000
,
01100000
00000000
01000000
00010000
,
00100000
00001000
00010000
00000100
,
00001100
00000000
00000100
00000010
,
00000100
00001000
00000010
00000100
,
00000000
00000001
00000000
00000010
,
00000100
00010000
00001000
01000000
,
01010000
00000000
01000000
00100000
,
00000000
10000000
01000000
00100000
,
00001000
00001000
00010000
00000100
,
00001000
00000010
00000100
00000001
,
00002001
00000000
00000000
00003000
,
00000100
00000100
00001000
00000000
00000010
00000000
00000100
00000000
,
00000002
00000000
00000000
00000000
,
00000013
00000010
00000100
00000000
00010000
00000000
00001000
00000000
,
01000000
01000000
00010000
00010000
,
00100000
00000000
01000000
00000000
,
10000000
10000000
00100000
00100000
,
01000000
00010000
10000000
00100000
,
01000000
01000000
00010000
00010000
,
00100000
00000000
00001000
00000000
,
00010000
00010000
00000100
00000100
,
00000010
00000001
00000100
00000010
,
00001001
00000000
00000000
00000000
;

//---------------dance-double - ----------------
#NOTES:
     dance-double:
     :
     Medium:
     6:
     0.357,0.433,0.150,0.217,0.045:
00000000
00000000
00000000
00000000
,
00000000
00000000
00000000
00000000
,
00000000
00000000
00000000
00000000
,
00000000
00000000
00000000
00000000
,
10000000
01000000
10000000
02000000
00000000
00000000
00000000
00000000
,
03100000
00001000
00100000
00002000
00000000
00000000
00000000
00000000
,
00013000
00000100
00010000
00000200
00000000
00000000
00000000
00000000
,
00001300
00000010
00001000
00000020
00000000
00000000
00000130
00000000
,
00000001
00000100
00000001
00000200
00000000
00000000
00000000
00000000
,
00000310
00010000
00000010
00020000
00000000
00000000
00000000
00000000
,
00031000
01000000
00001000
02000000
00000000
00000000
00000000
00000000
,
03010000
00100000
01000000
10000000
,
10010000
00000000
10000000
00000000
00010000
01000000
00010000
00000000
,
01000000
00001000
00010000
00000100
,
00001000
00000000
00000010
00001000
00000010
00000000
00000100
00000000
,
00000101
00000101
00001001
00001001
,
00002200
00003300
00000100
00000010
,
00000001
00000100
00000001
00000000
00001000
00000100
00001000
00000000
,
00001100
00000000
00000100
00000000
00010000
00001000
00010000
00000000
,
00001000
00000000
01000000
00000000
00100000
10000000
01000000
00000000
,
00100000
01000000
00000000
00000000
00100000
00000000
00001000
00000000
,
00010000
00001000
00010000
00000000
00000100
00000000
00001000
00000000
,
00000010
00000110
00000000
00000100
,
00000001
00000010
00000001
00000000
00000100
00000000
00000010
00000000
,
00001001
00000000
00000000
00000000
00001000
00000001
00001000
00000000
,
00000100
00000000
00010000
00000000
00001000
00010000
00001000
00000000
,
02000000
03020000
00230000
02300000
,
23000000
30200000
02300000
03020000
,
10030000
00000000
00000000
00000000
,
00000000
00000000
00000000
00000000
,
00010000
00010000
00100000
00001000
00010000
00000100
00001000
00000000
,
00000010
00000100
00000001
00000010
00000100
00010000
00001000
00010000
,
00011000
00010000
00000000
00000100
00000000
00000010
00000000
00000001
,
00000000
00000100
00000000
00000010
00000000
00001000
00000000
00000100
,
00000000
00010000
00000000
00001000
00000000
01000000
00000000
00010000
,
00000000
10000000
00000000
00100000
01000000
00100000
10000000
01000000
,
00000000
00100000
00000000
00001000
00000000
00010000
00000000
00000100
,
00000000
00001000
00000000
00000010
00000000
00000001
00000000
00000010
,
00000000
00001000
00000000
00000100
00000000
00000010
00000000
00000001
,
00000000
00000100
00000000
00000010
00001000
00000100
00000010
00000001
,
00000010
00000000
00000100
00000000
00001000
00000100
00001000
00000000
,
00000100
00000000
00010000
00001000
00010000
00000000
00001000
00000000
,
01000000
00000000
00010000
01000000
00010000
00000000
00100000
00000000
,
00110000
00110000
10010000
10010000
,
02020000
03030000
01000000
00100000
,
10000000
01000000
10000000
00000000
00010000
00100000
00010000
00000000
,
00110000
00000000
00000000
00000000
00100000
00001000
00100000
00000000
,
00001000
00010000
00001000
00000000
00010000
00000100
00010000
00000000
,
00000100
00000010
00000000
00000000
00000001
00000100
00000001
00000000
,
00000100
00000000
00000010
00000000
00001000
00000100
00001000
00000000
,
00000000
00001100
00000000
00000100
,
00000010
00000001
00000100
00000000
00000010
00000000
00001000
00000000
,
00001001
00000000
00000000
00000000
00001000
00000001
00001000
00000000
,
00000100
00010000
00001000
01000000
,
00200000
20300000
32000000
03200000
,
00302000
00023000
00030200
00000310
,
00002002
00000000
00000000
00003003
,
00000001
00001000
00000010
00000100
00000001
00001000
00000001
00001000
,
00000002
00000000
00000000
00000000
,
00000013
00000100
00010000
00001000
00010000
00000100
00001000
00000010
,
00000100
00000000
00000000
00000100
00000000
00000000
00000000
00000000
00000001
00000000
00000000
00000001
00000000
00000000
00000000
00000000
,
00000010
00000000
00000000
00000010
00000000
00000000
00000000
00000000
00000100
00000000
00000000
00000100
00000000
00000000
00000000
00000000
,
00010000
00000000
00000000
00001000
00000000
00000000
00000000
00000000
01000000
00000000
00000000
00010000
00000000
00000000
00000000
00000000
,
00100000
00000000
00000000
01000000
00000000
00000000
00000000
00000000
10000000
00000000
00000000
00100000
00000000
00000000
10000000
00000000
,
01000000
00000000
00000000
00100000
00000000
00000000
00000000
00000000
00001000
00000000
00000000
00010000
00000000
00000000
00000000
00000000
,
00000100
00000000
00000000
00000010
00000000
00000000
00000000
00000000
00000001
00000000
00000000
00000100
00000000
00000000
00000001
00000000
,
00000010
00000100
00000010
00000000
00000100
00001000
00000010
00000000
,
00000100
00000010
00000100
00000000
00000001
00001000
00000100
00000000
,
00001001
00000000
00000000
00000000
;
