#TITLE:Fire Fire;
#SUBTITLE:;
#ARTIST:StripE;
#TITLETRANSLIT:;
#SUBTITLETRANSLIT:;
#ARTISTTRANSLIT:;
#GENRE:;
#CREDIT:;
#MENUCOLOR:;
#METERTYPE:DDR;
#BANNER:FireFire-bn.png;
#BACKGROUND:FireFire-bg.png;
#LYRICSPATH:;
#CDTITLE:razmatitle.png;
#MUSIC:Fire Fire.mp3;
#OFFSET:-2.049;
#SAMPLESTART:83.660;
#SAMPLELENGTH:11.980;
#SELECTABLE:YES;
#LISTSORT:32;
#BPMS:0.000=150.000;
#STOPS:;
#BGCHANGES:;
#ATTACKS:;

//---------------dance-single - ----------------
#NOTES:
     dance-single:
     :
     Hard:
     9:
     0.643,0.725,0.092,0.046,0.257:
0000
0000
0000
0000
,
0000
0000
0000
0000
,
0000
0000
0000
0000
,
0000
0000
0000
0000
,
0100
0000
1000
0000
0010
0000
0000
0100
0000
0001
0000
0010
0100
0000
0010
0000
,
0001
0000
1000
0000
0001
0000
0000
0100
0000
0010
0000
1000
0001
0000
0100
0000
,
0001
1000
0001
1000
0001
1000
0001
1000
,
0001
1000
0001
1000
0001
1000
0001
1000
0001
0000
0000
0000
0010
0000
0000
0000
,
1000
0100
0001
0100
1000
0010
1000
0100
,
0001
0100
1000
0010
1000
0001
1000
0000
,
0001
0100
1000
0100
0001
0010
0001
0100
,
1000
0100
0001
0010
0001
1000
0001
0000
,
0010
1000
0100
0010
0001
0100
0010
0001
,
0010
0100
0001
0010
0100
0001
0100
0000
,
0010
0100
1000
0010
0100
0001
0100
1000
,
0010
0100
0001
1000
0010
0100
0001
0000
,
1000
0000
0000
1000
0000
0000
1000
0000
0010
0000
0100
0000
0001
0000
0000
0000
,
0010
0100
0001
0000
0010
0100
0001
0000
,
0010
0000
0000
0010
0000
0000
0010
0000
0100
0000
1000
0000
0001
0000
0000
0000
,
0100
1000
0001
0000
0100
1000
0001
0000
,
0100
0000
0000
0100
0000
0000
0100
0000
0001
0000
0100
0000
1000
0000
0000
0000
,
0001
0100
1000
0000
0001
0100
1000
0000
,
0100
1000
1100
0000
0100
0001
0101
0000
,
0001
0010
0100
1000
0001
1000
0001
2000
,
0002
0000
0000
3003
,
0100
0100
0010
0100
0100
0100
0001
0010
,
0100
0000
1000
0000
0001
0000
0100
0000
0010
0000
1000
0001
1000
0000
0000
0000
,
0001
0001
0100
1000
1000
1000
0100
0010
,
0100
0000
1000
0000
0001
0000
0010
0000
0100
0000
0010
1000
0010
0000
0100
0000
,
0001
0010
1000
0010
0001
1000
0001
0010
,
0100
0000
0001
0000
0100
0000
0010
0000
0100
0000
1000
0001
1000
0000
0000
0000
,
0100
0100
1000
0010
0010
0010
0100
0001
,
0010
0100
0010
0001
0100
0010
0001
0010
,
1000
1000
0010
0010
0100
0100
1000
1000
,
0100
0100
0001
0001
0010
0010
1000
1000
,
0001
0001
0100
0100
1000
1000
0001
0001
,
1000
1000
0010
0010
0100
0100
0100
0100
,
0001
0010
0100
1000
0001
0010
0100
1000
,
0010
0100
0001
1000
0010
0100
0001
1000
,
0010
0000
1000
0010
1000
0000
0001
0100
0001
0000
1000
0001
1000
0000
0100
1000
,
0100
0000
1000
0001
1000
0000
0001
1000
0001
0000
1000
0001
1000
0001
1000
0002
,
2000
0000
0000
3003
,
0010
0100
0001
0000
0010
0000
0100
1000
0010
0000
0101
0000
1001
0000
1100
0000
,
0100
1000
0100
0000
0010
0000
0001
0100
0001
0000
0010
0000
0100
0000
1000
0001
,
1000
0000
0010
0000
0100
0000
0001
0010
0001
0000
1000
0001
1000
0000
0100
0000
,
0010
0001
0010
0000
0100
0000
0010
0100
0010
0000
0001
0000
1000
0100
1000
0000
,
0010
0000
0100
0000
0001
1000
0001
0000
0010
0000
0100
1000
0100
0000
1000
0000
,
0010
0100
0001
0000
1000
0000
0010
0100
0001
0000
1000
0000
0010
0000
0100
0000
,
0001
0000
0010
0100
1000
0000
0001
0000
1000
0000
0010
0100
0001
0000
1000
0000
,
0001
0100
0001
0000
0010
0000
0100
0000
1000
0100
1000
0000
0010
0000
0100
0000
,
0001
0000
0000
0101
0000
0000
1001
0000
0000
1010
0000
0000
1001
0000
0001
0000
,
0100
0100
0010
1000
0100
0010
0100
1000
,
0001
0010
0100
0010
0001
1000
0001
0001
,
0001
0010
0100
0010
0001
1000
0010
0100
,
0010
1000
0001
0010
0100
1000
0001
1000
,
1000
1000
0010
0100
0010
1000
0001
0010
,
0100
0010
0001
1000
0001
1000
0001
0010
,
0100
1000
0010
0000
0100
0000
0001
0010
0100
0000
1000
0000
0010
0000
0100
0001
,
1000
0100
0010
0001
1000
0100
0010
0100
,
1000
0000
0000
0100
0000
0000
0010
0000
0001
0000
0100
0000
0001
0000
0000
0000
,
1000
0100
1000
0000
0001
0100
0001
0000
,
0010
0000
0000
0100
0000
0000
1000
0000
0010
0000
0100
0000
0010
0000
0000
0000
,
1000
0001
1000
0000
1100
0000
0101
0000
,
0001
0000
0000
1000
0000
0000
0100
0000
0010
0000
0001
0000
1000
0000
0000
0000
,
1000
0001
0100
0000
0010
1000
0100
0000
,
1000
0000
0000
0010
0000
0000
0100
0000
0001
0000
0100
0000
0001
0000
0000
0000
,
1000
0100
1000
0100
0010
0100
0010
0100
,
0010
0001
1000
0000
0100
0000
0010
0100
1000
0000
0001
0000
0100
0000
0010
0100
,
0001
0000
1000
0000
0100
0000
1000
0001
0010
0000
0100
0000
1000
0000
0001
0000
,
0100
0010
1000
0000
0100
0000
0010
0001
1000
0000
0010
0000
0100
0000
0001
1000
,
0100
0000
0010
0000
0001
0000
0100
0010
1000
0000
0001
0000
0100
0000
0010
0000
,
1000
0001
0100
0000
0010
0000
1000
0100
0010
0000
0001
0000
0010
0000
0100
1000
,
0001
0000
1000
0000
0010
0000
0100
0000
0001
0100
0001
0000
1000
0000
0100
0000
,
0010
0001
1000
0000
0010
0000
0100
0001
1000
0000
0010
0000
0100
0000
0001
1000
,
0001
0010
0100
1000
0001
1000
0001
0100
,
0220
0000
0330
0000
;

//---------------dance-single - ----------------
#NOTES:
     dance-single:
     :
     Beginner:
     1:
     0.167,0.202,0.000,0.000,0.000:
0000
0000
0000
0000
,
0000
0000
0000
0000
,
0000
0000
0000
0000
,
0000
0000
0000
0000
,
0100
0000
0000
0000
,
0100
0000
0000
0000
,
0100
0000
0010
0000
,
0100
0000
0000
0000
,
1000
0000
0001
0000
,
0100
0000
0001
0000
,
1000
0000
1000
0000
,
0100
0000
1000
0000
,
0010
0000
1000
0000
,
0100
0000
1000
0000
,
0001
0000
0010
0000
,
0001
0000
0100
0000
,
1000
0000
0100
0000
,
0001
0000
0100
0000
,
1000
0000
0010
0000
,
0001
0000
0010
0000
,
1000
0000
0100
0000
,
0010
0000
0001
0000
,
1000
0000
0001
0000
,
0100
0000
0010
0000
,
1000
1000
0000
0000
,
0001
0000
0001
0000
,
0001
0000
0001
0000
,
1000
0000
1000
0000
,
1000
0000
1000
0000
,
0010
0000
0010
0000
,
0100
0000
0100
0000
,
0001
0001
0001
0000
,
1000
1000
1000
0000
,
0100
0000
0100
0000
,
0010
0000
0010
0000
,
0001
0000
0001
0000
,
1000
0000
1000
0000
,
0001
0001
0000
0000
,
1000
1000
0000
0000
,
0001
0001
0001
0001
,
0001
0001
0001
0001
,
0001
0000
0000
0000
,
0100
0000
0000
0000
,
0010
0000
0010
0000
,
1000
0000
0100
0000
,
1000
0000
1000
0000
,
0001
0001
0001
0000
,
0010
0000
0100
0000
,
0001
0000
0010
0000
,
0001
0000
0100
0000
,
1000
1000
1000
0000
,
0010
0000
0100
0000
,
1000
0000
0001
0000
,
0100
0000
1000
0000
,
0010
0010
0010
0000
,
0001
0000
0100
0000
,
1000
0000
0010
0000
,
1000
0000
0100
0000
,
0100
0100
0100
0000
,
0001
0000
0001
0000
,
1000
0000
1000
0000
,
0010
0000
0010
0000
,
0100
0000
0100
0000
,
1000
0000
0100
0000
,
0001
0000
0100
0000
,
0010
0000
1000
0000
,
0010
0000
0001
0000
,
1000
0000
1000
0000
,
0001
0001
0001
0000
,
0010
0000
0100
0000
,
1000
1000
1000
0000
,
1000
0000
0001
0000
,
0010
0010
0010
0000
,
0100
0000
1000
0000
,
0100
0100
0100
0000
,
0100
0000
0000
0000
;

//---------------dance-single - ----------------
#NOTES:
     dance-single:
     :
     Easy:
     4:
     0.298,0.317,0.123,0.138,0.000:
0000
0000
0000
0000
,
0000
0000
0000
0000
,
0000
0000
0000
0000
,
0000
0000
0000
0000
,
1000
0100
1000
0000
,
0010
0100
0010
0000
,
0001
0100
0001
0000
,
1001
0000
0000
0000
,
1000
0001
1000
0000
,
0001
0000
1000
0000
,
0010
0100
0010
0000
,
0100
0000
0010
0000
,
1000
0100
1000
0000
,
0100
0000
1000
0000
,
0001
0100
0001
0000
,
0100
0000
0001
0000
,
2000
3100
1000
0100
,
1000
0000
0100
0000
,
0002
0103
0001
0100
,
0001
0000
0100
0000
,
0020
1030
0010
1000
,
0010
0000
0100
0000
,
0002
1003
0001
0100
,
0010
0000
1001
0000
,
0220
0000
0000
0330
,
1000
0100
0001
0100
,
1000
1000
0001
0001
,
0010
0100
0010
0100
,
1000
0100
1000
0100
,
0001
0010
1000
0010
,
0001
0001
1000
1000
,
0001
0010
0100
1000
,
0001
0100
1000
0001
,
0010
0100
0001
0010
,
0100
1000
0010
0100
,
0010
0100
0001
0010
,
0100
1000
0010
0100
,
2000
0100
0100
3100
,
0002
0100
0100
0103
,
0020
1000
1000
1030
,
0020
0001
0001
0031
,
2002
0000
3003
0000
,
0100
0010
0100
0010
,
1000
0100
1000
0001
,
0010
0100
1000
0001
,
0100
0010
1000
0010
,
0001
0100
0001
0010
,
2000
3010
0100
0001
,
0010
0100
1000
0001
,
0200
0310
1000
0001
,
0010
0100
0001
1000
,
1001
0001
0010
0100
,
1000
0001
0100
0010
,
0110
1000
0100
0010
,
0100
1000
0001
0010
,
0011
0100
1000
0100
,
0010
0100
1000
0001
,
1001
0000
0110
0000
,
1001
1001
1001
0000
,
2000
3100
0010
0000
,
0010
0000
0010
0000
,
0002
0103
1000
0000
,
1000
0000
1000
0000
,
0020
0130
0001
0000
,
0001
0001
0001
0000
,
0200
0310
1000
0000
,
1000
1000
1000
0000
,
1100
0000
1001
0000
,
0101
0001
0100
0010
,
0100
1000
0100
1000
,
0001
0100
0010
0100
,
0001
1000
0100
0010
,
1000
0001
1000
0001
,
0010
0100
0010
0100
,
0001
1000
0001
1000
,
1001
0000
0000
0000
;

//---------------dance-single - ----------------
#NOTES:
     dance-single:
     :
     Medium:
     6:
     0.455,0.489,0.107,0.100,0.000:
0000
0000
0000
0000
,
0000
0000
0000
0000
,
0000
0000
0000
0000
,
0000
0000
0000
0000
,
1000
0100
0000
0010
0000
0001
0000
0010
,
0000
0100
0000
1000
0000
0100
0000
0010
,
0001
0100
0000
0010
0000
0100
0000
0010
,
2002
0000
0000
3003
,
0100
1000
0100
0000
0010
0000
0010
0000
,
0001
0001
1000
1000
,
0001
0100
0001
0000
0010
0000
0010
0000
,
1000
1000
0100
1001
,
0010
0100
0010
0000
1000
0000
1000
0000
,
0001
0001
0100
0110
,
1000
0010
1000
0000
0001
0000
0001
0000
,
0010
0010
0100
0110
,
1000
0100
0010
0000
0001
0000
0001
0000
,
0010
0000
0010
0000
0100
1000
0100
0000
,
0001
0100
0010
0000
1000
0000
1000
0000
,
0100
0000
0100
0000
0010
0100
0010
0000
,
1000
0001
0100
0000
0010
0000
0100
0000
,
0001
0000
1000
0000
0010
0100
0010
0000
,
1000
0010
0100
0000
0001
0000
0100
0000
,
1000
0001
1000
0001
1000
0000
0001
0000
,
2002
0000
0000
0000
0000
3003
0000
0000
,
1000
0100
1000
0000
0010
0001
0010
0000
,
0010
0100
0010
0000
0100
0001
0100
0000
,
0010
1000
0010
0000
0100
0001
0100
0000
,
0010
0001
0010
0000
0100
0010
0100
0000
,
1000
0100
0010
0000
0001
0000
0100
0000
,
0001
0100
0010
0000
1000
0000
0010
0000
,
1000
0100
0010
0000
0001
0000
0100
0000
,
0001
0010
0100
0000
0001
0000
0100
0000
,
1000
0100
0010
0001
0001
0000
0100
0000
,
0001
0100
0010
1000
1000
0000
0100
0000
,
1000
0010
0100
0001
0001
0000
0010
0000
,
0001
0010
0100
1000
1000
0000
0100
0000
,
1000
0010
1000
0010
0100
0001
0100
0001
,
0010
0100
0010
0100
1000
0001
1000
0001
,
0100
0010
0100
0010
1000
0010
1000
0010
,
1000
0100
0010
0001
1000
0100
0010
0001
,
0220
0000
0000
0330
,
1000
1000
0100
0100
0010
0010
0001
0001
,
0010
0100
1000
0000
0010
0100
0001
0000
,
1000
0001
1000
0000
0100
0000
1001
0000
,
1000
0001
0100
0000
0001
1000
0100
0000
,
0010
0100
1000
0000
0001
0000
0101
0000
,
0010
1000
0100
0000
1000
0001
0010
0000
,
0100
1000
0001
0000
0010
0000
1100
0000
,
0010
0100
0010
0000
0001
1000
0001
0000
,
1100
1010
0101
0011
,
0001
0010
0100
0000
0100
1000
0100
0000
,
0100
1000
0100
0000
0100
0010
0100
0000
,
1000
0010
0100
0000
0100
0001
0100
0000
,
0001
0010
0001
0010
0100
1000
0100
0000
,
0010
1000
0010
0000
0010
0100
0010
0000
,
0010
0001
0010
0000
0010
0100
0010
0000
,
1000
0100
0010
0001
1000
0100
0010
0001
,
1000
0100
0010
0001
1000
0100
0010
0001
,
2000
0000
3100
0000
0010
0001
0010
0000
,
0100
0100
0001
0001
,
0020
0000
0130
0000
0001
0100
0001
0000
,
1000
1000
0010
0010
,
0200
0000
0301
0000
1000
0001
1000
0000
,
0010
0100
0010
0100
0020
0000
1030
0000
,
1000
0001
1000
0000
0100
0000
0010
0000
,
2000
3020
0230
0301
,
1000
0100
1000
0000
0010
0100
0010
0000
,
0001
0010
0001
0000
0001
1000
0001
1000
,
0100
0010
0100
0000
0100
0010
0100
0000
,
0001
1000
0001
1000
0001
0000
0100
0000
,
0010
0100
1000
0000
1000
0100
0010
0000
,
0001
0010
0100
1000
0001
0000
0100
0000
,
0010
0100
0001
0000
0001
0100
0010
0000
,
1000
0100
0010
0001
0010
0100
1000
0001
,
0110
0000
0000
0000
;

//---------------dance-double - ----------------
#NOTES:
     dance-double:
     :
     Hard:
     9:
     0.599,0.584,0.077,0.115,0.104: // measure 1
00000000
00000000
00000000
00000000
,  // measure 2
00000000
00000000
00000000
00000000
,  // measure 3
00000000
00000000
00000000
00000000
,  // measure 4
00000000
00000000
00000000
00000000
,  // measure 5
01000000
00100000
00010000
00000000
01000000
00001000
00010000
00000100
,  // measure 6
00000010
00000001
00000100
00000000
00001000
00010000
01000000
00000000
,  // measure 7
10000000
00010000
00001000
00000001
00001000
00010000
00001000
00010000
,  // measure 8
00022000
00000000
00033000
00000000
,  // measure 9
10000000
00000000
01000000
00000000
00100000
00000000
00010000
01000000
00010000
00000000
01000000
00000000
00001000
00000000
00010000
00000000
,  // measure 10
00000100
00000010
00000001
00001000
00000100
00000010
00000001
00000000
,  // measure 11
00000100
00000000
00000010
00000000
00010000
00000000
00001000
00010000
00001000
00000000
01000000
00000000
00100000
00000000
10000000
00000000
,  // measure 12
01000000
10000000
00100000
00010000
00100000
10000000
00010000
00000000
,  // measure 13
10000000
00000000
00010000
00000000
01000000
00000000
00100000
00010000
00100000
00000000
10000000
00000000
01000000
00000000
10000000
00000000
,  // measure 14
00010000
01000000
00001000
00010000
00000010
00001000
00000100
00000000
,  // measure 15
00001000
00000001
00000101
00000000
00000001
00001000
00001100
00000000
,  // measure 16
00022000
00000000
00000000
00033000
,  // measure 17
00001000
01000000
00010000
00100000
01000000
00010000
00001000
00000100
,  // measure 18
00000010
00001000
00000100
00000010
00000100
00010000
00001000
00000000
,  // measure 19
01000000
00100000
00010000
00001000
01000000
00010000
10000000
01000000
,  // measure 20
00010000
00001000
00000100
00000001
00001000
00000010
00000100
00000000
,  // measure 21
00000001
00000010
00001000
00010000
01000000
10000000
00010000
00100000
,  // measure 22
01000000
10000000
00010000
01000000
00010000
10000000
01000000
00000000
,  // measure 23
10000000
00100000
00010000
00001000
01000000
00010000
00100000
01000000
,  // measure 24
10000000
00010000
01000000
00001000
00010000
00000010
00000100
00000000
,  // measure 25
00002002
00000000
00000000
00003003
,  // measure 26
00000100
00000010
00001000
00000100
00000010
00000001
00000010
00000100
,  // measure 27
00001000
00000000
00000001
00000000
00000100
00000000
00000010
00000000
00010000
00000000
00001000
00010000
00001000
00000000
00000000
00000000
,  // measure 28
01000000
00100000
10000000
00010000
00100000
01000000
10000000
00010000
,  // measure 29
10000000
00000000
00100000
00000000
01000000
00000000
00001000
00000000
00010000
00000000
00001000
00010000
00001000
00000000
00000000
00000000
,  // measure 30
00001000
00010000
00000100
00001000
00000010
00010000
00001000
01000000
,  // measure 31
00100000
00000000
01000000
00000000
00010000
00000000
00100000
00000000
01000000
00000000
10000000
00010000
10000000
00000000
00000000
00000000
,  // measure 32
01000000
00100000
00010000
01000000
00001000
00010000
00000010
00001000
,  // measure 33
00000100
00000000
00010000
00000000
00001000
00000000
00010000
00000000
00000100
00000000
00001000
00000010
00001000
00000000
00000000
00000000
,  // measure 34
00000100
00000010
00000001
00001000
00000010
00000100
00000002
00000000
,  // measure 35
00000103
00000010
00010000
00001000
00100000
01000000
20000000
00000000
,  // measure 36
30010000
01000000
00200000
00000000
01300000
00010000
20000000
00000000
,  // measure 37
30100000
01000000
00002000
00000000
00013000
00000100
00002000
00000000
,  // measure 38
00003010
00000100
00000001
00000100
00000010
00000100
00000001
00000100
,  // measure 39
00000010
00010000
00001000
00010000
00000010
00010000
00001000
00010000
,  // measure 40
00001000
01000000
00100000
01000000
00010000
01000000
00100000
01000000
,  // measure 41
00010000
10000000
01000000
00100000
00010000
01000000
00001000
00010000
,  // measure 42
00022000
00000000
00000000
00033000
,  // measure 43
00000100
00001000
00000010
00000100
00000001
00000010
00000100
00001000
,  // measure 44
00000010
00000100
00000001
00000000
00001000
00000000
00000100
00000000
00010000
00000000
00001000
00000000
00100000
00000000
01000000
00000000
,  // measure 45
10000000
00000000
00100000
00000000
01000000
00000000
00010000
00000000
01000000
00000000
00100000
10000000
00100000
00000000
00000000
00000000
,  // measure 46
01000000
00010000
01000000
00000000
00100000
00000000
10000000
00000000
01000000
00000000
00100000
00000000
00001000
00000000
00010000
00000000
,  // measure 47
00001000
00000000
01000000
00000000
00100000
00000000
10000000
00000000
00010000
00000000
01000000
00100000
01000000
00000000
00000000
00000000
,  // measure 48
00001000
00010000
00001000
00000000
00100000
00000000
00010000
00000000
01000000
00000000
00001000
00000000
00010000
00000000
00000100
00000000
,  // measure 49
00001000
00000000
00000010
00000000
00000100
00000000
00000001
00000000
00001000
00000000
00000100
00000010
00000100
00000000
00000000
00000000
,  // measure 50
00000010
00000001
00000010
00000000
00000100
00000000
00001000
00000000
00000010
00000000
00000100
00000000
00000001
00000000
00001000
00000000
,  // measure 51
00001100
00000000
00000000
00011000
00000000
00000000
01010000
00000000
00000000
10010000
00000000
00000000
00100000
00000000
10000000
00000000
,  // measure 52
00010000
01000000
00001000
00010000
00000010
00001000
00000100
00010000
,  // measure 53
00001000
00000000
01000000
00000000
00100000
00000000
10000000
00000000
00010000
00000000
01000000
00010000
01000000
00000000
00000000
00000000
,  // measure 54
00100000
10000000
01000000
00010000
00001000
00000010
00000001
00001000
,  // measure 55
00000010
00000000
00000100
00000000
00000001
00000000
00001000
00000000
00000100
00000000
00010000
00001000
00010000
00000000
00001000
00000000
,  // measure 56
01000000
00100000
10000000
00100000
01000000
00001000
00010000
00000100
,  // measure 57
00001000
00000000
00000010
00000000
00010000
00000000
00001000
00000000
00100000
00000000
00010000
01000000
00010000
00000000
00000000
00000000
,  // measure 58
01000000
00100000
10000000
01000000
00010000
00001000
00000100
00000001
,  // measure 59
00001000
00000010
00000100
00000001
00001000
00000100
00001000
00000010
,  // measure 60
00000100
00000000
00000001
00000100
00000000
00000000
00000010
00000000
00001000
00000000
00000100
00000000
00010000
00000000
00000000
00000000
,  // measure 61
00001000
00010000
00001000
00000000
00010000
00001000
00010000
00000000
,  // measure 62
00001000
00000000
01000000
00100000
00000000
00000000
10000000
00000000
01000000
00000000
10000000
00000000
00100000
00000000
00000000
00000000
,  // measure 63
01000000
00010000
01000000
00000000
00100000
10000000
00100000
00000000
,  // measure 64
01000000
00000000
00001000
00010000
00000000
00000000
00000100
00000000
00001000
00000000
00000010
00000000
00000100
00000000
00000000
00000000
,  // measure 65
00000001
00000100
00000010
00000000
00001000
00000100
00000010
00000000
,  // measure 66
00000100
00000000
00010000
00001000
00000000
00000000
01000000
00000000
00010000
00000000
00100000
00000000
01000000
00000000
00000000
00000000
,  // measure 67
10000000
00010000
01000000
00100000
10000000
00010000
01000000
00001000
,  // measure 68
00010000
00001000
00010000
00000000
00000100
00000000
00001000
00000010
00000100
00000000
00000001
00000000
00001000
00000000
00000100
00001000
,  // measure 69
00000010
00000000
00000100
00000000
00000001
00000000
00001000
00000100
00001000
00000000
00000010
00000000
00010000
00000000
00000000
00000000
,  // measure 70
00001000
01000000
00100000
01000000
00010000
10000000
01000000
00100000
,  // measure 71
00010000
01000000
00100000
01000000
00001000
00010000
00001000
00010000
,  // measure 72
00000100
00001000
00000010
00000100
00000001
00001000
00000100
00000010
,  // measure 73
00000100
00010000
00001000
01000000
00100000
10000000
00010000
00000000
,  // measure 74
01000000
00100000
01000000
00001000
00010000
00000100
00001000
00000010
,  // measure 75
00000100
00000001
00000010
00001000
00010000
01000000
10000000
01000000
,  // measure 76
00020000
00000000
00000000
00000000
,  // measure 77
00030000
00000000
00000000
00000000
;

//---------------dance-double - ----------------
#NOTES:
     dance-double:
     :
     Easy:
     4:
     0.262,0.288,0.107,0.100,0.000:
00000000
00000000
00000000
00000000
,
00000000
00000000
00000000
00000000
,
00000000
00000000
00000000
00000000
,
00000000
00000000
00000000
00000000
,
10000000
00010000
01000000
00000000
,
01000000
00001000
00010000
00000000
,
00010000
00000100
00001000
00000000
,
00001001
00000000
00000000
00000000
,
00001000
00001000
00000001
00000001
,
00001000
00000100
00001000
00000000
,
00000010
00000010
00010000
00010000
,
00001000
00010000
00001000
00000000
,
01000000
00100000
10000000
00000000
,
01000000
00100000
00010000
00000000
,
10000000
00010000
01000000
00001000
,
00010000
00001000
00011000
00000000
,
00000200
00000000
00002300
00000000
,
00003001
00000001
00000001
00000000
,
00000020
00000000
00000230
00000000
,
00010300
00010000
00010000
00000000
,
00001000
01000000
00010000
00000000
,
10000000
01000000
10000000
00000000
,
00100000
01000000
00010000
01000000
,
00010000
10000000
01000000
00000000
,
00200000
00000000
00000000
00300000
,
00010000
00010000
00000000
00001000
,
00000000
00010000
00000000
00001000
,
00000100
00000100
00000000
00000001
,
00000000
00001000
00000001
00001000
,
00000010
00000010
00000000
00000100
,
00000000
00010000
00000000
00001000
,
00010000
00010000
00000000
01000000
,
00000000
10000000
00010000
00000000
,
10010000
00000000
00000000
00000000
,
00011000
00000000
00000000
00000000
,
00001001
00000000
00000001
00000000
,
00001000
00000000
00010000
00000000
,
10000000
00010000
01000000
00010000
,
01000000
00001000
00010000
00001000
,
00010000
00000100
00001000
00000001
,
00000100
00000010
00001000
00000001
,
00002002
00000000
00000000
00003003
,
00000100
00010000
00001000
00010000
,
00001000
01000000
00100000
10000000
,
00010000
01000000
00100000
00000000
,
10000000
00010000
01000000
00001000
,
00010000
00001000
00010000
00000000
,
00000100
00000010
00000001
00001000
,
00000001
00000100
00000010
00000000
,
00001000
00000100
00010000
00001000
,
00100000
00010000
01000000
00000000
,
10010000
00000000
01000000
00001000
,
00010000
00000000
00000100
00000000
,
00001001
00000000
00000010
00010000
,
00001000
00000000
00100000
00000000
,
00010000
00010000
10000000
10000000
,
00100000
01000000
00010000
00000000
,
01000000
01000000
00001000
00001000
,
00010000
00001000
00011000
00000000
,
00000200
00000000
00002300
00000000
,
00003010
00000010
00000010
00000000
,
00000200
00000000
00000302
00000000
,
00001003
00001000
00001000
00000000
,
00000100
00000100
00010000
00010000
,
00002000
00000000
02003000
00000000
,
03100000
00100000
10000000
10000000
,
00010000
01000000
00010000
01000000
,
01010000
00000000
00011000
00000000
,
00001100
00000000
00001001
00000000
,
00000010
00001000
00000100
00000010
,
00000001
00001000
00000001
00000000
,
00000100
00010000
00001000
00100000
,
00010000
01000000
00010000
00000000
,
00100000
00001000
00010000
00000100
,
00001000
00000100
00010000
00001000
,
00011000
00000000
00000000
00000000
;

//---------------dance-double - ----------------
#NOTES:
     dance-double:
     :
     Medium:
     8:
     0.440,0.496,0.131,0.084,0.000:
00000000
00000000
00000000
00000000
,
00000000
00000000
00000000
00000000
,
00000000
00000000
00000000
00000000
,
00000000
00000000
00000000
00000000
,
10000000
01000000
10000000
00000000
00010000
00000000
00000000
01000000
,
00001000
00000000
00010000
00000000
00001000
00000000
00000000
00010000
,
00000100
00001000
00000001
00000100
,
00002002
00000000
00000000
00003003
,
00000100
00000010
00001000
00000000
00000001
00000000
00000100
00000000
,
00000001
00001000
00000100
00010000
,
00001000
00010000
00001000
00000000
01000000
00000000
00100000
00000000
,
10000000
00010000
01000000
00100000
,
10000000
01000000
10000000
00000000
00010000
00000000
01000000
00000000
,
00001000
00010000
00000100
00001000
,
00000001
00000010
00000001
00000000
00000100
00000000
00000010
00000000
,
00001000
00000100
00001001
00000000
,
00000010
00001000
00000100
00000000
00010000
00000000
00001000
01000000
,
00100000
00000000
10000000
00000000
00020000
00000000
00000000
00030000
,
01000000
00100000
10000000
00000000
01000000
00000000
00100000
00001000
,
00010000
00000000
00000100
00000000
00002000
00000000
00000000
00003000
,
00000001
00000100
00000010
00000000
00001000
00000000
00000100
00000000
,
00001000
00000001
00000010
00000000
00000100
00000000
00010000
00000000
,
00001000
01000000
00100000
00000000
10000000
00010000
01000000
00000000
,
00100000
10000000
01000000
00000000
10010000
00000000
00110000
00000000
,
00022000
00000000
00000000
00033000
,
00010000
00000100
00001000
00000010
,
00000100
00000000
00000001
00000000
00001000
00000001
00001000
00000001
,
00001000
00000010
00000100
00000001
,
00001000
00000000
00000100
00000000
00010000
00001000
00010000
00000000
,
00001000
00100000
01000000
10000000
,
00100000
00000000
01000000
00000000
00010000
01000000
00010000
01000000
,
00100000
10000000
01000000
00100000
,
00001000
00010000
00011000
00011000
,
00020000
00000000
00030100
00000000
00001000
00000010
00001000
00000000
,
00000002
00000000
00000103
00000000
00000010
00010000
00001000
00000000
,
00010000
00001000
01000000
00000000
00010000
10000000
00010000
00000000
,
10000000
00100000
10000000
00000000
00100000
01000000
00100000
00000000
,
01000000
00010000
01000000
00010000
10000000
01000000
10000000
01000000
,
00100000
00001000
00100000
00001000
00010000
00000100
00010000
00000100
,
00000010
00000001
00001000
00000100
00000010
00000001
00000100
00000010
,
00001000
00000001
00001000
00000100
00000010
00000001
00000100
00000010
,
00000200
00000000
00000000
00000300
,
00000001
00001000
00000100
00010000
00001000
01000000
00100000
10000000
,
00010000
01000000
00100000
00000000
10000000
00000000
01000000
00000000
,
00010000
01000000
00001000
00000000
00010000
00001000
00010000
00001000
,
00010000
00000100
00001000
00000000
00000010
00000000
00000100
00000000
,
00000001
00000100
00000001
00000000
00000010
00000100
00001000
00000100
,
00001000
00000000
00000010
00000000
00000100
00000001
00000100
00000000
,
00001000
00000100
00010000
00001000
00010000
00001000
00100000
00010000
,
01000000
00000000
10000000
00000000
00010000
01000000
00010000
00000000
,
00100000
00000000
01000000
00000000
10000000
00100000
10000000
00000000
,
00010000
01000000
00100000
00000000
10000000
01000000
00100000
00000000
,
00010000
01000000
00001000
00010000
00000100
00001000
00000010
00000000
,
00000100
00000001
00001000
00000000
00000010
00001000
00000100
00000000
,
00010000
00001000
01000000
00100000
10000000
00010000
00100000
01000000
,
10000000
00010000
10000000
00000000
00100000
01000000
00010000
00000000
,
00100000
00001000
00010000
00000100
00001000
00000010
00000100
00000001
,
00001000
00000001
00001000
00000000
00000010
00000100
00000001
00000000
,
00001001
00001100
00011000
01010000
,
00100000
10000000
01000000
10000000
,
00010000
01000000
00100000
01000000
,
00001000
00010000
00000100
00001000
,
00000010
00010000
00001000
00010000
,
00001000
01000000
00010000
00000000
00100000
00000000
01000000
00000000
,
10000000
00010000
01000000
00000000
00100000
00000000
10000000
00000000
,
00010000
01000000
00001000
00010000
,
00011000
00001100
00011000
01010000
,
00001000
00010000
00001000
00010000
00001000
00000000
00011000
00000000
,
00001000
01000000
00100000
00000000
10000000
00010000
01000000
00000000
,
00100000
10000000
01000000
00100000
00010000
10000000
01000000
00000000
,
00100000
00001000
00010000
00000000
00001000
00010000
00000100
00000000
,
00001000
00000010
00000100
00000001
00001000
00000100
00001000
00000000
,
00000100
00010000
00001000
00000000
00010000
00001000
01000000
00000000
,
00100000
10000000
01000000
00100000
00010000
10000000
00010000
00000000
,
01000000
00001000
00010000
00000000
00001000
00010000
00001000
00000000
,
00022000
00000000
00000000
00000000
,
00033000
00000000
00000000
00000000
;
