#TITLE:Fire Fire;
#SUBTITLE:[SPECIAL];
#ARTIST:StripE;
#TITLETRANSLIT:;
#SUBTITLETRANSLIT:;
#ARTISTTRANSLIT:;
#GENRE:;
#CREDIT:Spork!;
#MENUCOLOR:;
#METERTYPE:DDR;
#BANNER:FireFirespecial-bn.png;
#BACKGROUND:FireFirespecial-bg.png;
#LYRICSPATH:;
#CDTITLE:currentcdtitle.png;
#MUSIC:Fire Fire.mp3;
#OFFSET:-2.045;
#SAMPLESTART:83.660;
#SAMPLELENGTH:11.940;
#SELECTABLE:YES;
#LISTSORT:;
#BPMS:0.000=150.000;
#STOPS:;
#BGCHANGES:;
#ATTACKS:;

//---------------dance-double - ----------------
#NOTES:
     dance-double:
     :
     Challenge:
     10:
     0.785,0.846,0.238,0.092,0.714:
00000000
00000000
00000000
00000000
,
00000000
00000000
00000000
00000000
,
00000000
00000000
00000000
00000000
,
00000000
00000000
00000000
00000000
,
00000010
00000000
00000100
00000000
00000001
00001000
00000000
00000010
00000000
00010000
00000000
01000000
00100000
00000000
00010000
00000000
,
01000000
00000000
00100000
00000000
10000000
00010000
00000000
01000000
00000000
00001000
00000000
00000100
00000010
00000000
00001000
00000000
,
00000100
00001000
00000010
00000000
00010000
00001000
00100000
00000000
01000000
10000000
00010000
01000000
00001000
00000000
00100000
00010000
,
02000000
00000000
00000000
03000000
,
00001000
00000000
00010000
00000010
00000000
00000010
00001000
00000000
00000100
00000000
00010000
00000000
00001000
00000000
01000000
00100000
,
00010000
00100000
10000000
00010000
00000000
01001000
01000000
00010000
,
00100000
00000000
00001000
01000000
00000000
01000000
00010000
00000000
00100000
00000000
00001000
00000000
00000100
00000000
00000010
00001000
,
00000100
00000000
00010000
00000000
00001000
00000000
00100000
00010000
01000000
00000000
00001000
00010000
00000100
00000000
00000010
00000000
,
00000100
00000000
00001000
00000010
00000000
00000010
00000100
00000000
00000001
00000000
00000010
00000000
00000100
00000000
00001000
00000000
,
00010100
00001000
00000010
00000100
00001010
00000000
00010010
00000000
,
00010000
00000000
00001000
01000000
00000000
01000000
00100000
00000000
10000000
00000000
00010000
00000000
00100000
00000000
01000000
00000000
,
20020000
00000000
00000000
30030000
,
10100000
00000000
00000000
01001000
00000000
00000000
00011000
00000000
00010000
00000000
00000100
00000000
00001000
00000000
00000010
00000100
,
00000001
00000000
00000000
00001000
00000000
00000000
00000001
00000000
00000000
00000000
00000010
00000000
00000001
00000000
00001000
00000000
,
00001100
00000000
00000000
00010100
00000000
00000000
00110000
00000000
00001000
00000000
01000000
00000000
00000000
00000000
00100000
10000000
,
00010000
00000000
00100000
00000000
01000000
00000000
00100000
00001000
00010000
00000000
00001000
00000100
00000010
00000000
00001000
00000000
,
00010100
00000000
00000000
00001000
00000000
00000000
00000010
00000000
00000100
00000000
00000001
00000000
00000010
00000000
00001000
00000000
,
00011000
00000000
00000000
01000000
00000000
00000000
00001000
01000000
00010000
00000000
00100000
01000000
10000000
00000000
00100000
00000000
,
01010000
00100000
10000000
00010000
00101000
00001000
00010000
00000100
,
00001010
00000101
00010010
00001100
,
00022000
00000000
00000000
00033000
,
00010000
00000100
00010000
00000100
00001000
00000000
00000010
00010000
00001000
00000000
01000000
00000000
00100000
00000000
10000000
00010000
,
01000000
00100000
10000000
00000000
00010000
00000000
00100000
00001000
00010000
00000000
00000010
00000100
00000001
00000000
00000010
00000000
,
00000100
00001000
00000100
00001000
00000010
00000000
00000100
00000001
00001000
00000000
00000010
00000000
00010000
00000000
00001000
00100000
,
00010000
01000000
00001000
00100000
01000000
00000000
00100000
00001000
00010000
00000100
00001000
00000010
00000100
00000000
00000010
00000000
,
00001000
00000001
00001000
00000001
00000100
00000000
00000010
00010000
00001000
00000000
00000100
00000000
00000010
00000000
00001000
00000100
,
00010000
00001000
01000000
00000000
00010000
00000000
00100000
00001000
01000000
00000000
00100000
10000000
00010000
00000000
00100000
00000000
,
00001000
00010000
00001000
00010000
01000000
00000000
00100000
00010000
10000000
00000000
00100000
00000000
01000000
00000000
00010000
00100000
,
00001000
00010000
01000000
00100000
00010000
00000000
10000000
00100000
01000000
00001000
00100000
00010000
01000000
00000000
00001000
00000000
,
00010000
00000100
00010000
00000100
00001000
00000000
00000010
00000100
00000001
00000000
00001000
00000000
00000002
00000000
00001000
00000000
,
00001003
00000010
00001000
00000010
00000100
00000000
00000001
00001000
00000010
00000000
00010000
00000000
00002000
00000000
00100000
00000000
,
00103000
00001000
00100000
00001000
01000000
00000000
00100000
10000000
00010000
00100000
00010000
00100000
00001000
00000000
00010000
00000010
,
00000100
00000001
00000100
00000001
00001000
00000000
00000010
00010000
00000100
00001000
00000100
00001000
00000010
00000000
00010000
00000000
,
00001000
00100000
00010000
01000000
00100000
00000000
10000000
00000000
00010000
00100000
00001000
00010000
00000100
00000000
00001000
00000000
,
00000010
00000100
00000001
00001000
00000010
00000000
00000100
00000000
00000010
00010000
00001000
01000000
00100000
00000000
10000000
00000000
,
00010000
00100000
00001000
00100000
00010000
01000000
00100000
10000000
00010000
00100000
00001000
00010000
00000100
00001000
00000010
00010000
,
00000100
00001000
00000001
00000000
00000100
00000010
00001000
00000000
00000010
00010000
00001000
00000000
00010000
00000010
00000100
00000001
,
00002000
00000000
00000000
00003000
,
00000001
00001000
00000010
00000000
00010000
00000000
00000100
00001000
00000010
00000000
00010000
00000000
00001000
00000000
01000000
00000000
,
00100000
10000000
00100000
00000000
01000000
00000000
00010000
00100000
00001000
00000000
00010000
00000000
01000000
00000000
00100000
00000000
,
00010000
10000000
00100000
00000000
01000000
00000000
00010000
00100000
00001000
00000000
00010000
00000000
00000010
00000000
00000100
00000000
,
00000010
00010000
00001000
00000000
00000010
00000000
00000001
00000100
00000010
00000000
00001000
00000000
00000100
00000000
00000010
00000001
,
00000010
00000100
00001000
00000010
00010000
00000000
00000100
00001000
00000001
00000000
00000100
00000000
00000010
00000000
00001000
00000000
,
00000100
00010000
00001000
00000000
01000000
00000000
00100000
00010000
00001000
00000000
00010000
00000000
00100000
00000000
10000000
00000000
,
01000000
00100000
00010000
00000000
10000000
00000000
00100000
01000000
00001000
00000000
00100000
00000000
01000000
00000000
10000000
00000000
,
00010000
01000000
00100000
10000000
00010000
00000000
01000000
00001000
00010000
00000000
00000010
00000000
00000100
00000000
00000001
00000000
,
00001010
00000000
00000000
00010100
00000000
00000000
00101000
00000000
00000000
01010000
00000000
00000000
00100000
00000000
10000000
00000000
,
00010000
00100000
00001000
00010000
00000100
00000000
00010000
00001000
01000000
00000000
00100000
00000000
10000000
00000000
00010000
00100000
,
01000000
00000000
00100000
00000000
00010000
00000000
01000000
00001000
00010000
00000000
00000100
00000000
00001000
00000000
00000010
00000000
,
00000100
00000001
00000010
00000100
00001000
00000000
00000010
00010000
00001000
00000000
01000000
00000000
00100000
00000000
00010000
00000000
,
00100000
01000000
00001000
00010000
00000100
00000000
00000010
00000100
00001000
00000000
00000010
00000000
00000100
00000000
00000001
00000000
,
00000010
00000100
00001000
00000010
00010000
00000000
00000100
00001000
00000001
00000000
00000100
00000000
00000010
00000000
00000100
00000001
,
00001000
00000000
00000010
00000000
00010000
00000000
00000100
00000000
00001000
00000000
00000010
00010000
00000100
00000000
00001000
00000000
,
00010000
01000000
00100000
00010000
10000000
00000000
00100000
01000000
00010000
00000000
00100000
00000000
01000000
00000000
10000000
00000000
,
00100000
01000000
00000000
00001000
00000000
00100000
00010000
00000000
10000000
00000000
00100000
01000000
00000000
00001000
00010000
00000000
,
01000000
00000000
00100000
00010000
00000000
00010000
10000000
00000000
00100000
00000000
01000000
00000000
00001000
00000000
00010000
00000100
,
00001000
00000010
00000000
00000100
00000010
00001000
00000001
00000010
,
00000001
00000000
00001000
00000010
00000000
00000010
00010000
00000000
00000100
00000000
00001000
00000000
00000010
00000000
00000100
00000001
,
00000010
00000000
00000100
00000000
00001000
00000000
00000010
00010000
00001000
00000000
00100000
00001000
00010000
00000000
00000100
00000000
,
00001000
00000000
00000010
00000100
00000000
00000100
00000001
00000000
00001000
00000000
00000010
00000000
00010000
00000000
00001000
00000000
,
00110000
00001000
01000000
00010000
01100000
00000000
11000000
00000000
,
00100000
00000000
01000000
00010000
00000000
00010000
00100000
00000000
00001000
00000000
00100000
00000000
01000000
00000000
10000000
00000000
,
20200000
00000000
00000000
30300000
,
00100000
01000000
00010000
01000000
00100000
00000000
10000000
00010000
00100000
00000000
00001000
00000000
00010000
00000000
01000000
00100000
,
00010000
01000000
00001000
00000000
00010000
00000000
00000100
00001000
00000010
00000000
00000100
00000000
00000001
00000000
00000010
00000000
,
00000100
00000010
00000001
00000010
00000100
00000000
00001000
00000010
00010000
00000000
00000100
00000000
00001000
00000000
00000001
00000100
,
00000010
00001000
00000100
00000000
00010000
00000000
00000010
00000100
00000001
00000000
00001000
00000000
00000100
00000000
00010000
00000000
,
00001000
01000000
00010000
01000000
00001000
00000000
00100000
01000000
10000000
00000000
00100000
00000000
01000000
00000000
00010000
00100000
,
00001000
00010000
01000000
00000000
00100000
00000000
00010000
01000000
00001000
00000000
00010000
00000000
00000100
00000000
00001000
00000000
,
00000010
00000100
00000001
00001000
00000010
00000000
00000100
00000010
00001000
00000000
00000001
00000000
00000010
00000000
00000100
00000000
,
00000011
00000000
00000000
00010100
00000000
00000000
00001000
00000000
00000000
00010000
00000000
00000000
00100000
00000000
10000000
00000000
,
20020000
00000000
00000000
00000000
,
30030000
00000000
00000000
00000000
;

//---------------dance-single - ----------------
#NOTES:
     dance-single:
     :
     Challenge:
     10:
     0.803,0.846,0.346,0.092,0.729: // measure 1
0000
0000
0000
0000
,  // measure 2
0000
0000
0000
0000
,  // measure 3
0000
0000
0000
0000
,  // measure 4
0000
0000
0000
0000
,  // measure 5
1000
0000
0100
0000
0010
0100
1000
0010
0000
0100
0000
0001
1000
0000
0010
0000
,  // measure 6
0100
0000
0001
0000
0010
0100
1000
0010
0000
0100
0000
0001
1000
0000
0010
0000
,  // measure 7
1000
0100
1000
0000
0001
0010
0001
0000
0100
0010
1000
0001
0010
0000
0100
1000
,  // measure 8
0020
0000
0000
0030
,  // measure 9
1000
0000
0010
0001
0000
0010
1000
0000
0001
0000
0010
0000
0100
0000
0010
0001
,  // measure 10
1000
0010
0000
1000
0001
1000
0110
0001
,  // measure 11
1000
0000
0100
0001
0000
0100
1000
0000
0010
0000
0100
0000
0001
0000
0010
0100
,  // measure 12
1000
0000
0010
0000
0100
0000
0010
1000
0001
0000
0010
0100
1000
0000
0010
0000
,  // measure 13
0100
0000
0001
0010
0000
1000
0010
0000
0001
0000
1000
0000
0010
0000
0100
0000
,  // measure 14
1010
0100
1000
0010
1001
0000
0101
0000
,  // measure 15
1000
0000
0001
0100
0000
1000
0100
0000
0010
0000
1000
0000
0001
0000
0010
0000
,  // measure 16
2200
0000
0000
3300
,  // measure 17
1100
0000
0000
0011
0000
0000
1100
0000
1000
0000
0010
0000
0100
0000
0001
0010
,  // measure 18
0100
0000
1000
0000
0000
0000
0001
0000
0000
0100
0000
0000
1010
0000
0100
0000
,  // measure 19
0101
0000
0000
0011
0000
0000
1100
0000
1000
0000
0010
0000
0100
0000
0001
1000
,  // measure 20
0010
0000
0100
0000
0001
0000
0010
0100
1000
0000
0010
1000
0001
0000
0010
0000
,  // measure 21
0011
0000
0000
0110
0000
0000
0011
0000
1000
0000
0010
0000
0100
0000
0001
0000
,  // measure 22
0101
0000
0000
1010
0000
0000
0100
0001
0010
0000
0100
0010
0001
0000
1000
0000
,  // measure 23
1010
0100
0001
0010
1100
0000
0010
0001
,  // measure 24
1001
1010
0101
0110
,  // measure 25
2002
0000
0000
3003
,  // measure 26
1000
0010
0100
0001
0010
0000
0001
1000
0010
0000
0100
0000
0001
0000
0010
0001
,  // measure 27
1000
0010
0100
0000
0010
0000
1000
0001
0010
0000
0100
1000
0001
0000
1000
0000
,  // measure 28
0001
0100
0010
1000
0100
0000
1000
0001
0100
0000
0001
0000
0010
0000
0001
0100
,  // measure 29
0010
1000
0001
0000
0100
0000
0001
0010
0100
0000
1000
0001
0100
0000
0010
0000
,  // measure 30
0100
0001
1000
0100
0010
0000
0100
1000
0001
0000
0100
0000
0010
0000
0100
0001
,  // measure 31
1000
0010
1000
0000
0100
0000
0010
0001
0100
0000
0010
1000
0100
0000
1000
0000
,  // measure 32
0010
0100
0001
0010
0100
0000
0010
0001
1000
0000
0010
0000
0100
0000
0010
1000
,  // measure 33
0001
1000
0010
0000
0100
0000
0010
1000
0001
0000
0010
0000
0100
0000
1000
0000
,  // measure 34
0010
0100
0001
0100
0010
0000
1000
0100
0010
0000
0001
0000
2000
0000
0010
0000
,  // measure 35
3010
0100
0001
1000
0100
0000
0010
0100
1000
0000
0010
0000
0200
0000
0001
0000
,  // measure 36
0301
0010
0100
1000
0010
0000
0100
0010
1000
0100
0010
0001
1000
0000
0010
0100
,  // measure 37
0001
1000
0100
0010
0001
0000
1000
0010
0100
0001
0010
0100
1000
0000
0010
0000
,  // measure 38
0100
0001
0010
1000
0010
0000
0100
0000
1000
0010
0001
0010
1000
0000
0100
0000
,  // measure 39
0010
1000
0010
0100
1000
0000
0010
0000
0100
1000
0100
0010
1000
0000
0001
0000
,  // measure 40
0010
0001
1000
0010
1000
0100
0010
0001
0100
1000
0100
0010
1000
0100
0001
0100
,  // measure 41
0010
0001
1000
0000
0010
0100
0001
0000
0010
0100
0010
0000
0001
1000
0010
0100
,  // measure 42
0002
0000
0000
0003
,  // measure 43
1000
0100
0001
0000
0100
0000
1000
0010
0001
0000
0010
0000
0100
0000
0001
0000
,  // measure 44
0010
0100
1000
0010
0100
0000
0010
1000
0001
0000
0010
0000
0100
0000
0010
0001
,  // measure 45
1000
0010
0100
0000
0010
0000
1000
0001
0010
0000
0100
0000
0010
0000
0001
0000
,  // measure 46
1000
0010
0100
0001
0010
0000
0001
1000
0010
0000
1000
0000
0100
0000
1000
0010
,  // measure 47
0100
0001
0010
0100
1000
0000
0010
0100
0001
0000
0010
0000
0100
0000
1000
0000
,  // measure 48
0010
1000
0001
0010
0001
0000
0100
0010
1000
0000
0100
0000
1000
0000
0010
0100
,  // measure 49
0001
0000
0010
0000
0001
0000
1000
0010
0100
0001
1000
0000
0100
0000
1000
0000
,  // measure 50
0010
0100
0001
0010
0001
0000
1000
0100
1000
0000
0010
0000
0100
0000
0001
0000
,  // measure 51
0011
0000
0000
0110
0000
0000
1100
0000
0000
1000
0010
0000
0110
0000
0100
0000
,  // measure 52
0001
0010
0100
1000
0010
0000
0100
0001
1000
0010
0100
0000
0010
0000
1000
0001
,  // measure 53
0010
0100
1000
0000
0010
0000
1000
0100
1000
0000
0010
0000
0100
0000
0001
0000
,  // measure 54
0010
0001
1000
0010
0100
0000
0010
1000
0100
0000
1000
0000
0010
0000
0100
0001
,  // measure 55
0010
0100
1000
0010
0100
0000
0010
1000
0001
0000
0010
0000
0100
0000
1000
0000
,  // measure 56
0001
0010
0100
0010
0001
0000
1000
0010
0100
0001
1000
0000
0010
0000
1000
0100
,  // measure 57
0010
0000
0001
0000
1000
0000
0010
0100
0001
0000
0010
0000
0100
0000
1000
0000
,  // measure 58
0010
0100
0001
0100
0010
0000
1000
0001
1000
0000
0010
0000
0100
0000
0001
0000
,  // measure 59
1010
0000
0000
0101
0000
1010
0000
0000
0001
0000
0000
1100
0000
0011
0000
0000
,  // measure 60
0100
0000
1000
0010
0000
0001
0010
0000
1000
0000
0100
0000
1000
0000
0010
0100
,  // measure 61
0001
0000
0010
0000
0000
0000
0100
0000
0000
0010
0000
0000
1100
0000
0001
0000
,  // measure 62
0100
0000
0010
0001
0000
0010
1000
0000
0001
0000
0010
0000
0100
0000
1000
0010
,  // measure 63
0100
0000
0001
0000
0010
0000
0100
0010
0001
0000
1000
0010
0001
0000
0010
0000
,  // measure 64
0100
0000
0001
0010
0000
1000
0010
0000
0100
0000
1000
0000
0010
0000
0100
0000
,  // measure 65
1001
0010
0100
0001
0011
0000
1100
0000
,  // measure 66
0010
0000
0001
1000
0000
0100
0010
0000
0100
0000
1000
0000
0010
0000
0100
0000
,  // measure 67
2002
0000
0000
3003
,  // measure 68
1000
0100
0010
0001
1000
0000
0010
1000
0001
0000
0010
0000
0100
0000
0010
0001
,  // measure 69
1000
0010
0100
0000
0001
0000
1000
0010
0100
0000
0010
0000
1000
0000
0001
0000
,  // measure 70
0010
0100
1000
0010
0100
0000
0001
1000
0100
0000
0010
0000
0001
0000
1000
0010
,  // measure 71
1000
0001
0010
0000
0100
0000
0010
0001
1000
0000
0010
0000
0100
0000
1001
0000
,  // measure 72
0010
0100
0001
0010
0100
0000
0010
0001
1000
0000
0010
0000
0100
0000
0010
1000
,  // measure 73
0001
0010
0100
0000
0010
0000
0001
1000
0010
0000
0100
0000
0010
0000
1000
0000
,  // measure 74
0001
0010
0001
0100
1000
0000
0100
0010
1000
0000
0001
0000
0010
0000
0100
0000
,  // measure 75
1100
0000
0000
0011
0000
0000
1100
0000
0000
1010
0000
0000
0101
0000
0010
0000
,  // measure 76
2002
0000
0000
0000
,  // measure 77
3003
0000
0000
0000
;
