#TITLE:Euro Dancer;
#SUBTITLE:(One Night In Paris Remix);
#ARTIST:Rob Hilton;
#TITLETRANSLIT:;
#SUBTITLETRANSLIT:;
#ARTISTTRANSLIT:;
#GENRE:;
#CREDIT:;
#MENUCOLOR:;
#METERTYPE:DDR;
#BANNER:Euro.png;
#BACKGROUND:Eurobn.png;
#LYRICSPATH:Euro Dancer (One Night In Paris Remix).lrc;
#CDTITLE:ddrencorecdtitle.png;
#MUSIC:Euro Dancer (One Night In Paris Remix).mp3;
#OFFSET:-1.816;
#SAMPLESTART:46.202;
#SAMPLELENGTH:17.697;
#SELECTABLE:YES;
#LISTSORT:;
#BPMS:0.000=135.002;
#STOPS:;
#BGCHANGES:;
#ATTACKS:;

//---------------dance-single - Spork!----------------
#NOTES:
     dance-single:
     Spork!:
     Beginner:
     1:
     0.127,0.160,0.019,0.000,0.000:
0000
0000
0000
0000
,
0000
0000
0000
0000
,
0000
0000
0000
0000
,
0000
0000
0000
0000
,
1000
0000
0000
0000
,
0001
0000
0000
0000
,
0100
0000
0000
0000
,
1001
0000
0000
0000
,
1000
0000
0100
0000
,
0010
0000
0010
0000
,
0001
0000
1000
0000
,
0010
0000
0100
0000
,
0001
0000
0010
0000
,
0100
0000
0100
0000
,
1000
0000
0100
0000
,
0010
0000
0001
0000
,
0000
0000
0000
0000
,
1000
0000
0010
0000
,
0000
0000
0000
0000
,
1000
0000
0001
0000
,
1000
0000
0100
0000
,
1001
0000
0100
0000
,
0000
0000
0000
0000
,
0001
0000
0010
0000
,
0100
0000
0000
0000
,
0100
0000
1000
0000
,
0010
0000
0010
0000
,
0100
0000
0001
0000
,
1000
0000
0001
0000
,
0010
0000
0001
0000
,
0100
0000
0100
0000
,
0010
0000
1000
0000
,
0001
0000
0100
0000
,
0010
0000
0000
0000
,
0010
0000
0000
0000
,
0100
0000
0000
0000
,
0100
0000
0000
0000
,
0001
0000
1000
0000
,
0100
0000
0000
0000
,
1000
0000
0001
0000
,
0010
0000
0000
0000
,
0001
0001
0001
0000
,
1000
0000
0010
0000
,
1000
1000
1000
0000
,
0001
0000
0100
0000
,
0010
0010
0010
0000
,
0100
0000
0001
0000
,
0100
0100
0100
0000
,
0010
0000
1000
0000
,
0000
0000
0000
0000
,
0001
0000
0010
0000
,
0001
0000
1000
0000
,
1000
0000
0100
0000
,
1000
1000
1000
0000
,
0001
0000
0100
0000
,
0001
0000
1000
0000
,
0001
0000
0100
0000
,
0001
0000
0010
0000
;

//---------------dance-single - Spork!----------------
#NOTES:
     dance-single:
     Spork!:
     Easy:
     3:
     0.226,0.241,0.065,0.074,0.000:
0000
0000
0000
0000
,
0000
0000
0000
0000
,
0000
0000
0000
0000
,
0000
0000
0000
0000
,
1000
0001
0000
0100
,
0000
0010
0000
0010
,
0100
0001
0000
0002
,
2000
0000
0000
3003
,
1000
0000
0010
0000
,
1000
0000
0001
0000
,
0100
0000
0001
0000
,
0010
0100
1000
0010
,
0100
0000
0001
0000
,
0100
0000
0010
0000
,
0001
0100
0010
0100
,
0001
1000
0100
0100
,
0000
0000
0000
0000
,
1000
0000
0001
0000
,
0200
0000
0320
0000
,
1030
0000
0001
0000
,
0001
0000
1000
0000
,
1001
0001
0000
0010
,
0000
0001
0000
1000
,
0010
0100
0000
0001
,
2002
0000
0000
3003
,
0001
0100
0010
1000
,
0001
0010
0100
1000
,
0001
0010
0100
0010
,
0001
1000
0001
1000
,
0010
0100
0001
1000
,
0100
0010
0001
1000
,
0001
0001
1000
1000
,
0001
0100
0010
1000
,
0002
0100
0103
0000
,
0001
1000
0100
0000
,
2000
0010
3010
0000
,
1000
0001
1001
0000
,
0001
0010
0100
0000
,
0010
0001
1000
0000
,
0010
0100
0001
0000
,
1000
0010
1001
0000
,
0001
0100
0010
1000
,
0100
0010
0010
0000
,
0001
0100
0010
1000
,
0001
0100
0100
0000
,
0010
1000
0100
0000
,
0010
0001
0100
0000
,
0001
0010
0100
1000
,
0001
0000
0100
0000
,
1001
0000
0000
0000
,
0100
0000
0010
1000
,
0001
0000
1100
1000
,
0001
0000
0010
0001
,
0100
0100
0010
0010
,
1000
0000
0001
1000
,
0010
0000
0101
0001
,
0010
0000
0001
0000
,
1000
0001
0100
0100
;

//---------------dance-single - Spork!----------------
#NOTES:
     dance-single:
     Spork!:
     Hard:
     7:
     0.374,0.460,0.231,0.083,0.019:
0000
0000
0000
0000
,
0000
0000
0000
0000
,
0000
0000
0000
0000
,
0000
0000
0000
0000
,
0100
1001
0000
0101
,
0010
1100
0000
1010
,
0100
1001
0000
0110
,
0200
0000
0000
0300
,
0010
0001
0100
0000
0100
0001
0010
0000
,
0100
0000
1000
0000
,
0010
1000
0100
0000
0100
1000
0010
0000
,
0100
0000
0100
0000
0010
1000
0001
0000
,
0100
0001
0010
0000
0010
0001
1000
0000
,
0010
0000
1000
0000
,
0001
0000
0001
0000
1000
0001
0100
0000
,
0100
0010
1000
0000
1000
0001
0020
0000
,
0000
0000
0030
0000
,
0001
0000
0010
0000
0100
0010
0100
0010
,
0002
0000
2003
0000
,
3001
0000
0100
0000
0010
1000
0001
0000
,
1000
0000
0100
0000
0010
0001
1000
0000
,
0010
0000
0100
0001
0000
0001
1000
0000
,
0100
0000
0010
0100
0000
0100
1000
0000
,
0001
0000
1000
0010
0000
0010
0100
0000
,
2002
0000
0000
3003
,
0001
0000
0100
0000
0001
0010
0001
0010
,
0100
0000
0010
0000
0001
0100
0010
1000
,
0001
0000
1000
0000
0100
0010
0100
0010
,
0001
1000
0010
0000
0010
1000
0001
0000
,
1000
0000
0100
0000
1000
0010
1000
0010
,
0100
0000
0010
0000
1000
0010
0100
0001
,
1000
1000
0001
0001
,
0010
0001
0100
0000
0010
1000
0100
0000
,
0010
0010
0010
0000
,
0100
0100
0100
0000
,
0010
0001
1000
0010
,
0100
0100
0110
0000
,
0001
0000
0000
0000
1000
0000
0000
0100
0000
0000
0100
0000
1000
0000
0000
0000
,
0010
0000
0000
0000
0100
0000
0000
0001
0000
0000
0001
0000
0100
0000
0000
0010
,
1000
0000
0000
0000
0001
0000
0000
0010
0000
0000
0010
0000
0001
0000
0000
0000
,
0100
0010
1001
0000
,
1100
0000
0000
0110
0000
0011
0000
1100
,
1001
0000
0000
0101
0000
0110
0000
1010
,
1001
0000
0000
0011
0000
1010
0000
0110
,
1000
0100
1001
0000
,
0010
0000
0001
0100
0010
0000
0010
1000
,
0001
0001
1000
1000
0010
0000
0000
0000
,
1000
0100
1000
0100
0010
0000
0001
0100
,
0001
0000
0001
0000
1000
0001
0200
0000
,
0000
0000
0300
0000
,
0010
0000
1000
0000
0100
0010
0100
0010
,
0001
0000
1000
0000
0010
1000
0010
0100
,
0010
0000
0100
0000
0001
0010
0001
0010
,
0100
0100
1000
0001
0100
0100
0001
1000
,
0010
0000
1001
0000
0100
0010
0100
0010
,
1000
0000
0101
0000
0010
0001
0010
0100
,
0010
0000
1100
0000
0001
0100
0010
1000
,
0001
0010
0100
0000
0100
1000
0020
0000
,
0200
0000
0330
0000
;

//---------------dance-double - Spork!----------------
#NOTES:
     dance-double:
     Spork!:
     Easy:
     2:
     0.171,0.190,0.019,0.065,0.000:
00000000
00000000
00000000
00000000
,
00000000
00000000
00000000
00000000
,
00000000
00000000
00000000
00000000
,
00000000
00000000
00000000
00000000
,
00010000
00001000
00000000
01000000
,
00000000
00001000
00000000
00010000
,
00000100
00000000
00000010
00000000
,
00002002
00000000
00000000
00003003
,
00000001
00000000
00000100
00000000
,
00000001
00000000
00000010
00000000
,
00000100
00000000
00000010
00000000
,
00000001
00000100
00000010
00000000
,
00010000
00000000
00001000
00000000
,
01000000
00000000
00100000
00000000
,
10000000
01000000
00100000
00000000
,
01000000
00100000
00010000
00000000
,
20000000
00000000
30000000
00000000
,
00010000
00000000
01000000
00000000
,
00001000
00000000
00000000
00000000
,
00010000
00000000
00000100
00000000
,
00001000
00000000
00000000
00000000
,
00000001
00000100
00000000
00000010
,
00000000
00010000
00000000
00001000
,
01000000
00010000
00000000
01000000
,
00002000
00000000
00003000
00000000
,
00010000
00001000
00010000
00000000
,
00000100
00000000
00000010
00000000
,
00000001
00001000
00000001
00000000
,
00000100
00000000
00000100
00000000
,
00000001
00000100
00000001
00000000
,
00001000
00000000
00000100
00000000
,
00010000
00001000
00010000
00000000
,
00001000
00010000
00001000
00000000
,
01000000
00000000
00000000
00000000
,
00100000
00000000
00000000
00000000
,
10000000
00000000
00000000
00000000
,
00010000
00010000
00010000
00000000
,
01000000
00000000
01000000
00000000
,
00001000
00000000
00001000
00000000
,
00010000
00000000
00010000
00000000
,
00000100
00000100
00000100
00000000
,
00010000
00000000
00001000
00000000
,
01000000
00000000
00010000
00000000
,
00100000
00000000
01000000
00000000
,
10000000
10000000
10000000
00000000
,
00010000
00000000
01000000
00000000
,
00001000
00000000
00010000
00000000
,
00000100
00000000
00000010
00000000
,
00000001
00000000
00001000
00000000
,
00000002
00000000
00000003
00000000
,
00000001
00000100
00000010
00000000
,
00000010
00001000
00000100
00000000
,
00000100
00010000
00001000
00000000
,
01000000
00000000
00100000
00000000
,
10000000
00010000
01000000
00000000
,
01000000
00001000
00010000
00000000
,
00010000
00000100
00001000
00000000
,
00000010
00000000
00010000
00000000
,
00022000
00000000
00033000
00000000
;

//---------------dance-double - Spork!----------------
#NOTES:
     dance-double:
     Spork!:
     Medium:
     5:
     0.280,0.298,0.065,0.056,0.000:
00000000
00000000
00000000
00000000
,
00000000
00000000
00000000
00000000
,
00000000
00000000
00000000
00000000
,
00000000
00000000
00000000
00000000
,
00000010
00000100
00000000
00000001
,
00000000
00001000
00000000
00000100
,
00001000
00000010
00000000
00000010
,
00020000
00000000
00000000
00030000
,
00001000
01000000
00001000
01000000
,
00010000
00000000
10000000
00000000
,
01000000
00100000
01000000
00100000
,
00001000
00010000
00001000
00000000
,
00010000
00000100
00010000
00000100
,
00001000
00000000
00000001
00000000
,
00000100
00000010
00000100
00000010
,
00001000
00000001
00001000
00000000
00000001
00001000
00000001
00000000
,
00000200
00000000
00000300
00000000
,
00000001
00000100
00001000
00010000
,
00100000
00000000
00000000
00000000
,
10000000
01000000
00010000
00001000
,
00000010
00001000
00010000
01000000
,
10000000
00000000
00010000
01000000
00000000
01000000
00010000
00000000
,
00100000
00000000
00001000
00010000
00000000
00010000
00001000
00000000
,
01000000
00000000
00010000
10000000
00000000
10000000
00010000
00000000
,
02000000
00000000
03000000
00000000
,
00001000
00000000
00010000
00000000
00000100
00001000
00000100
00000000
,
00010000
00000000
00001000
00000000
01000000
00010000
01000000
00000000
,
00001000
00000000
00010000
00000000
00000010
00001000
00000010
00000000
,
00010000
00000100
00000010
00000001
,
00001000
00000000
00000100
00000000
00010000
00001000
00010000
00000000
,
00000010
00000000
00001000
00000000
00000100
00000010
00000100
00000000
,
00010000
00001000
01000000
00100000
,
10000000
00010000
10000000
00010000
10000000
00000000
01000000
00000000
,
00100000
00000000
00001000
00000000
,
00010000
00000000
00000010
00000000
,
00000100
00000000
00000010
00000000
,
00010000
00001000
00011000
00000000
,
01010000
00000000
00000000
00010000
00000000
10000000
00000000
00000000
,
11000000
00000000
00000000
00010000
00000000
00100000
00000000
00000000
,
00011000
00000000
00000000
00010000
00000000
00000010
00000000
00000000
,
00001000
00000100
00000110
00000000
,
00000001
00000000
00000001
00000100
00000000
00000000
00000010
00000000
,
00010000
00000000
00010000
00001000
00000000
00000000
01000000
00000000
,
00010000
00000000
00010000
10000000
00000000
00000000
00100000
00000000
,
10000000
01000000
10010000
00000000
,
10000000
01000000
00100000
00010000
,
01000000
00001000
00010000
00000000
,
00000010
00001000
00000100
00000010
,
00000001
00001000
00000001
00000000
00001000
00000001
00001000
00000000
,
00000200
00000000
00000300
00000000
,
00010000
00000000
00001000
00000000
00100000
00010000
00100000
00000000
,
00001000
00000000
00010000
00000000
00000010
00001000
00000010
00000000
,
00010000
00000000
00001000
00000000
01000000
00010000
01000000
00000000
,
00001000
01000000
00100000
10000000
,
00010000
00000000
00100000
00000000
00001000
00010000
00001000
00000000
,
01000000
00000000
00010000
00000000
00100000
01000000
00100000
00000000
,
00001000
00000000
00010000
00000000
00000010
00000100
00000010
00000000
,
00001000
00000100
00000010
00000000
,
00002002
00000000
00003003
00000000
;

//---------------dance-double - Spork!----------------
#NOTES:
     dance-double:
     Spork!:
     Hard:
     7:
     0.381,0.406,0.065,0.083,0.069:
00000000
00000000
00000000
00000000
,
00000000
00000000
00000000
00000000
,
00000000
00000000
00000000
00000000
,
00000000
00000000
00000000
00000000
,
01000000
10000000
01000000
00000000
00100000
00000000
00000000
00000000
00000000
00000000
00000000
00000000
00001000
00000000
00000000
00000000
,
00000000
00000000
00000000
00000000
00010000
00000000
00000000
00000000
00000000
00000000
00000000
00000000
00000010
00001000
00000000
00000000
,
00000100
00000010
00000000
00000010
,
00002002
00000000
00000000
00003003
,
00000001
00000100
00000001
00000100
00000010
00001000
00000010
00001000
,
00000100
00000000
01000000
00000000
,
00010000
00100000
00010000
00100000
01000000
10000000
01000000
10000000
,
00010000
00000000
01000000
00000000
00010000
10000000
00100000
00000000
,
10000000
01000000
10000000
01000000
00100000
00010000
00100000
00010000
,
01000000
00000000
00000100
00000000
,
00001000
00000000
00000010
00000000
00000100
00000001
00000100
00000001
,
00000010
00000100
00001000
00000000
00001000
00000010
00020000
00000000
,
00000000
00000000
00030000
00000000
,
00001000
00100000
10000000
00100000
,
00002000
00000000
00000000
00003000
00020000
00000000
00000000
00030000
,
00010000
00000010
00000001
00000010
,
00010000
00000000
00100000
00000000
10000000
00010000
01000000
00000000
,
00100000
00000000
10000000
01000000
00000000
01000000
00100000
00010000
,
01000000
00000000
00001000
00010000
00000000
00010000
00000100
00001000
,
00000010
00000000
00000100
00000001
00000000
00000001
00001000
00000100
,
00000020
00000000
00000000
00000000
00000000
00000000
00000000
00000000
00000030
00000000
00000001
00001000
00000001
00001000
00000001
00001000
,
00000001
00000000
00000100
00000000
00000010
00001000
00000010
00001000
,
00000100
00000000
00010000
00000000
00001000
00100000
00001000
00100000
,
00010000
00000000
01000000
00000000
00100000
10000000
00100000
10000000
,
00010000
01000000
00100000
00000000
00100000
10000000
00010000
00000000
,
10000000
00000000
01000000
00000000
00100000
00010000
00100000
00010000
,
01000000
00000000
00001000
00000000
00010000
00000010
00010000
00000010
,
00001000
00000100
00000010
00000001
,
00000010
00000001
00000010
00000001
00001000
00000010
00001000
00000010
,
00000100
00000000
00000001
00001000
00000100
00000000
00000100
00000000
,
00010000
00000000
00001000
01000000
00100000
00000000
00000000
00000000
,
00100000
10000000
00010000
01000000
00001000
00000000
00010000
00001000
,
00010000
00010000
00011000
00000000
,
00000100
00000000
00000000
00000000
00000010
00000000
00000000
00000001
00000000
00000000
00000001
00000000
00000100
00000000
00000000
00000000
,
00000010
00000000
00000000
00000000
00001000
00000000
00000000
00000100
00000000
00000000
00000100
00000000
00010000
00000000
00000000
00010000
,
00001000
00000000
00000000
00000000
01000000
00000000
00000000
00010000
00000000
00000000
00010000
00000000
00100000
00000000
00000000
00000000
,
01000000
10000000
10010000
00000000
,
10100000
00000000
00000000
00010000
00000000
01000000
00000000
00001000
,
00011000
00000000
00000000
00000100
00000000
00000010
00000000
00000001
,
00001100
00000000
00000000
00001000
00000000
00000010
00000000
00010000
,
00001000
00100000
00011000
00000000
,
01000000
00000000
00000000
00000000
00000000
00000000
00010000
10000000
00000000
00000000
10000000
01000000
00000000
00000000
01000000
00000000
,
00100000
00000000
00000000
00000000
00000000
00000000
00001000
00010000
00000000
00000000
00010000
00000100
00000000
00000000
00001000
00000000
,
00000010
00000000
00000000
00000000
00000000
00000000
00000100
00000001
00000000
00000000
00000001
00001000
00000000
00000000
00001000
00000000
,
00000010
00000000
00010000
00000000
00001000
00010000
00002000
00000000
,
00000000
00000000
00003000
00000000
,
00010000
00000000
00000100
00000000
00000010
00000100
00000010
00000100
,
00001000
00000000
00000001
00000000
00000100
00000010
00000100
00000010
,
00001000
00000000
00000010
00000000
00010000
00001000
00010000
00001000
,
01000000
00010000
00100000
01000000
10000000
10000000
00010000
00010000
,
10000000
00000000
10000000
00000000
01000000
00100000
01000000
00100000
,
00010000
00000000
10000000
00000000
00100000
01000000
00100000
01000000
,
00010000
00000000
00100000
00000000
00001000
00010000
00001000
00010000
,
00000010
00001000
00000001
00000000
00000001
00000010
00000200
00000000
,
00000020
00000000
00000330
00000000
;

//---------------dance-single - Spork!----------------
#NOTES:
     dance-single:
     Spork!:
     Medium:
     5:
     0.274,0.325,0.046,0.093,0.000:
0000
0000
0000
0000
,
0000
0000
0000
0000
,
0000
0000
0000
0000
,
0000
0000
0000
0000
,
0001
0100
0000
0100
,
0000
0010
0000
0010
,
1000
0100
0000
0100
,
2002
0000
0000
3003
,
1000
0000
0100
0000
1000
0100
0010
0000
,
0001
0000
1000
0000
,
0001
0000
0100
0000
0001
0100
0010
0000
,
1000
1000
0001
0001
,
1000
0000
0010
0000
1000
0010
0100
0000
,
0001
0000
1000
0000
,
0001
0000
0001
0000
0001
1000
0001
0000
,
1000
0001
1000
0000
1000
0000
2000
0000
,
0000
0000
3000
0000
,
0001
0000
0010
0000
,
0200
0000
0320
0000
,
0130
0000
1000
0000
,
0001
0000
1000
0000
,
1001
0100
0000
0010
,
0000
1000
0000
0010
,
1001
0100
0000
0100
,
0220
0000
0000
0330
,
1000
0000
0100
0000
0100
0010
0001
0000
,
0001
0000
0100
0000
0100
0010
1000
0000
,
0001
0000
1000
0000
1000
0100
1000
0000
,
0001
0100
0010
0000
0010
1000
0001
0000
,
1000
0000
0001
0000
0001
0100
0010
0000
,
0010
0000
1000
0000
1000
0010
0100
0000
,
0001
0001
1000
1000
,
0001
0010
0100
1000
0001
0000
0100
0000
,
0010
0000
0000
0000
,
1000
0000
0000
0000
,
0001
0000
0000
0000
,
0100
0000
0000
0000
,
0001
0010
0001
0000
,
0010
0100
0010
0000
,
0100
1000
0001
0000
,
0100
0001
1000
0000
,
0001
0000
0001
0100
0001
0000
1000
0000
,
0010
0100
0001
0000
,
1000
0100
1000
0000
1000
0000
0001
0000
,
0100
0010
1000
0000
,
0101
0001
0010
0001
,
0100
0010
0100
0010
1000
0000
0000
0000
,
0100
0010
0100
0010
0001
0000
1000
0000
,
0001
0000
0001
0000
1000
0001
2000
0000
,
0000
0000
3000
0000
,
1000
0100
0010
0010
,
0001
0100
0010
0010
,
1000
0001
1000
1000
,
0001
0100
0010
0000
0010
1000
0001
0000
,
1000
0000
0010
0000
1000
0010
1000
0000
,
0001
0000
0010
0000
0001
0010
0001
0000
,
1000
0000
1000
0000
0010
0100
0010
0000
,
1000
0100
0010
0000
0010
0001
2000
0000
,
0002
0000
3003
0000
;

//---------------dance-single - Spork!----------------
#NOTES:
     dance-single:
     Spork!:
     Challenge:
     9:
     0.601,0.697,0.491,0.296,0.306: // measure 1
0000
0000
0000
0000
,  // measure 2
0000
0000
0000
0000
,  // measure 3
0000
0000
0000
0000
,  // measure 4
0000
0000
0000
0000
,  // measure 5
0010
0001
0010
0000
0011
0000
2000
0000
000M
0000
3010
0000
1010
0000
0002
0000
,  // measure 6
M000
0000
0103
0000
0101
0000
2000
0000
000M
0000
3100
0000
1000
0010
1000
0000
,  // measure 7
0M01
0010
1001
0200
0000
0310
1001
0100
,  // measure 8
2002
0000
0000
3003
M00M
0MM0
M00M
0000
,  // measure 9
0101
0010
1000
0001
1100
0010
0001
1000
,  // measure 10
0020
0000
MM0M
0030
0200
0000
M0MM
0300
,  // measure 11
1010
0100
0001
1000
0011
0100
1000
0001
,  // measure 12
1100
0000
M101
0000
010M
0010
0100
0000
,  // measure 13
1100
0010
1000
0001
0011
0100
1000
0001
,  // measure 14
0200
0000
M0MM
0300
0020
0000
MM0M
0030
,  // measure 15
1001
0000
1000
0100
1000
0000
0100
0010
0100
0000
0010
0001
0010
0000
0001
0000
,  // measure 16
1001
0000
0100
0000
1001
0000
0010
0000
0100
0001
0100
0001
1000
0010
1000
0010
,  // measure 17
0M00
000M
0M00
000M
M000
00M0
M000
00M0
0000
0M00
000M
M000
00M0
0M00
000M
0000
,  // measure 18
1000
0000
1000
0000
0001
0100
0001
0010
,  // measure 19
2000
0000
0000
3000
0002
0000
0000
0003
,  // measure 20
0001
0000
0001
0000
1000
0100
1000
0010
,  // measure 21
0001
0000
1000
0000
0001
0010
0001
0100
,  // measure 22
1010
0000
0010
0101
0000
0001
1100
0010
,  // measure 23
1001
0000
0100
0000
0010
0000
1001
0000
0000
0000
0100
0000
0011
0000
0001
1000
,  // measure 24
0010
0000
0100
0000
0001
0000
1100
0000
0000
0000
0010
0000
1001
0000
0100
1000
,  // measure 25
0002
0000
0000
0000
0000
0000
0000
0000
0003
0000
1000
0100
0010
0001
0100
0010
,  // measure 26
1010
0000
0010
0100
0010
0000
0010
1000
0010
0000
0100
0000
0001
0000
0001
0000
,  // measure 27
1100
0000
0100
0010
0100
0000
0100
1000
0100
0000
0010
0000
0001
0000
0001
0000
,  // measure 28
0011
0000
0010
0100
0010
0000
0010
0001
0010
0000
0100
0000
1000
0000
1000
0000
,  // measure 29
4400
0000
0000
3000
0004
0000
0000
0303
,  // measure 30
1001
0000
0100
0001
0100
0000
0100
0010
0100
0000
0010
0000
1000
0000
1000
0000
,  // measure 31
1001
0000
0100
1000
0100
0000
0100
0010
0100
0000
0010
0000
0001
0000
0001
0000
,  // measure 32
1001
0000
0010
0001
0100
0000
0010
1000
0100
0000
0010
0001
0100
0000
0001
0000
,  // measure 33
1001
0000
0010
0000
1001
0000
0100
0000
0010
1000
0010
1000
0001
0100
0001
0100
,  // measure 34
0010
M000
0010
010M
0010
M000
0010
010M
,  // measure 35
0010
1M00
0010
M100
0002
00M0
0003
M000
,  // measure 36
0100
00M1
1000
010M
1000
0M00
0001
M010
,  // measure 37
0100
000M
0100
M000
0220
0000
0330
0000
,  // measure 38
1001
0000
0010
0000
1000
0000
0001
1000
0000
0000
0100
0000
0001
0000
0100
0000
,  // measure 39
1100
0000
0010
0000
0001
0000
1000
0001
0000
0000
0100
0000
1000
0000
0000
0000
,  // measure 40
0101
0000
0010
0000
1000
0000
0100
0010
0000
0000
0100
0000
1100
0000
0001
0000
,  // measure 41
0100
M000
0100
000M
0220
0000
0330
0000
,  // measure 42
0002
0000
0010
0010
0100
0000
0100
0100
,  // measure 43
1000
0010
1000
0010
0103
0000
MMMM
0000
,  // measure 44
2000
0010
0001
0100
0010
0000
0100
0100
,  // measure 45
0001
3001
1001
MMMM
,  // measure 46
10M0
0000
M100
0001
1M00
0000
M001
0100
,  // measure 47
10M0
0001
M100
0001
20M0
0000
300M
0000
,  // measure 48
M010
0001
0M10
1000
0M01
0000
M010
0001
,  // measure 49
1M01
0000
0010
0000
1001
0000
0100
0000
0010
0001
0010
0001
1000
0100
1000
0100
,  // measure 50
00M0
000M
00M0
000M
M000
0M00
M000
0M00
0000
0000
0001
0100
0010
1000
0100
0010
,  // measure 51
0011
0000
1000
0010
1000
0000
0010
0100
0010
0000
2000
0000
0001
0000
3010
0000
,  // measure 52
1000
0000
0001
0100
0001
0000
0100
0010
0100
0000
0002
0000
1000
0000
0103
0000
,  // measure 53
0001
0000
0100
0001
0100
0000
0010
0100
0010
0000
0002
0000
1000
0000
0013
0000
,  // measure 54
0404
0000
0000
0003
4000
0000
0000
3300
,  // measure 55
0110
1001
0401
1000
,  // measure 56
M31M
1MM1
1040
0001
,  // measure 57
M13M
0000
1MM1
0000
1001
0100
1001
0010
,  // measure 58
0100
1000
0100
1000
0001
0010
0001
0010
0100
1000
0010
0100
0001
1000
0100
0010
;

//---------------dance-double - Spork!----------------
#NOTES:
     dance-double:
     Spork!:
     Challenge:
     10:
     0.595,0.697,0.296,0.204,0.273:
00000000
00000000
00000000
00000000
,
00000000
00000000
00000000
00000000
,
00000000
00000000
00000000
00000000
,
00000000
00000000
00000000
00000000
,
00100000
00010000
00100000
00000000
00001000
00010000
00001000
00000000
00000010
00001000
00000010
00000000
00001000
00010000
00001000
00000000
,
00000100
00001000
00000100
00000000
00001000
00010000
00001000
00000000
00010000
01000000
00010000
00000000
00001000
00010000
00001000
00000000
,
00000010
00000100
00000010
00000000
00001000
00010000
00001000
00000000
01000000
00100000
01000000
00000000
00001000
00010000
00001000
00000000
,
00000100
00000001
00000100
00000000
00001000
00000000
00010000
00000000
01000000
10000000
01000000
00000000
00010000
00000000
00001000
00000000
,
00M11000
01000000
00001M00
00010000
0M011000
00000100
000100M0
00001000
,
200M0000
00000000
00M00M00
00000000
0M0210M0
00000000
00M00M00
30030000
,
0M011000
00100000
00001M00
00010000
00M11000
00000010
00010M00
00001000
,
010M0000
00000000
10M10000
00000000
00001M00
00010000
0100M000
00000000
,
000110M0
00000100
00M10000
00001000
00011M00
00100000
0M001000
00010000
,
0000M002
00000000
00M00M00
00000000
0M0120M0
00000000
00M00M00
00003003
,
000010M1
00000000
00000001
00000010
00001000
00000000
00000010
00001000
00010000
00000000
00001000
00010000
00100000
00000000
00100000
00000000
,
00010000
00000000
00100000
10000000
00010000
00000000
10000000
00000000
00010000
00100000
00010000
00100000
00001000
00010000
M000100M
00010000
,
0M0000M0
00M00M00
000MM000
00M00M00
0M0000M0
M000000M
00000000
00000000
,
01000000
00000000
01000000
00000000
00100000
01000000
00100000
00010000
,
00200000
00000000
00300020
00000000
,
00000130
00000000
00000100
00000000
00000010
00000100
00000010
00001000
,
00000010
00000000
00100000
00000000
00100000
01000000
00100000
00010000
,
11000000
00100000
00001000
00011000
00000000
00010000
00001100
00001000
,
00011000
00000000
00010000
00000000
00100000
00000000
10100000
00000000
00000000
00000000
10000000
00000000
01010000
00000000
00010000
00100000
,
00001000
00010000
00000100
00000011
00000000
00000100
00001001
00000010
,
00000200
00000000
00000000
00000000
00000000
00000000
00000000
00000000
00000300
00000000
00000001
00000010
00000100
00001000
00000100
00000010
,
00000002
00000000
00000200
00000000
00000010
00010000
00001000
00010000
,
00000010
00000300
00020000
00000000
00001000
00100000
00000010
00100003
,
00001000
00000000
00000200
00000000
00000010
00001000
00000001
00031300
,
00010000
01000000
10000000
00100000
00010000
00001000
00010000
00100000
,
20000000
00000000
02000000
00000000
00100000
00001000
00010000
03001000
,
00100000
00000000
00002000
00000000
00010000
00000010
00100000
30000010
,
00010000
00000000
02000000
00000000
10010000
00000000
00100010
03003000
,
00001000
00000000
00000100
00000000
00000001
00000000
00000010
00000000
00001000
00000010
00001000
00010000
00001000
00010000
00100000
00010000
,
00001000
00000000
00000010
00000100
00001000
00000000
00000010
00000100
,
00000001
00000001
00001000
00000010
00020000
00000000
0000MM00
00000000
,
01030000
00100000
00010000
10000000
01000000
00000000
01000000
00010000
,
00001000
00000000
00001000
00000000
00022000
00000000
00M000M0
00033000
,
00011000
00000000
00010000
00000000
00100000
00000000
10000000
01000000
00000000
00000000
10000000
00000000
11000000
00000000
00000000
10000000
,
00010000
00000000
01000000
00000000
00001000
00000000
00100000
00010000
00000000
00000000
00001000
00000000
00001010
00000000
00000000
00000000
,
00001000
00000000
00010000
00000000
00000010
00000000
00000100
00000001
00000000
00000000
00000010
00000000
00000011
00000000
00000100
00000000
,
00020000
00000020
00101M0M
00030030
,
00010000
00001000
00000100
00000010
00010000
00001000
00000010
00010000
,
00100000
00001000
00010000
00100000
10000000
00000000
01010000
00000000
,
00001000
00010000
00100000
01000000
00001000
00010000
01000000
00001000
,
00000200
00020000
MM001001
00030300
,
00010000
00001000
00000010
00000100
00000001
00001000
00010000
00001000
,
00100000
00010000
00000010
00000100
00010000
00000000
00101000
00000000
,
00001000
00010000
00100000
01000000
10000000
00010000
00001000
00010000
,
00000010
00000000
00001000
00000000
00100000
00000000
00001000
00000000
00000010
00000100
00000010
00000100
00000001
00000010
00000100
00001000
,
00000000
00000000
0000000M
000000M0
00000M00
0000M000
000M0000
00M00000
0M000000
M0000000
00000001
00000100
00000010
00001000
00000010
00000100
,
00000001
00000000
00000100
00000000
00001000
00000000
00010000
00001000
00000100
00000000
00001000
00000000
00010000
00000000
00010000
00000000
,
00001000
00000000
00010000
00000000
01000000
00000000
10000000
01000000
00010000
00000000
00001000
00000000
00100000
00000000
00100000
00000000
,
00001000
00000000
00010000
00000000
00100000
00000000
00010000
00001000
00000010
00000000
00000100
00000000
00001000
00000000
00001000
00000000
,
00000001
00000100
00000010
00000010
01000000
00010000
00100000
00100000
,
11000000
00000000
01000000
00000000
00010000
00000000
00001000
00010000
01000000
00000000
00010000
00000000
00001000
00000000
00001000
00000000
,
00011000
00000000
00001000
00000000
00000100
00000000
00000001
00000100
00001000
00000000
00010000
00000000
00000010
00000000
00000010
00000000
,
00011000
00000000
00001000
00000000
00000010
00000000
00001000
00010000
00100000
00000000
01000000
00000000
00010000
00000000
00010000
00000000
,
10000000
01000000
10000000
01000000
00100000
00010000
00100000
00010000
01000000
00100000
00010000
00001000
00000100
00000010
00001000
00000001
;
